#VERSION:0.83;
#TITLE:Northern Wind;
#SUBTITLE:;
#ARTIST:Nhato;
#TITLETRANSLIT:;
#SUBTITLETRANSLIT:;
#ARTISTTRANSLIT:;
#GENRE:Trance;
#ORIGIN:;
#CREDIT:;
#BANNER:Northern Wind.png;
#BACKGROUND:Northern Wind-bg.png;
#PREVIEWVID:;
#JACKET:Northern Wind-jacket.png;
#CDIMAGE:;
#DISCIMAGE:;
#LYRICSPATH:;
#CDTITLE:cdtitle.png;
#MUSIC:Northern Wind.ogg;
#OFFSET:0.500000;
#SAMPLESTART:90.699997;
#SAMPLELENGTH:12.800003;
#SELECTABLE:YES;
#BPMS:0.000=150.000;
#STOPS:;
#DELAYS:;
#WARPS:;
#TIMESIGNATURES:0.000=4=4;
#TICKCOUNTS:0.000=4;
#COMBOS:0.000=1;
#SPEEDS:0.000=1.000=0.000=0;
#SCROLLS:0.000=1.000;
#FAKES:;
#LABELS:0.000=Song Start;
#BGCHANGES:;
#KEYSOUNDS:;
#ATTACKS:
;

//---------------dance-single - ----------------
#NOTEDATA:;
#CHARTNAME:;
#STEPSTYPE:dance-single;
#DESCRIPTION:;
#CHARTSTYLE:;
#DIFFICULTY:Challenge;
#METER:15;
#RADARVALUES:0.684659,0.876162,0.148993,0.480089,0.678746,579.000000,561.000000,18.000000,58.000000,0.000000,0.000000,0.000000,0.000000,0.000000,0.684659,0.876162,0.148993,0.480089,0.678746,579.000000,561.000000,18.000000,58.000000,0.000000,0.000000,0.000000,0.000000,0.000000;
#CREDIT:;
#NOTES:
// measure 0
0000
0000
0000
0000
,  // measure 1
0000
0000
0000
0000
,  // measure 2
0000
0000
0000
0000
,  // measure 3
0000
0000
0000
0000
,  // measure 4
0000
0000
0000
0000
,  // measure 5
1001
0000
0110
0000
,  // measure 6
1010
0000
0000
0011
0000
0000
0110
0000
0110
0000
0000
0000
0000
0000
0000
0000
,  // measure 7
2002
0000
0000
0000
,  // measure 8
0000
0000
0000
0000
0000
0000
0000
0000
3003
0000
1000
0001
0100
0000
0000
0000
,  // measure 9
0210
0000
0001
0000
0310
1000
0100
0010
,  // measure 10
0200
0000
1000
0000
0310
0001
1000
0010
,  // measure 11
0200
0000
0000
0000
1000
0000
0000
0000
0010
0000
0000
0000
0301
0100
0001
0000
,  // measure 12
0020
0000
1000
0000
0130
0010
0001
0000
,  // measure 13
1000
0000
0100
0010
0100
0000
0010
0000
0001
0000
0100
0010
0100
0000
0010
0000
,  // measure 14
1000
0000
0010
1000
0100
0000
0010
0000
0001
0000
0010
0001
0100
0000
0010
0000
,  // measure 15
1000
0010
1000
0000
0010
0100
0010
0000
0100
0001
0100
0000
0001
0010
0001
0000
,  // measure 16
0010
0100
0010
0000
0100
1000
0100
0000
0010
0001
0100
0010
1000
0000
0000
0000
,  // measure 17
0001
0000
0100
0010
1000
0000
0010
0000
0010
0000
1000
0100
0010
0000
0100
0000
,  // measure 18
0001
0100
0000
0010
0100
0000
1000
0010
0000
0010
0100
0000
0002
0000
0000
0000
,  // measure 19
1003
0000
0100
0010
0001
0000
0010
0000
0010
0000
0001
0100
0010
0000
0100
0000
,  // measure 20
1000
0100
0000
0010
0100
0000
0001
0010
0000
0010
0100
0000
1000
0000
1000
0000
,  // measure 21
0010
0000
0100
0001
0010
0000
0100
0000
0100
0000
0010
0001
0100
0000
0010
0000
,  // measure 22
1000
0010
0000
0001
0010
0000
0100
0010
0000
0010
1000
0000
0200
0000
0000
0000
,  // measure 23
0310
0000
0100
1000
0010
0000
0100
0000
0100
0000
0010
1000
0100
0000
0001
0000
,  // measure 24
0100
0000
2000
0000
3010
0100
0010
0100
0002
0000
1000
0000
1003
0010
0100
0001
,  // measure 25
1000
0100
1000
0100
0010
0000
0001
0000
0100
0000
0010
1000
0000
0010
1000
0000
,  // measure 26
0100
0010
0100
0010
0001
0000
1000
0001
0200
0000
0000
2300
0000
0000
3200
0000
,  // measure 27
0301
0100
0001
0100
0010
0000
1000
0000
0100
0000
0010
0001
0000
0010
0001
0000
,  // measure 28
0100
0010
0100
0010
1000
0000
0001
1000
0200
0000
0000
0302
0000
0000
0203
0000
,  // measure 29
1300
0100
0010
0001
1000
0000
0100
0000
0001
0000
0100
1000
0000
0001
0100
0000
,  // measure 30
0010
1000
0100
1000
0010
0000
1000
0001
0020
0000
0000
2030
0000
0000
3020
0000
,  // measure 31
0031
0100
0010
1000
0001
0000
0100
0000
1000
0000
0100
0001
0000
1000
0100
0000
,  // measure 32
0010
0001
0100
0001
0010
0000
0100
1000
0010
0000
0000
0110
0000
0000
0100
0001
,  // measure 33
2000
0000
0000
0100
0000
0000
0100
0000
3200
0000
0000
0320
0000
0000
2030
0000
,  // measure 34
0000
3020
0000
0000
0230
0000
0000
2300
0000
0000
3002
0000
0000
0003
0000
0000
,  // measure 35
0002
0000
0000
0100
0000
0000
0100
0000
0203
0000
0000
0320
0000
0000
0032
0000
,  // measure 36
0000
0023
0000
0000
0230
0000
0000
0302
0000
0000
2003
0000
0000
3000
0000
0000
,  // measure 37
2002
0000
0000
0000
3003
1000
0100
0010
,  // measure 38
0100
0000
0010
0000
0001
0000
0100
0000
0000
0000
0100
0000
0010
1000
0002
0000
,  // measure 39
0000
0000
0000
0000
,  // measure 40
2000
0000
0000
3003
,  // measure 41
1002
0000
0000
0000
0013
0000
0100
1000
0001
1000
0100
0000
0010
0000
0001
0100
,  // measure 42
0001
0000
0100
0000
0010
0000
0100
0001
1000
0001
0100
0000
0010
0000
1000
0000
,  // measure 43
2001
0000
0000
0000
3010
0000
0100
0001
0010
0100
0010
0000
0100
0000
1000
0010
,  // measure 44
1000
0000
0001
0000
0010
0000
0100
1000
0010
0100
0010
0000
0100
0001
0100
0001
,  // measure 45
2000
0000
0000
0000
3010
0000
0000
0010
1000
0000
1010
0000
1100
0000
0000
0000
,  // measure 46
0002
0000
0000
0000
0013
0000
0000
0010
0001
0000
0011
0000
0101
0000
0000
0000
,  // measure 47
2000
0000
0000
0000
3001
0000
0000
0001
1000
0000
0100
0010
0001
0100
0010
0000
,  // measure 48
1000
0000
1000
0000
0100
0000
0000
0001
0100
0000
1000
0000
0001
0100
0001
0100
,  // measure 49
0020
1000
1000
1000
,  // measure 50
1000
1000
0130
0001
,  // measure 51
0020
0001
0001
0001
,  // measure 52
0001
0001
0130
1000
,  // measure 53
0001
0100
0001
0000
0010
0000
0010
0000
0001
0010
0001
0000
0100
0000
0001
0000
,  // measure 54
1000
0100
1000
0000
0010
0000
0010
0000
1000
0010
1000
0000
0100
0000
1000
0000
,  // measure 55
0001
0100
0001
0000
0100
0010
0100
0000
0010
1000
0010
0000
1000
0100
1000
0000
,  // measure 56
0100
0000
0010
0100
1000
0001
1000
0010
0000
0010
1000
0001
0010
0100
1000
0001
,  // measure 57
0200
0000
0001
1000
0000
0000
1000
0001
0000
0000
0301
0000
1000
0000
0001
0000
,  // measure 58
0020
0000
0001
1000
0000
0000
1000
0001
0000
0000
0031
0000
1000
0000
0010
0000
,  // measure 59
0200
0000
0010
1000
0000
0000
1000
0010
0000
0000
0310
0000
1000
0001
1000
0000
,  // measure 60
0020
0000
0100
0001
0000
0000
0001
0100
0000
0000
2030
0000
0001
0000
3001
0000
,  // measure 61
0020
0000
0001
0100
0000
0000
1000
0100
0000
0000
0031
0000
0100
0000
1000
0000
,  // measure 62
0001
0000
0010
0000
1000
0000
0001
1000
0001
0000
1000
0000
0100
1000
0010
0000
,  // measure 63
0100
0001
0010
0000
0100
0000
0010
0000
1000
0000
0010
0001
0000
0001
0100
0000
,  // measure 64
0010
1000
0010
1000
0100
0000
0010
0000
0110
0000
0000
0010
0000
0001
0100
0010
,  // measure 65
2000
0000
0010
0100
0000
0000
0100
0010
0000
0000
3010
0000
0010
0000
1000
0000
,  // measure 66
0002
0000
0010
0100
0000
0000
0100
0010
0000
0000
0013
0000
0010
0000
0001
0000
,  // measure 67
2000
0000
0100
0010
0000
0000
0010
0100
0000
0000
3001
0000
1000
0010
1000
0000
,  // measure 68
0002
0000
0100
0010
0000
0000
0010
0100
0000
0000
1003
0000
0001
1000
0001
1000
,  // measure 69
0200
0000
0010
0001
0000
0000
0010
1000
0000
0000
0301
0000
0100
0000
1000
0020
,  // measure 70
0000
0000
0031
0000
0010
0000
1000
0000
0100
0000
0001
0000
0100
1000
0010
0000
,  // measure 71
0100
0001
0100
0001
0100
0001
0100
0001
1000
0100
1000
0100
1000
0100
1000
0100
,  // measure 72
0010
0001
0100
0010
0100
0000
0000
0000
0110
0000
0001
1000
0100
0000
0010
0001
,  // measure 73
1000
0000
0000
0000
;

//---------------dance-single - ----------------
#NOTEDATA:;
#CHARTNAME:;
#STEPSTYPE:dance-single;
#DESCRIPTION:;
#CHARTSTYLE:;
#DIFFICULTY:Hard;
#METER:12;
#RADARVALUES:0.481271,0.574037,0.124161,0.306264,0.256599,407.000000,392.000000,15.000000,37.000000,0.000000,0.000000,0.000000,0.000000,0.000000,0.481271,0.574037,0.124161,0.306264,0.256599,407.000000,392.000000,15.000000,37.000000,0.000000,0.000000,0.000000,0.000000,0.000000;
#CREDIT:;
#NOTES:
// measure 0
0000
0000
0000
0000
,  // measure 1
0000
0000
0000
0000
,  // measure 2
0000
0000
0000
0000
,  // measure 3
0000
0000
0000
0000
,  // measure 4
0000
0000
0000
0000
,  // measure 5
1001
0000
0110
0000
,  // measure 6
0100
0000
0000
0100
0000
0000
0010
0000
1001
0000
0000
0000
0000
0000
0000
0000
,  // measure 7
0220
0000
0000
0000
,  // measure 8
0000
0000
0000
0000
0000
0300
0030
0000
,  // measure 9
2000
0010
0001
3100
,  // measure 10
0200
0001
0010
1300
,  // measure 11
0020
0001
0100
1030
,  // measure 12
0002
0100
1000
0013
,  // measure 13
0001
0000
0000
0001
0000
0000
0001
0000
0100
0000
0000
0100
0000
0000
0100
0000
,  // measure 14
0010
0000
0000
0010
0000
0000
0010
0000
1000
0000
0000
1000
0000
0000
1000
0000
,  // measure 15
0100
0010
0100
0010
0001
0100
0010
1000
,  // measure 16
0010
0001
0010
1000
0001
0100
0110
0000
,  // measure 17
1000
0000
0000
1000
0000
0000
0100
0000
0010
0000
0000
0010
0000
0000
0100
0000
,  // measure 18
0000
1000
0000
0000
0010
0000
0000
0001
0000
0000
0010
0000
2000
0000
0000
0000
,  // measure 19
3001
0000
0000
0001
0000
0000
0100
0000
0010
0000
0000
0010
0000
0000
0100
0000
,  // measure 20
0000
0001
0000
0000
0010
0000
0000
1000
0000
0000
0010
0000
0001
0000
0100
0000
,  // measure 21
0010
0000
0000
0010
0000
0000
1000
0000
0100
0000
0000
0100
0000
0000
0001
0000
,  // measure 22
0000
1000
0000
0000
0010
0000
0000
0001
0000
0000
1000
0000
0002
0000
0000
0000
,  // measure 23
0013
0000
0000
0010
0000
0000
0001
0000
0100
0000
0000
0100
0000
0000
1000
0000
,  // measure 24
0000
0001
0000
0000
0010
0000
1000
0000
0002
0000
0000
0000
0103
0000
0010
0000
,  // measure 25
1000
0000
0100
0000
0001
0000
0000
0000
0100
0000
0000
0010
0000
0000
0100
0000
,  // measure 26
0001
0000
0100
0000
1000
0000
0000
0000
0010
0000
0000
0010
0000
0000
0100
0000
,  // measure 27
0001
0000
0100
0000
1000
0000
0000
0000
0100
0000
0000
0010
0000
0000
0100
0000
,  // measure 28
1000
0000
0100
0000
0001
0000
0000
0000
0010
0000
0000
0010
0000
0000
0100
0000
,  // measure 29
1000
0000
0010
0000
0001
0000
0000
0000
0010
0000
0000
0100
0000
0000
0010
0000
,  // measure 30
0001
0000
0010
0000
1000
0000
0000
0000
0100
0000
0000
0100
0000
0000
0010
0000
,  // measure 31
0001
0000
0010
0000
1000
0000
0000
0000
0010
0000
0000
0100
0000
0000
0010
0000
,  // measure 32
1000
0000
0010
0000
0001
0000
0000
0000
0011
0000
0000
1001
0000
0000
0001
0000
,  // measure 33
0200
0000
0320
0000
,  // measure 34
0230
0000
0000
0000
0000
0000
0000
0000
0301
0000
0000
1000
0000
0000
1000
0000
,  // measure 35
0200
0000
0320
0000
,  // measure 36
0230
0000
0000
0000
0000
0000
0000
0000
1300
0000
0000
0001
0000
0000
0100
0000
,  // measure 37
0020
0000
0000
0000
0030
0100
0001
0100
,  // measure 38
0001
0000
1000
0000
0100
0000
0010
0000
0000
0000
0100
0000
1000
0001
2000
0000
,  // measure 39
0000
0000
0000
0000
,  // measure 40
0002
0000
0000
3003
,  // measure 41
2000
0000
0000
0000
0010
0000
0000
3100
1000
0000
0010
0000
1000
0000
0000
0000
,  // measure 42
1010
0001
0101
1000
,  // measure 43
0002
0000
0000
0000
0010
0000
0000
0103
0001
0000
0010
0000
0001
0000
0000
0000
,  // measure 44
0011
1000
1100
0001
,  // measure 45
0100
0000
0000
0000
0110
0000
0000
0001
0100
0000
0001
0000
1000
0000
0000
0000
,  // measure 46
0100
0000
0000
0000
0110
0000
0000
1000
0100
0000
1000
0000
0001
0000
0000
0000
,  // measure 47
0100
0000
0000
0000
1001
0000
0000
1000
0010
0000
1000
0000
0001
0010
0000
0000
,  // measure 48
0100
0000
0100
0000
0010
0000
0000
0100
1000
0000
0001
0000
0100
0010
0100
0000
,  // measure 49
0020
1000
1000
1000
,  // measure 50
1000
1000
0130
0001
,  // measure 51
0020
0001
0001
0001
,  // measure 52
0001
0001
0130
1000
,  // measure 53
0001
0001
0100
0000
0100
0100
1000
0000
,  // measure 54
1000
1000
0010
0000
0010
0010
0001
0000
,  // measure 55
0001
1000
0010
1000
0001
1000
0010
1000
,  // measure 56
0001
0000
0010
0000
0100
0010
0100
0000
0000
0010
0100
0000
1000
0000
0010
0000
,  // measure 57
0200
0000
0000
1300
0100
0000
0010
0000
0100
0000
0001
0000
0001
0000
1000
0000
,  // measure 58
0200
0000
0000
0301
0100
0000
0010
0000
0100
0000
1000
0000
1000
0000
0001
0000
,  // measure 59
0020
0000
0000
1030
0010
0000
0100
0000
0010
0000
0001
0000
1000
0001
1000
0000
,  // measure 60
0020
0000
0000
0031
0010
0000
0100
0000
0010
0000
1000
0000
0100
0000
0010
0000
,  // measure 61
0002
0000
0000
0103
0010
0000
1000
0000
0001
0000
1000
0000
0100
0000
0001
0000
,  // measure 62
1000
0000
0010
0000
0001
0000
2000
0000
0000
0000
3100
0000
0010
0001
0200
0000
,  // measure 63
0000
0000
0301
0000
0100
0000
1000
0000
0001
0000
0000
0010
0000
0000
1000
0000
,  // measure 64
0001
1000
0001
0000
0010
0000
0000
0000
0110
0000
0000
0100
1000
0000
0010
0000
,  // measure 65
0002
0000
0000
1003
0100
0000
0001
0000
0100
0000
0001
0000
0001
0000
0010
0000
,  // measure 66
2000
0000
0000
3001
0100
0000
1000
0000
0100
0000
1000
0000
0001
0000
0100
0000
,  // measure 67
2000
0000
0000
3001
0010
0000
1000
0000
0010
0000
1000
0000
0100
0010
0100
0000
,  // measure 68
0002
0000
0000
1003
0010
0000
0001
0000
0010
0000
0001
0000
0100
0000
0010
0000
,  // measure 69
2000
0000
0000
3100
0010
0000
0100
0000
1000
0000
0010
0000
0001
0000
0010
2000
,  // measure 70
0000
0000
3100
0000
0001
0000
0200
0000
0000
0000
1300
0000
0001
0100
0020
0000
,  // measure 71
0000
1030
0100
0010
0001
0100
0010
1000
,  // measure 72
0001
0010
0001
0000
0010
0000
0000
0010
0100
0000
1000
0001
1000
0000
0010
0000
,  // measure 73
0100
0000
0000
0000
;

//---------------dance-single - ----------------
#NOTEDATA:;
#CHARTNAME:;
#STEPSTYPE:dance-single;
#DESCRIPTION:;
#CHARTSTYLE:;
#DIFFICULTY:Medium;
#METER:9;
#RADARVALUES:0.399680,0.453187,0.165548,0.281431,0.004139,338.000000,318.000000,20.000000,34.000000,0.000000,0.000000,0.000000,0.000000,0.000000,0.399680,0.453187,0.165548,0.281431,0.004139,338.000000,318.000000,20.000000,34.000000,0.000000,0.000000,0.000000,0.000000,0.000000;
#CREDIT:;
#NOTES:
// measure 0
0000
0000
0000
0000
,  // measure 1
0000
0000
0000
0000
,  // measure 2
0000
0000
0000
0000
,  // measure 3
0000
0000
0000
0000
,  // measure 4
0000
0000
0000
0000
,  // measure 5
1000
0000
0001
0000
,  // measure 6
0100
0000
0000
0100
0000
0000
0010
0000
0100
0000
0000
0000
0000
0000
0000
0000
,  // measure 7
2002
0000
0000
0000
,  // measure 8
0000
0000
0000
0000
0000
3000
0003
0000
,  // measure 9
2000
0010
0001
0010
,  // measure 10
3002
0010
1000
0010
,  // measure 11
2003
0100
0010
0100
,  // measure 12
3002
0100
0010
0100
,  // measure 13
1003
1100
0100
0101
,  // measure 14
0001
0011
0010
1010
,  // measure 15
1000
0100
0010
0000
0001
0100
0010
0000
,  // measure 16
1000
0100
1000
0100
0010
0001
1000
0000
,  // measure 17
0001
0100
0001
0000
0001
0100
0001
0000
,  // measure 18
0010
0000
0010
0000
0001
0100
0010
0000
,  // measure 19
1000
0100
1000
0000
1000
0100
1000
0000
,  // measure 20
0010
0000
0010
0000
1000
0100
0010
0000
,  // measure 21
0001
0100
0001
0000
0001
0010
0001
0000
,  // measure 22
1000
0000
1000
0000
0010
0100
0001
0000
,  // measure 23
1000
0100
1000
0000
1000
0010
1000
0000
,  // measure 24
0001
1000
2002
3003
,  // measure 25
1000
0100
0001
0000
0100
0000
0100
0000
,  // measure 26
0001
0100
1000
0000
0100
0000
0010
0000
,  // measure 27
0001
0100
1000
0000
0100
0000
0100
0000
,  // measure 28
1000
0100
0001
0000
0100
0000
0010
0000
,  // measure 29
1000
0010
0001
0000
0010
0000
0010
0000
,  // measure 30
0001
0010
1000
0000
0100
0000
0010
0000
,  // measure 31
0001
0010
1000
0000
0010
0000
0010
0000
,  // measure 32
1000
0010
0001
0000
0100
0000
0010
0000
,  // measure 33
2000
0000
3020
0000
,  // measure 34
2030
0000
3100
0010
,  // measure 35
0002
0000
0023
0000
,  // measure 36
0032
0000
0103
0010
,  // measure 37
2000
0000
0000
0000
3000
0001
0001
0000
,  // measure 38
0100
0001
1000
0100
0000
0010
0001
2000
,  // measure 39
0000
0000
0000
0000
,  // measure 40
0002
0000
0000
3003
,  // measure 41
0001
0000
0101
0000
1000
0001
0100
0000
,  // measure 42
0010
0100
0010
0000
0010
1000
0001
0000
,  // measure 43
1000
0000
1100
0000
0001
1000
0100
0000
,  // measure 44
0010
0100
0010
0000
0010
0001
1000
0000
,  // measure 45
0001
0000
0011
0000
0001
0100
0010
0000
,  // measure 46
1000
0000
1010
0000
1000
0100
0010
0000
,  // measure 47
0100
0000
0110
0000
0010
0001
0100
0000
,  // measure 48
0010
1000
0100
0000
0010
0100
0010
0100
,  // measure 49
2000
0001
0001
0001
,  // measure 50
0001
3001
1001
1001
,  // measure 51
0002
1000
1000
1000
,  // measure 52
1000
1003
1001
1001
,  // measure 53
0001
0101
0100
1100
,  // measure 54
1000
1010
0010
0011
,  // measure 55
0001
0100
0010
0000
1000
0100
0010
0000
,  // measure 56
0001
0100
0001
0100
0000
0010
1000
0000
,  // measure 57
0002
0000
0010
0000
0013
0100
0010
0002
,  // measure 58
0100
0000
0100
0000
0103
0010
0100
0002
,  // measure 59
0010
0000
0010
0000
0013
0100
1000
0020
,  // measure 60
1000
0000
1000
0000
0130
0010
1000
0100
,  // measure 61
0020
0000
0100
0000
0130
1000
0010
1000
,  // measure 62
0010
0100
0001
2000
0000
3100
0010
0002
,  // measure 63
0000
1000
1003
0000
0010
0000
1000
0000
,  // measure 64
0100
0100
0010
0000
0110
0000
0010
0001
,  // measure 65
2000
0000
0010
0000
3010
0100
0010
2000
,  // measure 66
0100
0000
0100
0000
3100
0010
0100
2000
,  // measure 67
0010
0000
0010
0000
3010
0100
0001
0020
,  // measure 68
0001
0000
0001
0000
0130
0010
0001
0100
,  // measure 69
0020
0000
0100
0000
0130
0010
1000
0200
,  // measure 70
0000
0310
0001
0200
0000
0010
0010
0020
,  // measure 71
0000
0000
0000
0330
,  // measure 72
1000
0010
1000
0010
0100
0001
0010
0000
,  // measure 73
0100
0000
0000
0000
;

//---------------dance-single - ----------------
#NOTEDATA:;
#CHARTNAME:;
#STEPSTYPE:dance-single;
#DESCRIPTION:;
#CHARTSTYLE:;
#DIFFICULTY:Easy;
#METER:5;
#RADARVALUES:0.251869,0.302125,0.041387,0.339373,0.000000,213.000000,208.000000,5.000000,41.000000,0.000000,0.000000,0.000000,0.000000,0.000000,0.251869,0.302125,0.041387,0.339373,0.000000,213.000000,208.000000,5.000000,41.000000,0.000000,0.000000,0.000000,0.000000,0.000000;
#CREDIT:;
#NOTES:
// measure 0
0000
0000
0000
0000
,  // measure 1
0000
0000
0000
0000
,  // measure 2
0000
0000
0000
0000
,  // measure 3
0000
0000
0000
0000
,  // measure 4
0000
0000
0000
0000
,  // measure 5
0100
0000
0100
0000
,  // measure 6
0010
0000
0010
0000
,  // measure 7
2002
0000
0000
0000
,  // measure 8
0000
0000
0000
0000
0000
3000
0003
0000
,  // measure 9
2000
0000
3010
0100
,  // measure 10
0002
0000
0013
0100
,  // measure 11
2000
0000
3100
0010
,  // measure 12
0002
0000
0103
0010
,  // measure 13
1000
1000
0001
0001
,  // measure 14
0010
0010
0100
0100
,  // measure 15
1000
0001
0100
0010
,  // measure 16
0100
0100
0200
0300
,  // measure 17
0001
0001
0100
0100
,  // measure 18
0010
1000
0001
0000
,  // measure 19
1000
1000
0100
0100
,  // measure 20
0010
0001
1000
0000
,  // measure 21
0010
0010
0100
0100
,  // measure 22
0010
1000
0100
0000
,  // measure 23
0010
0010
0100
0100
,  // measure 24
0010
0001
2002
3003
,  // measure 25
0001
0100
0001
0000
,  // measure 26
0100
1000
0100
0000
,  // measure 27
1000
0010
1000
0000
,  // measure 28
0010
0001
0010
0000
,  // measure 29
1000
0010
1000
0000
,  // measure 30
0100
1000
0100
0000
,  // measure 31
0001
0100
0001
0000
,  // measure 32
0010
0100
1000
0010
,  // measure 33
0200
0000
0302
0000
,  // measure 34
2003
0000
3001
1000
,  // measure 35
0200
0000
2300
0000
,  // measure 36
3002
0000
1003
0001
,  // measure 37
0020
0000
0000
0130
,  // measure 38
0100
1000
0001
0000
,  // measure 39
2002
0000
0000
0000
,  // measure 40
3003
0000
0000
0000
,  // measure 41
0002
0003
0100
0100
,  // measure 42
0001
0010
0001
1000
,  // measure 43
2000
3000
0100
0100
,  // measure 44
1000
0010
1000
0001
,  // measure 45
0002
0003
0020
0030
,  // measure 46
0200
0300
2000
3000
,  // measure 47
0100
0010
0100
0010
,  // measure 48
0001
1000
0100
0010
,  // measure 49
0002
0000
0000
0000
,  // measure 50
0000
0000
0203
0000
,  // measure 51
0320
0000
0000
0000
,  // measure 52
0000
0000
2030
0000
,  // measure 53
3001
0001
0010
0010
,  // measure 54
1000
1000
0100
0100
,  // measure 55
0001
0010
1000
0100
,  // measure 56
0002
2000
3003
0000
,  // measure 57
0002
0010
0010
1000
,  // measure 58
2003
0010
0010
0001
,  // measure 59
3002
0100
0100
1000
,  // measure 60
2003
0100
0100
0001
,  // measure 61
3002
0103
0001
0100
,  // measure 62
0010
1000
0100
0001
,  // measure 63
0100
1000
0010
0100
,  // measure 64
0002
0003
0110
0001
,  // measure 65
2000
0010
0010
0001
,  // measure 66
3002
0010
0010
1000
,  // measure 67
2003
0100
0100
0001
,  // measure 68
3002
0100
0100
1000
,  // measure 69
2003
3100
1000
0100
,  // measure 70
0001
1000
0010
0001
,  // measure 71
1000
1000
0001
0001
,  // measure 72
0100
0000
0100
0010
,  // measure 73
0110
0000
0000
0000
;

//---------------dance-single - ----------------
#NOTEDATA:;
#CHARTNAME:;
#STEPSTYPE:dance-single;
#DESCRIPTION:;
#CHARTSTYLE:;
#DIFFICULTY:Beginner;
#METER:2;
#RADARVALUES:0.125343,0.181275,0.024832,0.115883,0.000000,106.000000,103.000000,3.000000,14.000000,0.000000,0.000000,0.000000,0.000000,0.000000,0.125343,0.181275,0.024832,0.115883,0.000000,106.000000,103.000000,3.000000,14.000000,0.000000,0.000000,0.000000,0.000000,0.000000;
#CREDIT:;
#NOTES:
// measure 0
0000
0000
0000
0000
,  // measure 1
0000
0000
0000
0000
,  // measure 2
0000
0000
0000
0000
,  // measure 3
0000
0000
0000
0000
,  // measure 4
0000
0000
0000
0000
,  // measure 5
1000
0000
1000
0000
,  // measure 6
0001
0000
0001
0000
,  // measure 7
1001
0000
0000
0000
,  // measure 8
0000
0000
0000
0000
,  // measure 9
2000
0000
3000
0000
,  // measure 10
0020
0000
0030
0000
,  // measure 11
0200
0000
0300
0000
,  // measure 12
0002
0000
0003
0000
,  // measure 13
0020
0000
0000
0000
,  // measure 14
0000
0000
0030
0000
,  // measure 15
0010
0000
0010
0000
,  // measure 16
0010
0010
0010
0000
,  // measure 17
0001
0000
0001
0000
,  // measure 18
0001
0000
0001
0000
,  // measure 19
1000
0000
1000
0000
,  // measure 20
1000
0000
1000
0000
,  // measure 21
0010
0000
0010
0000
,  // measure 22
0010
0000
0010
0000
,  // measure 23
0100
0000
0100
0000
,  // measure 24
0100
0000
0000
0000
,  // measure 25
0001
0000
0000
0000
,  // measure 26
0001
0000
0001
0000
,  // measure 27
0010
0000
0000
0000
,  // measure 28
0010
0000
0010
0000
,  // measure 29
0100
0000
0000
0000
,  // measure 30
0100
0000
0100
0000
,  // measure 31
1000
0000
0000
0000
,  // measure 32
1000
0000
1000
0000
,  // measure 33
0020
0000
0030
0000
,  // measure 34
0200
0000
0300
0000
,  // measure 35
0002
0000
0003
0000
,  // measure 36
2000
0000
3000
0000
,  // measure 37
0100
0000
0000
0000
,  // measure 38
0100
0000
0010
0000
,  // measure 39
0002
0000
0000
0000
,  // measure 40
0003
0000
0000
0000
,  // measure 41
0001
0000
0000
0000
,  // measure 42
1000
0000
0001
0000
,  // measure 43
1000
0000
0000
0000
,  // measure 44
0001
0000
1000
0000
,  // measure 45
0001
0000
0001
0000
,  // measure 46
1000
0000
1000
0000
,  // measure 47
0100
0000
0000
0000
,  // measure 48
0010
0000
0001
0000
,  // measure 49
0200
0000
0000
0000
,  // measure 50
0300
0000
0010
0000
,  // measure 51
0020
0000
0000
0000
,  // measure 52
0030
0000
0100
0000
,  // measure 53
0001
0000
0001
0000
,  // measure 54
1000
0000
1000
0000
,  // measure 55
0001
0000
1000
0000
,  // measure 56
1001
0000
0000
0000
,  // measure 57
0001
0000
0000
0010
,  // measure 58
0010
0000
0000
0100
,  // measure 59
0100
0000
0000
1000
,  // measure 60
1000
0000
0000
0010
,  // measure 61
0010
0000
0000
0000
,  // measure 62
0100
0000
0001
0000
,  // measure 63
0020
0000
0030
0000
,  // measure 64
0001
0000
0001
0000
,  // measure 65
1000
0000
0000
0010
,  // measure 66
0010
0000
0000
0100
,  // measure 67
0100
0000
0000
0001
,  // measure 68
0001
0000
0000
0010
,  // measure 69
0010
0000
0000
0000
,  // measure 70
0100
0000
1000
0000
,  // measure 71
0020
0000
0030
0000
,  // measure 72
0100
0000
0010
0000
,  // measure 73
0110
0000
0000
0000
;
