#VERSION:0.83;
#TITLE:Nobody;
#SUBTITLE:;
#ARTIST:Skindred;
#TITLETRANSLIT:;
#SUBTITLETRANSLIT:;
#ARTISTTRANSLIT:;
#GENRE:Reggae Metal;
#ORIGIN:;
#CREDIT:;
#BANNER:Nobody.png;
#BACKGROUND:Nobody-bg.png;
#PREVIEWVID:;
#JACKET:Nobody-jacket.png;
#CDIMAGE:;
#DISCIMAGE:;
#LYRICSPATH:;
#CDTITLE:cdtitle.png;
#MUSIC:Nobody.ogg;
#OFFSET:-0.058750;
#SAMPLESTART:112.912186;
#SAMPLELENGTH:19.626686;
#SELECTABLE:YES;
#BPMS:0.000=195.652,
176.000=97.826,
208.000=195.652,
265.000=97.826,
297.000=195.652;
#STOPS:232.000=2.147;
#DELAYS:;
#WARPS:;
#TIMESIGNATURES:0.000=4=4;
#TICKCOUNTS:0.000=4;
#COMBOS:0.000=1;
#SPEEDS:0.000=1.000=0.000=0;
#SCROLLS:0.000=1.000;
#FAKES:;
#LABELS:0.000=Song Start;
#BGCHANGES:;
#KEYSOUNDS:;
#ATTACKS:
;

//---------------dance-single - ----------------
#NOTEDATA:;
#CHARTNAME:;
#STEPSTYPE:dance-single;
#DESCRIPTION:;
#CHARTSTYLE:;
#DIFFICULTY:Challenge;
#METER:14;
#RADARVALUES:0.675541,1.035872,0.768790,0.391648,0.235714,652.000000,546.000000,106.000000,54.000000,0.000000,0.000000,0.000000,0.000000,0.000000,0.675541,1.035872,0.768790,0.391648,0.235714,652.000000,546.000000,106.000000,54.000000,0.000000,0.000000,0.000000,0.000000,0.000000;
#CREDIT:;
#OFFSET:-0.058750;
#BPMS:0.000000=195.651993
,208.000000=97.825996
,224.000000=195.651993
,297.000000=97.825996
,321.000000=195.651993
;
#STOPS:248.000000=2.147000
;
#DELAYS:;
#WARPS:;
#TIMESIGNATURES:0.000000=4=4
;
#TICKCOUNTS:0.000000=4
;
#COMBOS:0.000000=1
;
#SPEEDS:0.000000=1.000000=0.000000=0
,208.000000=2.000000=16.000000=0
,248.000000=1.000000=0.000000=0
;
#SCROLLS:0.000000=1.000000
,176.000000=2.000000
,176.250000=1.000000
,176.500000=0.500000
,180.000000=2.000000
,180.250000=1.000000
,180.500000=0.500000
,181.500000=2.000000
,181.750000=1.000000
,182.000000=0.500000
,183.000000=2.000000
,183.250000=1.000000
,183.500000=0.500000
,184.000000=2.000000
,184.250000=1.000000
,184.500000=0.500000
,188.000000=2.000000
,188.250000=1.000000
,188.500000=0.500000
,189.500000=2.000000
,189.750000=1.000000
,190.000000=0.500000
,191.000000=2.000000
,191.250000=1.000000
,191.500000=0.500000
,192.000000=2.000000
,192.250000=1.000000
,192.500000=0.500000
,196.000000=2.000000
,196.250000=1.000000
,196.500000=0.500000
,197.500000=2.000000
,197.750000=1.000000
,198.000000=0.500000
,199.000000=2.000000
,199.250000=1.000000
,199.500000=0.500000
,200.000000=2.000000
,200.250000=1.000000
,200.500000=0.500000
,204.000000=2.000000
,204.250000=1.000000
,204.500000=0.500000
,205.500000=2.000000
,205.750000=1.000000
,206.000000=0.500000
,207.000000=2.000000
,207.250000=1.000000
,207.500000=0.500000
,208.000000=1.000000
,224.000000=0.500000
,248.000000=1.000000
,281.000000=2.000000
,281.250000=1.000000
,281.500000=0.500000
,285.000000=2.000000
,285.250000=1.000000
,285.500000=0.500000
,286.500000=2.000000
,286.750000=1.000000
,287.000000=0.500000
,288.000000=2.000000
,288.250000=1.000000
,288.500000=0.500000
,289.000000=2.000000
,289.250000=1.000000
,289.500000=0.500000
,293.000000=2.000000
,293.250000=1.000000
,293.500000=0.500000
,294.500000=2.000000
,294.750000=1.000000
,295.000000=0.500000
,296.000000=2.000000
,296.250000=1.000000
,296.500000=0.500000
,297.000000=1.000000
,313.000000=1.200000
,315.000000=1.400000
,317.000000=1.600000
,319.000000=1.800000
,321.000000=1.000000
;
#FAKES:;
#LABELS:0.000000=Song Start
;
#NOTES:
// measure 0
0000
0000
0000
0000
,  // measure 1
0000
0000
0000
0000
,  // measure 2
0000
0000
0000
0000
,  // measure 3
0000
0000
0000
0000
,  // measure 4
0000
0000
0000
0000
,  // measure 5
0000
0000
0000
0000
,  // measure 6
0000
0000
0000
0000
,  // measure 7
0000
0000
0000
0000
,  // measure 8
1001
0000
0001
0100
1000
0000
0110
0000
,  // measure 9
1000
0100
1000
0100
0001
0000
0110
0000
,  // measure 10
2002
3003
0000
2002
3003
0000
2002
3003
,  // measure 11
0010
0010
0010
0000
1001
0000
1000
0001
,  // measure 12
0010
0100
0000
0010
0100
0000
0011
0000
,  // measure 13
0001
0010
0000
1000
0010
0001
1001
0000
,  // measure 14
0001
0100
0000
0001
0100
0000
1010
0000
,  // measure 15
0101
0000
1000
0100
0001
0100
1000
0000
,  // measure 16
0010
0100
0000
0010
0100
0000
1010
0000
,  // measure 17
1000
0010
0000
0001
0010
1000
1001
0000
,  // measure 18
1000
0100
0000
1000
0100
0000
0011
0000
,  // measure 19
1100
0000
1000
0010
0100
0001
0010
0000
,  // measure 20
0001
0100
0000
0001
0100
0000
1010
0000
,  // measure 21
0001
0100
0000
1000
0100
0010
1010
0000
,  // measure 22
0001
0010
0000
0010
1000
0000
0110
0000
,  // measure 23
1001
0000
0001
0100
1000
0100
0001
0000
,  // measure 24
1000
0100
0000
1000
0100
0000
0011
0000
,  // measure 25
1000
0100
0000
0001
0100
0010
0011
0000
,  // measure 26
1000
0010
0000
0010
0001
0000
0110
0000
,  // measure 27
1001
0000
0001
0100
0010
1000
0100
0000
,  // measure 28
1100
0000
0000
0000
1100
0000
0000
0000
0001
0000
0000
0001
0000
0000
0010
0000
,  // measure 29
0100
0000
0000
0100
0000
0000
0010
0000
0001
0000
0000
0000
0010
0000
0000
0000
,  // measure 30
0101
0000
0101
0000
1000
0010
1000
0010
,  // measure 31
0100
0010
0100
0010
1000
0000
0010
0000
,  // measure 32
1100
0000
1100
0000
0002
0000
0103
0001
,  // measure 33
0020
0000
0130
1000
0020
0000
1030
0100
,  // measure 34
0110
0000
1001
0000
0010
0000
0001
0200
,  // measure 35
0000
2300
0000
3200
0000
0301
0010
0000
,  // measure 36
1100
0000
0000
0000
0011
0000
0000
0000
1000
0000
0000
1000
0000
0000
0100
0000
,  // measure 37
0001
0000
0000
0001
0000
0000
0100
0000
0010
0000
0100
0000
1000
0000
0000
0000
,  // measure 38
0101
0000
0000
0000
1010
0000
0000
0000
1000
0000
0000
1000
0000
0000
0010
0000
,  // measure 39
0001
0000
0000
0001
0000
0000
0010
0000
0100
0000
0010
0000
1000
0000
0000
0000
,  // measure 40
0110
0000
1001
0000
2000
0000
3001
0010
,  // measure 41
2000
0000
3001
0100
2000
0000
3001
0100
,  // measure 42
0110
0000
1001
0000
0010
0000
1000
1000
,  // measure 43
0100
0100
0010
0010
0001
0001
0100
0100
,  // measure 44
1001
1000
0001
0000
,  // measure 45
1001
0000
0000
1100
0000
0000
0011
0000
,  // measure 46
0101
0000
1000
0000
0010
1000
0000
0010
,  // measure 47
1001
0000
0001
0011
0000
1000
1010
0000
,  // measure 48
0110
0001
1000
0000
,  // measure 49
1001
0000
0000
0101
0000
0000
1010
0000
,  // measure 50
1100
0000
0001
0000
0010
0001
0000
0010
,  // measure 51
1001
0000
1000
1010
0000
0001
0011
0000
,  // measure 52
1001
0000
0001
0100
0010
0100
0000
1000
0100
0000
0010
0100
0000
0001
0100
0000
,  // measure 53
0010
1000
0100
0001
0100
1000
0010
1000
0100
0001
0100
1000
0010
1000
0100
0001
,  // measure 54
0100
0010
0100
0010
0100
1000
0000
0010
0001
0000
0010
1000
0000
0100
0001
0000
,  // measure 55
0100
1000
0010
0010
0100
0001
0010
0010
0100
1000
0010
0010
0010
0010
0010
0010
,  // measure 56
1000
0010
0001
0010
1000
2010
0000
3100
,  // measure 57
2100
0000
3010
2010
0000
3010
1002
0000
,  // measure 58
1003
0100
0001
0000
0100
0001
0000
0001
,  // measure 59
0100
0010
0001
0100
0000
0010
1000
0000
,  // measure 60
0001
0010
1000
0010
0001
0012
0000
0103
,  // measure 61
0102
0000
0013
0012
0000
0013
2001
0000
,  // measure 62
3010
0000
1001
0000
1000
0010
0001
0000
,  // measure 63
0110
0000
0001
0010
0001
0010
1000
0000
,  // measure 64
0110
0000
2002
3003
0000
0022
0033
0000
,  // measure 65
2200
3300
1000
0010
1000
0000
0101
0000
,  // measure 66
0010
1000
0002
0000
0010
0010
0013
0000
,  // measure 67
1001
0000
2000
0010
0010
0010
3010
0000
,  // measure 68
1001
0000
0021
0000
0130
1020
0000
0130
,  // measure 69
0021
0000
0130
0110
1001
0000
1001
0010
,  // measure 70
0100
0010
0110
0000
0000
0000
0000
0000
,  // measure 71
0000
0000
1001
0000
0000
0101
0000
0000
,  // measure 72
1100
0000
1001
0000
0010
0000
0001
0001
,  // measure 73
0000
1000
1010
0000
0001
0011
0000
0100
,  // measure 74
0110
0000
0000
0000
1001
0000
1000
0010
0100
0001
0000
0010
0100
0000
1000
0010
,  // measure 75
0000
0100
0001
0000
1000
0100
0001
0100
1000
0010
0001
0010
1000
0100
0001
0100
,  // measure 76
1000
0010
0001
0010
0100
1000
0100
0001
1000
2000
0000
3001
0002
0000
0013
2000
,  // measure 77
0000
3010
0002
0000
0103
0010
1000
0000
0010
1000
0000
1000
0100
0010
0001
0100
,  // measure 78
0000
0010
1000
0000
2001
0000
0100
0000
0001
0001
0000
0000
3002
0000
0100
0000
,  // measure 79
1000
1000
0000
0000
0023
0000
1000
0000
0100
0100
0000
0000
0031
0001
1000
1000
,  // measure 80
0001
0001
1000
1000
0001
0000
0100
0000
1000
0000
0100
0000
0001
0000
0102
0000
,  // measure 81
0000
1003
1002
0000
0103
0012
0000
0103
,  // measure 82
2010
0000
3001
0010
1000
0000
0010
1000
,  // measure 83
0000
1000
0010
0001
0100
1000
0000
0100
,  // measure 84
0001
0000
1000
0100
0001
0100
1000
2100
,  // measure 85
0000
3001
2001
0000
3100
2010
0000
3100
,  // measure 86
0012
0000
1003
0010
0001
0000
0010
0001
,  // measure 87
0000
0001
0010
1000
0100
0001
0000
0100
,  // measure 88
1000
0000
0001
0100
0010
0010
1000
0100
,  // measure 89
0010
0010
0001
0100
0010
1002
0000
0013
,  // measure 90
2001
0000
3001
0100
1000
0000
0100
1000
,  // measure 91
0000
1000
0100
0010
1000
0100
0000
0010
,  // measure 92
0001
0000
0010
0100
1000
0001
0100
0100
,  // measure 93
0000
1010
1001
0000
0011
1001
0000
1010
,  // measure 94
2001
0100
0100
0001
,  // measure 95
0001
0000
0100
0000
3010
1000
0000
1000
,  // measure 96
0100
2002
0000
0000
,  // measure 97
0000
0000
0000
0000
,  // measure 98
3003
0100
0100
0000
;

//---------------dance-single - ----------------
#NOTEDATA:;
#CHARTNAME:;
#STEPSTYPE:dance-single;
#DESCRIPTION:;
#CHARTSTYLE:;
#DIFFICULTY:Hard;
#METER:13;
#RADARVALUES:0.608194,1.035872,0.674504,0.319120,0.206703,587.000000,494.000000,93.000000,44.000000,0.000000,0.000000,0.000000,0.000000,0.000000,0.608194,1.035872,0.674504,0.319120,0.206703,587.000000,494.000000,93.000000,44.000000,0.000000,0.000000,0.000000,0.000000,0.000000;
#CREDIT:;
#OFFSET:-0.058750;
#BPMS:0.000000=195.651993
,208.000000=97.825996
,224.000000=195.651993
,297.000000=97.825996
,321.000000=195.651993
;
#STOPS:248.000000=2.147000
;
#DELAYS:;
#WARPS:;
#TIMESIGNATURES:0.000000=4=4
;
#TICKCOUNTS:0.000000=4
;
#COMBOS:0.000000=1
;
#SPEEDS:0.000000=1.000000=0.000000=0
,208.000000=2.000000=16.000000=0
,248.000000=1.000000=0.000000=0
;
#SCROLLS:0.000000=1.000000
,176.000000=2.000000
,176.250000=1.000000
,176.500000=0.500000
,180.000000=2.000000
,180.250000=1.000000
,180.500000=0.500000
,181.500000=2.000000
,181.750000=1.000000
,182.000000=0.500000
,183.000000=2.000000
,183.250000=1.000000
,183.500000=0.500000
,184.000000=2.000000
,184.250000=1.000000
,184.500000=0.500000
,188.000000=2.000000
,188.250000=1.000000
,188.500000=0.500000
,189.500000=2.000000
,189.750000=1.000000
,190.000000=0.500000
,191.000000=2.000000
,191.250000=1.000000
,191.500000=0.500000
,192.000000=2.000000
,192.250000=1.000000
,192.500000=0.500000
,196.000000=2.000000
,196.250000=1.000000
,196.500000=0.500000
,197.500000=2.000000
,197.750000=1.000000
,198.000000=0.500000
,199.000000=2.000000
,199.250000=1.000000
,199.500000=0.500000
,200.000000=2.000000
,200.250000=1.000000
,200.500000=0.500000
,204.000000=2.000000
,204.250000=1.000000
,204.500000=0.500000
,205.500000=2.000000
,205.750000=1.000000
,206.000000=0.500000
,207.000000=2.000000
,207.250000=1.000000
,207.500000=0.500000
,208.000000=1.000000
,224.000000=0.500000
,248.000000=1.000000
,281.000000=2.000000
,281.250000=1.000000
,281.500000=0.500000
,285.000000=2.000000
,285.250000=1.000000
,285.500000=0.500000
,286.500000=2.000000
,286.750000=1.000000
,287.000000=0.500000
,288.000000=2.000000
,288.250000=1.000000
,288.500000=0.500000
,289.000000=2.000000
,289.250000=1.000000
,289.500000=0.500000
,293.000000=2.000000
,293.250000=1.000000
,293.500000=0.500000
,294.500000=2.000000
,294.750000=1.000000
,295.000000=0.500000
,296.000000=2.000000
,296.250000=1.000000
,296.500000=0.500000
,297.000000=1.000000
,313.000000=1.200000
,315.000000=1.400000
,317.000000=1.600000
,319.000000=1.800000
,321.000000=1.000000
;
#FAKES:;
#LABELS:0.000000=Song Start
;
#NOTES:
0000
0000
0000
0000
,
0000
0000
0000
0000
,
0000
0000
0000
0000
,
0000
0000
0000
0000
,
0000
0000
0000
0000
,
0000
0000
0000
0000
,
0000
0000
0000
0000
,
0000
0000
0000
0000
,
1001
0000
0001
0001
0010
0000
1001
0000
,
1000
0010
1000
1000
0010
0000
1001
0000
,
0200
0300
0000
0200
0300
0000
0200
0300
,
0010
0100
0010
0000
1001
0000
1000
0001
,
0100
0000
0000
0100
0000
0000
1001
0000
,
0100
0000
0000
0100
0010
0100
1001
0000
,
0100
0000
0000
0100
0000
0000
0110
0000
,
1001
0000
1000
0100
0010
0001
1000
0000
,
0001
0000
0000
0001
0000
0000
0110
0000
,
1000
0000
0000
1000
0001
1000
0110
0000
,
0001
0000
0000
0001
0000
0000
0110
0000
,
1001
0000
1000
0010
0100
0001
1000
0000
,
0100
0000
0000
0100
0000
0000
0011
0000
,
0100
0000
0000
1000
0100
0001
0100
0000
,
1000
0000
0000
1000
0000
0000
1010
0000
,
0101
0000
0010
1000
0100
0010
0001
0000
,
0100
0000
0000
0100
0000
0000
1010
0000
,
0100
0000
0000
0001
0100
1000
0100
0000
,
0001
0000
0000
0001
0000
0000
0011
0000
,
1100
0000
0001
1000
0010
1000
0001
0000
,
0101
0000
0101
0000
2000
0000
3010
2000
,
0010
0000
3100
1000
0200
0000
1300
0000
,
1100
0000
1100
0000
0002
0000
0013
0002
,
0010
0000
0103
0001
0200
0000
0301
0000
,
0110
0000
1001
0000
0001
0000
0100
0010
,
0000
0010
1000
0100
0010
0000
0001
0000
,
1001
0000
0110
0000
1000
0000
0001
0010
,
0000
0100
1000
0010
0100
0000
0001
1000
,
1001
0000
1200
0000
0001
0000
0310
0100
,
0010
0001
0100
0001
0010
0000
0010
0001
,
1001
0000
0201
0000
1000
0000
0310
0100
,
0010
1000
0100
1000
0010
0000
0100
0010
,
1001
0000
0110
0000
0001
0000
0010
0100
,
0000
0010
1000
0010
0001
0000
0100
0010
,
0110
0000
1001
0000
0010
0000
1000
0001
,
0010
0100
0010
0100
0010
0100
0010
0100
,
1001
0000
0000
0000
,
1001
0000
0000
1001
0000
0000
0011
0000
,
0101
0000
0000
0000
,
1001
0000
0000
1001
0000
0000
1010
0000
,
1100
0000
0000
0000
,
1010
0000
0000
0011
0000
0000
1100
0000
,
0110
0000
0000
0000
,
0011
0000
0000
1010
0000
0000
0101
0000
,
0110
0000
1000
0000
0010
1000
0000
1000
0100
0000
0010
0001
0000
0001
0100
0000
,
0010
1000
0100
1000
0001
1000
0100
1000
0001
0010
0001
0100
0001
1000
0001
0100
,
0010
1000
0010
1000
0001
0010
0000
1000
0010
0000
0001
0100
0000
1000
0100
0000
,
0001
0010
0100
0010
0001
0010
0100
0010
0001
0010
0100
1000
0010
0100
0001
1000
,
0001
0010
0001
0010
1000
0020
0000
0001
,
0032
0000
0100
0203
0000
0310
1010
0000
,
1100
0000
0001
0000
0010
0001
0000
0001
,
0100
1000
0100
0001
0000
0010
0100
0000
,
1000
0010
1000
0010
0001
0020
0000
1000
,
2030
0000
0100
3200
0000
0310
0011
0000
,
1001
0000
1001
0000
1000
1000
0010
0000
,
0110
0000
0001
0010
0001
0001
0010
0000
,
0110
0000
1001
0000
0000
1001
0000
0000
,
1001
0000
0010
0010
0010
0000
1001
0000
,
1000
0100
0010
0000
0001
0010
1000
0000
,
0110
0000
1000
0010
1000
0010
0001
0000
,
0110
0000
2002
0000
3003
0220
0000
0330
,
2002
3003
1001
1001
2002
3003
2002
0000
,
3003
0110
0000
0000
,
0000
0000
0101
0000
0000
0011
0000
0000
,
0101
1001
0000
0000
,
0000
0000
1100
0000
0000
1010
0000
0000
,
1100
0000
0000
0000
1001
0000
0001
0000
0100
0010
0000
0100
1000
0000
0100
0010
,
0000
0100
0001
0000
1000
0100
1000
0100
0001
0100
0001
0100
1000
0010
1000
0010
,
0001
0010
0001
0010
1000
0010
0100
0001
0010
0200
0000
0010
0320
0000
0001
0032
,
0000
1000
2003
0000
3001
0100
0010
0000
0100
0010
0000
0100
0010
1000
0100
0010
,
0000
0010
0001
0000
1001
0000
0100
0000
0001
0100
0000
0000
1001
0000
0100
0000
,
1000
0100
0000
0000
1001
0000
0010
0000
0100
0010
0000
0000
1000
0001
1000
0001
,
1000
0001
1000
0001
1000
0000
0100
0000
0010
0000
0100
0000
0001
0000
0200
0000
,
0000
1000
2300
0000
0010
3020
0000
0031
,
0011
0000
1010
0000
0100
0000
0010
1000
,
0000
0001
0010
1000
0010
0100
0000
0010
,
0001
0000
0001
0100
0010
0100
1000
0200
,
0000
0001
0302
0000
0010
0023
0000
1030
,
1010
0000
0011
0000
0100
0000
0010
0001
,
0000
1000
0010
0001
0010
0100
0000
0010
,
1000
0000
1000
0100
0001
0100
1000
0100
,
0001
0100
1000
0010
0100
0002
0000
1003
,
1001
0000
0110
0000
1000
0000
0010
1000
,
0000
1000
0100
0001
0100
1000
0000
0010
,
0100
0000
0001
1000
0100
0010
0001
0200
,
0000
0310
0210
0000
0310
2001
0000
3100
,
0210
1000
1000
0001
,
0001
0000
1000
0000
0310
0001
0000
0001
,
0100
2002
0000
0000
,
0000
0000
0000
0000
,
3003
0100
0100
0000
;

//---------------dance-single - ----------------
#NOTEDATA:;
#CHARTNAME:;
#STEPSTYPE:dance-single;
#DESCRIPTION:;
#CHARTSTYLE:;
#DIFFICULTY:Medium;
#METER:10;
#RADARVALUES:0.428948,0.603790,0.471428,0.145055,0.021758,414.000000,349.000000,65.000000,20.000000,0.000000,0.000000,0.000000,0.000000,0.000000,0.428948,0.603790,0.471428,0.145055,0.021758,414.000000,349.000000,65.000000,20.000000,0.000000,0.000000,0.000000,0.000000,0.000000;
#CREDIT:;
#OFFSET:-0.058750;
#BPMS:0.000000=195.651993
,176.000000=97.825996
,208.000000=195.651993
,265.000000=97.825996
,297.000000=195.651993
;
#STOPS:232.000000=2.147000
;
#DELAYS:;
#WARPS:;
#TIMESIGNATURES:0.000000=4=4
;
#TICKCOUNTS:0.000000=4
;
#COMBOS:0.000000=1
;
#SPEEDS:0.000000=1.000000=0.000000=0
;
#SCROLLS:0.000000=1.000000
,192.000000=1.500000
,208.000000=1.000000
,273.000000=1.500000
,289.000000=1.200000
,291.000000=1.400000
,293.000000=1.600000
,295.000000=1.800000
,297.000000=1.000000
;
#FAKES:;
#LABELS:0.000000=Song Start
;
#NOTES:
0000
0000
0000
0000
,
0000
0000
0000
0000
,
0000
0000
0000
0000
,
0000
0000
0000
0000
,
0000
0000
0000
0000
,
0000
0000
0000
0000
,
0000
0000
0000
0000
,
0000
0000
0000
0000
,
1001
0001
0020
0030
,
1001
1000
0020
0030
,
1001
0000
0000
1001
0000
0000
1001
0000
,
0001
1000
0001
0000
2002
0000
3003
0000
,
1000
0000
0000
1000
0000
0000
0100
0000
,
1000
0000
0000
1000
0000
0000
1100
0000
,
0001
0000
0000
0001
0000
0000
0010
0000
,
0001
0100
0010
1010
,
0001
0000
0000
0001
0000
0000
0100
0000
,
0001
0000
0000
0001
0000
0000
0101
0000
,
1000
0000
0000
1000
0000
0000
0010
0000
,
1000
0100
0010
0011
,
1000
0000
0000
0100
0000
0000
0010
0000
,
0001
0000
0000
0100
0000
0000
0110
0000
,
1000
0000
0000
0010
0000
0000
1000
0000
,
0010
0001
0010
1010
,
0001
0000
0000
0100
0000
0000
0010
0000
,
1000
0000
0000
0100
0000
0000
0110
0000
,
0001
0000
0000
0010
0000
0000
0001
0000
,
0010
1000
0010
0001
,
1001
0000
1001
0000
2000
0000
0000
3020
,
0000
2030
3020
1030
,
1001
0000
1001
0000
0002
0000
0000
0023
,
0000
0032
0023
0031
,
1001
0000
1001
0000
0100
0000
0000
0001
,
0100
0000
0000
0100
0010
0000
0000
0010
,
2000
0000
0100
0000
3100
0000
0000
0100
,
0010
0001
0100
0010
,
1010
1010
0001
0100
,
1000
0100
0001
0010
,
0011
0011
1000
0100
,
0001
0100
1000
0010
,
1001
0000
1001
0000
0010
0000
0000
1000
,
0100
0000
0000
0100
0010
0000
0000
0010
,
0001
1001
0000
0100
,
0010
0100
0010
0100
,
1001
0000
0000
0000
0000
0000
0000
0000
0001
0000
0000
0001
0000
0000
0011
0000
,
0101
0000
0000
0000
0000
0000
0000
0000
1000
0000
0000
1000
0000
0000
1010
0000
,
1100
0000
0000
0000
0000
0000
0000
0000
0010
0000
0000
0010
0000
0000
1100
0000
,
0101
0000
0000
0000
0000
0000
0000
0000
0010
0000
0000
0010
0000
0000
0101
0000
,
1100
0101
1100
0110
,
1000
0100
0001
0100
1000
0100
0001
0100
,
1000
0001
0100
0000
0001
1000
0100
0000
,
1000
0010
0001
0010
1000
0010
0001
0010
,
1000
0000
1000
0000
0010
1000
0000
1000
,
0001
0000
0010
0001
0000
0001
1000
0000
,
0001
0000
0100
0000
1100
0000
0000
0001
,
0100
0000
0100
0010
0000
0010
1000
0000
,
0001
0000
0001
0000
0100
0001
0000
0001
,
1000
0000
0100
1000
0000
1000
0001
0000
,
1001
1001
1000
0020
,
0030
1001
0001
0020
,
0030
0000
1001
0000
0000
1001
0000
0000
,
1001
0000
0010
0100
0010
0000
1001
0000
,
1000
0100
1000
0000
0001
0010
0001
0000
,
0000
0000
1000
0010
1000
0010
1000
0000
,
0000
0000
1001
0000
0000
0110
0000
0000
,
1001
0000
0010
0010
0010
0000
2002
0000
,
3003
0000
0000
0000
0110
0000
0000
0000
0000
0000
0000
0000
0001
0000
0000
0001
,
0000
0000
0011
0000
1100
0000
0000
0000
0000
0000
0000
0000
1000
0000
0000
1000
,
0000
1010
0101
0000
0110
0000
1100
0000
,
0110
0000
0001
0100
1000
0100
0001
0010
,
1000
0010
0001
0100
1000
0000
0001
0010
,
1000
0000
0100
0100
0100
0000
0010
0010
,
0100
0010
0001
0100
0101
0000
0100
0010
,
0110
0000
0010
1000
1010
0000
0100
0000
,
0000
0000
0001
0000
0001
0000
0100
0001
,
0000
0010
0001
0000
1000
0100
0000
1000
,
0010
1000
0010
0011
,
0000
1000
0010
0000
0100
0001
0000
0010
,
0100
0000
1000
0000
1000
0000
0100
1000
,
0000
0010
1000
0000
0001
0100
0000
0001
,
0010
0001
0010
1010
,
0000
0001
0010
0000
0100
1000
0000
0010
,
0100
0000
0001
0100
0010
0000
1000
0100
,
0010
0000
0001
0000
0100
0010
0000
0100
,
0010
1000
0100
0101
,
0000
1000
0100
0000
0100
0010
0000
0010
,
0001
0000
0100
0000
0100
0000
0010
1000
,
0000
1000
0100
0000
0010
0001
0000
0001
,
0200
0010
0010
0010
,
0000
0000
1000
0000
0000
0010
0000
0000
,
0301
2002
0000
0000
,
0000
0000
0000
0000
,
3003
0100
0100
0000
;

//---------------dance-single - ----------------
#NOTEDATA:;
#CHARTNAME:;
#STEPSTYPE:dance-single;
#DESCRIPTION:;
#CHARTSTYLE:;
#DIFFICULTY:Easy;
#METER:7;
#RADARVALUES:0.341915,0.472153,0.471428,0.261099,0.000000,330.000000,265.000000,65.000000,36.000000,0.000000,0.000000,0.000000,0.000000,0.000000,0.341915,0.472153,0.471428,0.261099,0.000000,330.000000,265.000000,65.000000,36.000000,0.000000,0.000000,0.000000,0.000000,0.000000;
#CREDIT:;
#OFFSET:-0.058750;
#BPMS:0.000000=195.651993
;
#STOPS:264.000000=2.147000
;
#DELAYS:;
#WARPS:;
#TIMESIGNATURES:0.000000=4=4
;
#TICKCOUNTS:0.000000=4
;
#COMBOS:0.000000=1
;
#SPEEDS:0.000000=1.000000=0.000000=0
;
#SCROLLS:0.000000=1.000000
;
#FAKES:;
#LABELS:0.000000=Song Start
;
#NOTES:
0000
0000
0000
0000
,
0000
0000
0000
0000
,
0000
0000
0000
0000
,
0000
0000
0000
0000
,
0000
0000
0000
0000
,
0000
0000
0000
0000
,
0000
0000
0000
0000
,
0000
0000
0000
0000
,
1000
0001
0001
0000
,
0001
0001
1000
0000
,
1001
0000
1001
0000
,
0100
0010
1001
0000
,
1000
0000
1000
0000
,
1000
0100
0010
0000
,
0100
0000
0100
0000
,
1000
0010
0110
0000
,
0001
0000
0001
0000
,
0001
0100
0010
0000
,
0100
0000
0100
0000
,
0001
0010
0110
0000
,
1000
0000
0100
0000
,
1000
0100
0001
0000
,
0100
0000
0100
0000
,
1000
0010
1010
0000
,
0001
0000
0100
0000
,
0001
0100
1000
0000
,
0100
0000
0100
0000
,
0001
0010
0011
0000
,
1001
1001
2000
0000
,
3020
0000
2030
3010
,
1001
1001
0002
0000
,
0023
0000
0032
0013
,
1001
1001
0002
0003
,
0200
0300
0020
0030
,
2000
0010
3010
0000
,
1000
0001
0010
0000
,
0011
1100
0002
0000
,
0023
0000
0031
1000
,
1010
0101
2000
0000
,
3020
0000
1030
0001
,
0110
1001
2000
3000
,
0002
0003
0220
0330
,
2002
3003
0000
0010
,
0010
0010
0010
0010
,
1001
0000
0000
0000
,
0001
0000
0000
0001
0000
0000
0001
0000
,
0001
0000
0000
0000
,
1000
0000
0000
1000
0000
0000
1000
0000
,
1000
0000
0000
0000
,
0001
0000
0000
0001
0000
0000
1000
0000
,
0001
0000
0000
0000
,
1000
0000
0000
1000
0000
0000
0001
0000
,
1000
0000
1100
0000
,
0001
0000
0101
0000
,
1000
0000
0010
0000
,
0100
0000
0001
0000
,
0010
0000
1100
0000
,
0010
0000
0101
0000
,
1000
0000
0001
0000
,
1000
1000
0001
0001
,
1000
0100
1100
0000
,
1010
0010
0101
0000
,
1000
0010
0001
0000
,
0001
0010
1000
1000
,
0001
0100
0101
0000
,
0011
0010
1100
0000
,
1001
0001
1000
1000
,
0000
1000
1000
0001
,
0000
1001
0000
0110
,
0000
0001
1000
0110
,
0000
0001
0010
0022
,
0033
1000
0010
2020
,
3030
2002
3003
2002
,
3003
1001
1001
2002
,
3003
0110
0000
0000
,
0000
0000
0001
0000
0000
0001
0000
0000
,
0001
1001
0000
0000
,
0000
0000
1000
0000
0000
1000
0000
0000
,
1000
1001
0000
1100
,
0000
0011
0000
0101
,
0000
1010
1000
0001
,
0000
1010
1000
0100
,
0000
0011
0001
0100
,
0000
0110
0000
1001
,
0000
0001
0010
0100
,
0000
1000
0010
0100
,
0000
0210
0000
0002
,
0000
0300
0000
2000
,
0000
0003
0000
0200
,
3000
0310
0100
0010
,
0100
1000
0010
1010
,
0000
1100
0010
1001
,
0000
1000
0100
0001
,
0000
0001
0100
1000
,
1000
0001
0010
0011
,
0000
0101
0010
1001
,
0000
0001
0100
1000
,
0000
1000
0100
0001
,
0001
1000
0100
1000
,
0100
0010
0001
1000
,
0000
0001
0010
1000
,
0000
1000
0010
0001
,
0001
0100
0010
1001
,
0000
0110
0000
1001
,
0000
1000
0010
0100
,
0001
1000
0000
0100
,
0010
2002
0000
0000
,
0000
0000
0000
0000
,
3003
0100
0100
0000
;

//---------------dance-single - ----------------
#NOTEDATA:;
#CHARTNAME:;
#STEPSTYPE:dance-single;
#DESCRIPTION:;
#CHARTSTYLE:;
#DIFFICULTY:Beginner;
#METER:4;
#RADARVALUES:0.250737,0.479769,0.290109,0.050769,0.000000,242.000000,202.000000,40.000000,7.000000,0.000000,0.000000,0.000000,0.000000,0.000000,0.250737,0.479769,0.290109,0.050769,0.000000,242.000000,202.000000,40.000000,7.000000,0.000000,0.000000,0.000000,0.000000,0.000000;
#CREDIT:;
#OFFSET:-0.058750;
#BPMS:0.000000=195.651993
;
#STOPS:;
#DELAYS:;
#WARPS:;
#TIMESIGNATURES:0.000000=4=4
;
#TICKCOUNTS:0.000000=4
;
#COMBOS:0.000000=1
;
#SPEEDS:0.000000=1.000000=0.000000=0
;
#SCROLLS:0.000000=1.000000
;
#FAKES:;
#LABELS:0.000000=Song Start
;
#NOTES:
0000
0000
0000
0000
,
0000
0000
0000
0000
,
0000
0000
0000
0000
,
0000
0000
0000
0000
,
0000
0000
0000
0000
,
0000
0000
0000
0000
,
0000
0000
0000
0000
,
0000
0000
0000
0000
,
0010
0010
0010
0000
,
0010
0010
0010
0000
,
1001
0000
1001
0000
,
0010
0010
0010
0000
,
1000
0000
1000
0000
,
0010
0000
1000
0000
,
0100
0000
0100
0000
,
1001
0000
1001
0000
,
0001
0000
0001
0000
,
0010
0000
0001
0000
,
0100
0000
0100
0000
,
1001
0000
1001
0000
,
1000
0000
0100
0000
,
1000
0000
0010
0000
,
1000
0000
0100
0000
,
0110
0000
1001
0000
,
0001
0000
0100
0000
,
0001
0000
0010
0000
,
0001
0000
0100
0000
,
0110
0000
1001
0000
,
0001
0001
0001
0000
,
0001
0000
0001
0000
,
1000
1000
1000
0000
,
1000
0000
1000
0000
,
0001
0001
0001
0000
,
1000
0000
0001
0000
,
0020
0000
0030
0000
,
0010
0010
0010
0000
,
0001
0001
0001
0000
,
0100
0000
0010
0000
,
1000
1000
1000
0000
,
0100
0000
0010
0000
,
0100
0100
0100
0000
,
1000
0000
0001
0000
,
0200
0000
0300
0000
,
0010
0010
0010
0000
,
1001
0000
0000
0000
,
0000
0000
0000
0000
,
0110
0000
0000
0000
,
0000
0000
0000
0000
,
1001
0000
0000
0000
,
0000
0000
0000
0000
,
0110
0000
0000
0000
,
0000
0000
0000
0000
,
1000
0000
1000
0000
,
0001
0000
0001
0000
,
1000
0000
0001
0000
,
1000
0000
0001
0000
,
0010
0000
0010
0000
,
0100
0000
0100
0000
,
0010
0000
0100
0000
,
0010
0000
0100
0000
,
1000
1000
1000
0000
,
0110
0000
1001
0000
,
0010
0010
0010
0000
,
1000
1000
1000
0000
,
0001
0001
0001
0000
,
0110
0000
1001
0000
,
0110
0000
0000
0000
,
0000
0000
0000
0000
,
0010
0010
0010
0000
,
0010
0010
0010
0000
,
1001
0000
1001
0000
,
0010
0010
0010
0000
,
1000
1000
1000
0000
,
0001
0001
0001
0000
,
1001
0000
1001
0000
,
1001
1001
1001
0000
,
1001
0000
0000
0000
,
0000
0000
0000
0000
,
0110
0000
0000
0000
,
0000
0000
0000
0000
,
1000
0000
1000
0000
,
0001
0000
0001
0000
,
1000
0000
0100
0000
,
0010
0000
0001
0000
,
0100
0000
0100
0000
,
0010
0000
0010
0000
,
1000
0000
0100
0000
,
0010
0000
0001
0000
,
2000
0000
3000
0000
,
0002
0000
0003
0000
,
0020
0000
0030
0000
,
0000
0000
0000
0000
,
0001
0001
0001
0000
,
0110
0000
1001
0000
,
0010
0010
0010
0000
,
0001
0001
0001
0000
,
1000
1000
1000
0000
,
0110
0000
1001
0000
,
1000
1000
1000
0000
,
0010
0010
0010
0000
,
1001
0000
0110
0000
,
0110
0000
1001
0000
,
0010
0010
0010
0000
,
0100
0100
0100
0000
,
0010
0010
0010
0000
,
1001
0000
0110
0000
,
2002
0000
0000
0000
,
3003
0000
0000
0000
,
1001
0000
0000
0000
,
0000
0000
0000
0000
,
0100
0100
0000
0000
;
