#VERSION:0.83;
#TITLE:Neo Age;
#SUBTITLE:;
#ARTIST:Rin;
#TITLETRANSLIT:;
#SUBTITLETRANSLIT:;
#ARTISTTRANSLIT:;
#GENRE:Hi-Tech Trance;
#ORIGIN:;
#CREDIT:;
#BANNER:Neo Age.png;
#BACKGROUND:Neo Age-bg.png;
#PREVIEWVID:;
#JACKET:Neo Age-jacket.png;
#CDIMAGE:;
#DISCIMAGE:;
#LYRICSPATH:;
#CDTITLE:cdtitle.png;
#MUSIC:Neo Age.ogg;
#OFFSET:-0.112000;
#SAMPLESTART:13.085000;
#SAMPLELENGTH:12.973000;
#SELECTABLE:YES;
#BPMS:0.000=148.000;
#STOPS:;
#DELAYS:;
#WARPS:;
#TIMESIGNATURES:0.000=4=4;
#TICKCOUNTS:0.000=4;
#COMBOS:0.000=1;
#SPEEDS:0.000=1.000=0.000=0;
#SCROLLS:0.000=1.000;
#FAKES:;
#LABELS:0.000=Song Start;
#BGCHANGES:;
#KEYSOUNDS:;
#ATTACKS:
;

//---------------dance-single - ----------------
#NOTEDATA:;
#CHARTNAME:;
#STEPSTYPE:dance-single;
#DESCRIPTION:;
#CHARTSTYLE:;
#DIFFICULTY:Challenge;
#METER:15;
#RADARVALUES:0.797442,0.877770,0.540202,0.236931,0.819781,589.000000,532.000000,57.000000,25.000000,0.000000,0.000000,0.000000,0.000000,0.000000,0.797442,0.877770,0.540202,0.236931,0.819781,589.000000,532.000000,57.000000,25.000000,0.000000,0.000000,0.000000,0.000000,0.000000;
#CREDIT:;
#NOTES:
// measure 0
0000
0000
0000
0000
,  // measure 1
0000
0000
0000
0000
,  // measure 2
0000
0000
0000
0000
,  // measure 3
0000
0000
0000
0000
,  // measure 4
0001
0000
0100
0000
0010
1000
0000
0010
1000
0100
0000
0100
0010
0000
0001
0000
,  // measure 5
1000
0000
0100
0000
0010
0001
0000
0010
0001
0100
0000
0100
0010
0000
1000
0000
,  // measure 6
0001
0010
0001
0000
1000
0010
1000
0000
0001
0010
0100
0000
1000
0010
0100
0000
,  // measure 7
0010
1000
0010
1000
0001
0010
0001
0010
0100
1000
0010
0100
0001
0000
0000
0000
,  // measure 8
0012
0000
0003
0000
2010
0000
3000
0000
0012
0000
0003
1000
0010
0000
0010
0001
,  // measure 9
0200
0000
0300
0000
2001
0000
3010
1000
0200
0000
0310
0001
0100
0001
0010
0000
,  // measure 10
2100
0000
3000
0000
0102
0000
0003
0000
2100
0000
3000
0010
0001
0000
0010
0000
,  // measure 11
2000
0000
0000
3200
0000
0000
0301
0100
1000
0001
1000
0001
0010
0001
0100
0010
,  // measure 12
2000
0000
3000
0000
0012
0000
0003
0000
2010
0000
3000
0001
0010
0000
0010
1000
,  // measure 13
0200
0000
0300
0000
1002
0000
0013
0001
0200
0000
0310
1000
0100
1000
0010
0100
,  // measure 14
0001
0001
0010
0010
1000
1000
0100
0100
,  // measure 15
0001
0000
0010
1000
0000
0000
1000
0010
1000
0010
0001
0000
1000
0000
0001
0100
,  // measure 16
0010
0000
1010
0000
0010
0000
0001
0000
1000
0000
1100
0000
0100
0000
0001
1000
,  // measure 17
0001
0000
0101
0000
0100
0000
1000
0001
1000
0000
1100
0000
0100
0001
1000
0001
,  // measure 18
0010
0011
0010
1000
0001
0101
0100
1000
,  // measure 19
0002
0000
0000
0203
0000
0000
1300
0100
0001
1000
0001
1000
0010
1000
0100
0010
,  // measure 20
0001
0000
0011
0000
0010
0000
1000
0000
0001
0000
0101
0000
0100
0000
1000
0010
,  // measure 21
1000
0000
1100
0000
0100
0000
0001
0010
0001
0000
0101
0000
0100
1000
0001
1000
,  // measure 22
0010
0100
0010
0000
0100
0001
1000
0000
0100
0010
0100
0000
0010
0001
1000
0010
,  // measure 23
0200
0000
0000
0000
0310
0000
1000
0000
0100
0000
0010
0000
0110
0000
1000
0001
,  // measure 24
0200
0000
0000
0000
,  // measure 25
0000
0000
0000
0000
,  // measure 26
0300
0000
0000
0000
,  // measure 27
0000
0000
0000
0000
,  // measure 28
1000
0000
1001
0000
0000
1010
0000
0000
0110
0000
0000
0011
0000
0000
1001
0000
,  // measure 29
0001
0000
1000
0000
0000
0010
0000
0000
0001
0000
0000
0010
0000
0000
1000
0000
,  // measure 30
0001
0000
1001
0000
0000
0101
0000
0000
0110
0000
0000
1100
0000
0000
1001
0000
,  // measure 31
1000
0000
0100
0000
0000
0001
0000
0000
0100
0000
0100
0000
0010
0000
0001
0000
,  // measure 32
2000
0010
0100
0010
,  // measure 33
0100
0000
3010
1000
0010
0001
0010
1000
,  // measure 34
0200
0001
1000
0001
,  // measure 35
1000
0000
0301
0100
0010
0001
1000
0010
,  // measure 36
0200
1000
0010
0001
,  // measure 37
0010
0000
1300
0100
0001
0010
1000
0010
,  // measure 38
0001
0001
0100
0100
1000
1000
0010
0010
,  // measure 39
0001
0000
0100
1000
0000
0000
1000
0100
1000
0100
0001
0000
1000
0000
0000
0000
,  // measure 40
0001
0000
0011
0000
0010
0000
1000
0000
0100
0000
1100
0000
0100
0000
0001
1000
,  // measure 41
0010
0000
1010
0000
0010
0000
0001
0000
0100
0000
0101
0000
0100
0000
1000
0001
,  // measure 42
0010
0000
0110
0000
1000
0000
0001
0000
1000
0000
0110
0000
0001
0000
1000
0001
,  // measure 43
1000
0000
0100
0010
0000
0010
0100
0000
0010
0001
0100
0010
1000
0001
1000
0001
,  // measure 44
0010
0000
0011
0000
0010
0000
1000
0010
0100
0000
1010
0000
0010
0000
0001
0010
,  // measure 45
0100
0000
1100
0000
0100
0000
0001
0100
0010
0000
0101
0000
0100
0000
1000
0100
,  // measure 46
0010
0001
0010
0001
1000
0100
1000
0001
0100
0001
0010
0100
1000
0001
0100
0010
,  // measure 47
0100
0000
0000
0000
,  // measure 48
0001
0010
0001
0010
0000
0100
0010
0000
0001
0100
0001
0100
0000
0010
0100
0000
,  // measure 49
0001
0010
0100
0010
0000
0001
0100
0000
1000
0000
0100
0010
0000
1000
0001
0000
,  // measure 50
1000
0100
1000
0100
0000
0010
0100
0000
1000
0010
1000
0010
0000
0100
0010
0000
,  // measure 51
1000
0100
0010
0100
0000
0010
0001
0000
0011
0000
0000
1001
0000
0000
0101
0000
,  // measure 52
1000
0010
1000
0100
0000
0010
0100
0000
0010
0001
0100
0001
0000
0100
0010
0000
,  // measure 53
1000
0010
0100
0001
0000
0010
0100
0000
0001
0000
0100
1000
0000
0010
1000
0000
,  // measure 54
1010
0010
0011
0001
0101
0100
1100
1000
,  // measure 55
1001
0000
0000
0000
1000
0000
0010
0000
0100
0001
0010
0001
0000
0010
0100
1000
,  // measure 56
0001
0100
0010
0100
0000
0010
1000
0010
1000
0100
0010
0001
0000
0010
0001
0010
,  // measure 57
0001
0100
0010
1000
0000
0100
0010
0100
0001
0000
0100
1000
0010
0000
1010
0000
,  // measure 58
0010
0001
0010
0100
0000
0010
0001
1000
0001
0100
0010
1000
0000
0010
0100
0001
,  // measure 59
0010
0000
0000
1100
0000
0000
1010
0000
0101
0000
0000
0011
0000
0000
1000
0001
,  // measure 60
1000
0010
0100
0010
0000
0100
0010
1000
0100
0010
0100
1000
0000
0001
0010
0100
,  // measure 61
0010
0001
0100
0010
0000
0100
0010
0100
1000
0000
0100
0001
0010
0000
0011
0000
,  // measure 62
0010
1000
0100
1000
0010
0000
1010
0000
0010
0001
0100
0001
0010
0000
0011
0000
,  // measure 63
0010
1000
0100
1000
0100
0010
0001
0100
0020
0000
0000
1000
0000
0000
0031
0000
;

//---------------dance-single - ----------------
#NOTEDATA:;
#CHARTNAME:;
#STEPSTYPE:dance-single;
#DESCRIPTION:;
#CHARTSTYLE:;
#DIFFICULTY:Hard;
#METER:13;
#RADARVALUES:0.578111,0.665894,0.189545,0.682361,0.279578,427.000000,407.000000,20.000000,72.000000,0.000000,0.000000,0.000000,0.000000,0.000000,0.578111,0.665894,0.189545,0.682361,0.279578,427.000000,407.000000,20.000000,72.000000,0.000000,0.000000,0.000000,0.000000,0.000000;
#CREDIT:;
#NOTES:
// measure 0
0000
0000
0000
0000
,  // measure 1
0000
0000
0000
0000
,  // measure 2
0000
0000
0000
0000
,  // measure 3
0000
0000
0000
0000
,  // measure 4
1000
0100
0001
0000
0010
0000
1000
0000
,  // measure 5
0001
0100
1000
0000
0010
0000
0001
0000
,  // measure 6
1000
0010
0100
0001
0010
0100
1000
0001
,  // measure 7
0200
0000
0320
0000
0130
0010
1001
0000
,  // measure 8
0001
0020
0100
0030
0001
0020
0100
0031
,  // measure 9
0100
0020
0001
0030
0100
0020
0001
0130
,  // measure 10
0001
0020
1000
0030
1000
0020
0001
0130
,  // measure 11
2000
0000
0000
3020
0000
0000
0032
0000
0000
0000
2003
0000
3200
0000
0301
0000
,  // measure 12
1000
0020
0100
0030
1000
0020
0100
1030
,  // measure 13
0100
0020
1000
0030
0100
0020
1000
0130
,  // measure 14
1000
1000
0001
0001
1000
1000
0001
0001
,  // measure 15
1000
0000
0010
0001
0000
0000
0001
0000
0010
0000
1000
0000
0200
0000
0000
0000
,  // measure 16
1300
0002
0010
1003
0001
2000
0010
3001
,  // measure 17
1000
0002
0100
1003
0001
2000
0100
3001
,  // measure 18
1000
0020
1000
0130
0001
0020
0001
0130
,  // measure 19
2000
0000
0000
3200
0000
0000
0302
0000
0000
0000
2003
0000
3020
0000
0031
0000
,  // measure 20
1000
0020
0001
0130
0001
0020
1000
0130
,  // measure 21
1000
0200
0001
0310
0001
0200
1000
0310
,  // measure 22
1000
0010
0001
0010
1000
0100
0001
0100
,  // measure 23
2000
0000
3020
0000
0130
0001
1001
0001
,  // measure 24
0020
0000
0000
0000
,  // measure 25
0000
0000
0000
0000
,  // measure 26
0030
0000
0000
0000
,  // measure 27
0000
0000
0000
0000
,  // measure 28
0001
0000
0200
0000
0000
2300
0000
0000
3200
0000
0000
0302
0000
0000
2003
0000
,  // measure 29
3001
0000
0010
0000
0000
0100
0000
0000
0001
0000
0000
0100
0000
0000
1000
0000
,  // measure 30
0010
0000
0002
0000
0000
0023
0000
0000
2030
0000
0000
3002
0000
0000
0023
0000
,  // measure 31
0130
0000
1000
0000
0000
0001
0000
0000
0100
0000
0100
0000
0010
0000
1000
0000
,  // measure 32
0200
1000
0010
1000
,  // measure 33
0010
0000
1300
0100
0010
0001
0100
0001
,  // measure 34
0200
0001
1000
0001
,  // measure 35
1000
0000
0301
0100
0010
1000
0001
0010
,  // measure 36
0200
1000
0010
0001
,  // measure 37
0010
0000
1300
0100
0010
0001
1000
0010
,  // measure 38
0100
0100
0010
0010
0100
0100
0010
0010
,  // measure 39
1000
0000
0100
0001
0000
0000
0001
0000
0100
0000
1000
0000
0010
0000
0000
0000
,  // measure 40
1001
0002
0100
0103
0001
2000
0100
3100
,  // measure 41
1001
0002
0010
0013
0001
2000
0010
3010
,  // measure 42
1001
2000
0010
3001
1000
0002
0010
1003
,  // measure 43
1001
0000
1000
0000
0001
0000
0001
0000
1000
0000
0000
1000
0010
0000
0100
0000
,  // measure 44
0101
0002
0010
0013
1100
2000
0010
3010
,  // measure 45
1001
2000
0100
3001
1001
0002
0100
1003
,  // measure 46
0001
0010
1000
0010
0001
0100
1000
0100
,  // measure 47
0010
0000
0000
0000
,  // measure 48
0001
0000
1000
0100
0000
1000
0100
0000
1000
0000
0001
0100
0000
0001
0100
0000
,  // measure 49
0010
0000
1000
0001
0000
1000
0001
0000
0020
0000
0000
2030
0000
0000
3020
0000
,  // measure 50
0031
0000
1000
0010
0000
0100
0001
0000
1000
0000
0001
0010
0000
0100
1000
0000
,  // measure 51
0001
0000
1000
0010
0000
0100
0001
0000
0011
0000
0000
1010
0000
0000
0011
0000
,  // measure 52
0010
0000
0001
0100
0000
0010
1000
0000
0100
0000
0010
0100
0000
1000
0010
0000
,  // measure 53
0100
0000
0001
0010
0000
0100
1000
0000
0020
0000
0000
0032
0000
0000
0023
0000
,  // measure 54
1030
1100
0110
0011
,  // measure 55
1000
0000
0100
0000
0001
0000
1000
0000
0010
0000
0001
1000
0000
1000
0001
0000
,  // measure 56
1000
0000
0010
0001
0000
0010
1000
0000
1000
0000
0100
0001
0000
0100
1000
0000
,  // measure 57
1000
0000
0010
0001
0000
0010
1000
0000
0200
0000
0000
0302
0000
0000
0203
0000
,  // measure 58
1300
0000
0010
0100
0000
0001
0010
0000
0100
0000
1000
0001
0000
0100
0010
0000
,  // measure 59
1010
0000
0000
0101
0000
0000
0001
0000
0011
0000
0000
1100
0000
0000
1000
0000
,  // measure 60
0001
0000
0010
1000
0000
0010
0001
0000
0001
0000
0100
1000
0000
0100
0001
0000
,  // measure 61
0001
0000
0010
1000
0000
0010
0001
0000
0200
0000
0000
2300
0000
0000
3200
0000
,  // measure 62
0301
0000
0010
0100
0010
0000
0001
0000
1000
0000
0010
0100
0010
0000
1000
0000
,  // measure 63
0100
0000
0010
0001
1000
0000
0010
0000
0200
0000
0000
1000
0000
0000
0301
0000
;

//---------------dance-single - ----------------
#NOTEDATA:;
#CHARTNAME:;
#STEPSTYPE:dance-single;
#DESCRIPTION:;
#CHARTSTYLE:;
#DIFFICULTY:Medium;
#METER:9;
#RADARVALUES:0.418352,0.454019,0.142159,0.445430,0.090034,309.000000,294.000000,15.000000,47.000000,0.000000,0.000000,0.000000,0.000000,0.000000,0.418352,0.454019,0.142159,0.445430,0.090034,309.000000,294.000000,15.000000,47.000000,0.000000,0.000000,0.000000,0.000000,0.000000;
#CREDIT:;
#NOTES:
// measure 0
0000
0000
0000
0000
,  // measure 1
0000
0000
0000
0000
,  // measure 2
0000
0000
0000
0000
,  // measure 3
0000
0000
0000
0000
,  // measure 4
1000
1000
0100
0100
,  // measure 5
0001
0001
0100
0100
,  // measure 6
1000
0010
0001
0010
,  // measure 7
2000
3002
2003
3010
,  // measure 8
1000
0100
1000
0000
1000
0100
1000
0000
,  // measure 9
0001
0100
0001
0000
0001
0100
0001
0000
,  // measure 10
1000
0100
1000
0000
0001
0100
0001
0000
,  // measure 11
0020
0000
0000
0230
0000
0000
2300
0000
0000
0000
0001
0000
3001
0000
0000
0000
,  // measure 12
1000
0010
1000
0000
1000
0010
1000
0000
,  // measure 13
0001
0010
0001
0000
0001
0010
0001
0000
,  // measure 14
2000
3020
0230
0302
,  // measure 15
0013
0000
0000
0110
0000
0000
0000
0000
1000
0000
1000
0000
0001
0000
0000
0000
,  // measure 16
0201
0000
0010
0000
1000
0000
0310
1000
,  // measure 17
0200
0000
0010
0000
0001
0000
0310
0001
,  // measure 18
0200
0000
1000
0000
0001
0000
0310
1000
,  // measure 19
0200
0000
0000
0320
0000
0000
0032
0000
0000
0000
1000
0000
1003
0000
0000
0000
,  // measure 20
0021
0000
1000
0000
0100
0000
0031
1000
,  // measure 21
0020
0000
0001
0000
0100
0000
1030
0001
,  // measure 22
0010
1100
0010
0101
,  // measure 23
2000
0000
3020
0000
0130
0001
0010
0000
,  // measure 24
0220
0000
0000
0000
,  // measure 25
0000
0000
0000
0000
,  // measure 26
0330
0000
0000
0000
,  // measure 27
0000
0000
0000
0000
,  // measure 28
0000
0000
0001
0000
0000
0001
0000
0000
1000
0000
0000
1000
0000
0000
0001
0000
,  // measure 29
0000
0000
1000
0000
0000
1000
0000
0000
0010
0000
0000
0100
0000
0000
0001
0000
,  // measure 30
0000
0000
1000
0000
0000
1000
0000
0000
0001
0000
0000
0001
0000
0000
1000
0000
,  // measure 31
0000
0000
0100
0000
0000
0100
0000
0000
0010
0000
0100
0000
1000
0000
0000
0000
,  // measure 32
0002
0100
0100
0100
,  // measure 33
0100
0000
0103
0000
0010
1000
0010
0000
,  // measure 34
2000
0100
0100
0100
,  // measure 35
0100
0000
3100
0000
0010
0001
1000
0000
,  // measure 36
0002
1000
1000
1000
,  // measure 37
1000
0000
1003
0000
0010
1000
0100
0000
,  // measure 38
2000
3200
0320
0032
,  // measure 39
0103
0000
0000
0110
0000
0000
0000
0000
0001
0000
0001
0000
1000
0000
0000
0000
,  // measure 40
0001
0010
0001
0000
0100
0001
0100
0000
,  // measure 41
0010
1000
0010
0000
1000
0100
1000
0000
,  // measure 42
0010
0100
0001
0000
0010
0100
1000
0000
,  // measure 43
0002
0000
0203
0000
0320
0000
1030
1000
,  // measure 44
0010
1000
0100
0000
0010
0001
0100
0000
,  // measure 45
1000
0100
0001
0000
1000
0100
0001
0000
,  // measure 46
0200
2300
3020
0230
,  // measure 47
0301
0000
0000
0000
,  // measure 48
0001
0010
0001
0000
0010
0100
0010
0000
,  // measure 49
0001
0000
0010
0000
0001
0000
0000
0000
0200
0000
0000
0302
0000
0000
1003
0000
,  // measure 50
1000
0010
1000
0000
0010
0100
0010
0000
,  // measure 51
1000
0000
0010
0000
1000
0000
0000
0000
0110
0000
0000
1001
0000
0000
1000
0000
,  // measure 52
0001
0100
0010
0000
1000
0100
0010
0000
,  // measure 53
0001
0000
0100
0000
0010
0000
0000
0000
2000
0000
0000
3200
0000
0000
0310
0000
,  // measure 54
0001
0101
0110
1010
,  // measure 55
0001
0100
0010
1000
0100
0000
0010
0000
,  // measure 56
0001
0010
0001
0010
0100
0010
0100
0000
,  // measure 57
1000
0000
0010
0000
1000
0000
0010
0000
0200
0000
0000
0320
0000
0000
1030
0000
,  // measure 58
0100
0010
0100
0010
0001
1000
0001
0000
,  // measure 59
0100
0000
0000
0100
0000
0000
0100
0000
0010
0000
0000
0010
0000
0000
0010
0000
,  // measure 60
0100
0001
0100
0001
1000
0100
1000
0000
,  // measure 61
0001
0000
0010
0000
0001
0000
1000
0000
0020
0000
0000
2030
0000
0000
3200
0000
,  // measure 62
0310
0011
1010
0101
,  // measure 63
0001
0000
0100
0000
0001
0000
0100
0000
2000
0000
0000
3200
0000
0000
0301
0000
;

//---------------dance-single - ----------------
#NOTEDATA:;
#CHARTNAME:;
#STEPSTYPE:dance-single;
#DESCRIPTION:;
#CHARTSTYLE:;
#DIFFICULTY:Easy;
#METER:5;
#RADARVALUES:0.292440,0.363215,0.123204,0.246408,0.000000,216.000000,203.000000,13.000000,26.000000,0.000000,0.000000,0.000000,0.000000,0.000000,0.292440,0.363215,0.123204,0.246408,0.000000,216.000000,203.000000,13.000000,26.000000,0.000000,0.000000,0.000000,0.000000,0.000000;
#CREDIT:;
#NOTES:
// measure 0
0000
0000
0000
0000
,  // measure 1
0000
0000
0000
0000
,  // measure 2
0000
0000
0000
0000
,  // measure 3
0000
0000
0000
0000
,  // measure 4
1000
0000
1000
0000
,  // measure 5
0001
0000
0001
0000
,  // measure 6
1000
1000
0001
0001
,  // measure 7
0200
0320
0200
0330
,  // measure 8
1000
0010
1000
0010
,  // measure 9
0001
0010
0001
0010
,  // measure 10
0001
0100
0001
0100
,  // measure 11
1000
1000
0010
0100
,  // measure 12
0001
0010
0001
0010
,  // measure 13
1000
0010
1000
0010
,  // measure 14
1000
0100
1000
0100
,  // measure 15
0001
0000
0001
1001
,  // measure 16
2000
0010
0001
0010
,  // measure 17
3002
0010
1000
0010
,  // measure 18
2003
0100
3002
0100
,  // measure 19
1003
1000
0010
0100
,  // measure 20
0002
0010
0100
0010
,  // measure 21
2003
0010
0100
0010
,  // measure 22
3001
0001
1000
1000
,  // measure 23
0200
0000
0000
0001
,  // measure 24
1300
0000
0000
0000
,  // measure 25
0000
0000
0000
0000
,  // measure 26
0000
0000
0000
0000
,  // measure 27
0000
0000
0000
0000
,  // measure 28
2000
0000
3020
0000
,  // measure 29
0230
0000
0302
0000
,  // measure 30
0023
0000
0230
0000
,  // measure 31
2300
0000
3001
1000
,  // measure 32
0002
0100
0100
0100
,  // measure 33
0100
0103
1010
0011
,  // measure 34
2000
0100
0100
0100
,  // measure 35
0100
3100
0011
0101
,  // measure 36
2000
0010
0010
0010
,  // measure 37
0010
3010
1001
0110
,  // measure 38
0001
0001
1000
1000
,  // measure 39
0001
0000
1000
1001
,  // measure 40
0001
0010
0010
1000
,  // measure 41
1000
0100
0100
0001
,  // measure 42
0001
0100
0100
1000
,  // measure 43
1000
0010
0010
0001
,  // measure 44
0001
0100
0010
1000
,  // measure 45
0100
0010
0001
1000
,  // measure 46
0020
0100
0100
0100
,  // measure 47
0130
0000
0000
0000
,  // measure 48
0001
0001
0010
0010
,  // measure 49
0001
0001
0010
1000
,  // measure 50
0010
0010
0001
0001
,  // measure 51
0100
0100
1010
0101
,  // measure 52
1000
1000
0010
0010
,  // measure 53
1000
1000
0010
0001
,  // measure 54
0010
1000
0100
0010
,  // measure 55
0220
0330
0001
1000
,  // measure 56
0001
0100
1000
0100
,  // measure 57
0001
0100
1000
1000
,  // measure 58
0100
0001
0010
0100
,  // measure 59
2200
3300
0011
0001
,  // measure 60
1000
0010
0001
0010
,  // measure 61
1000
0010
0100
0100
,  // measure 62
0001
0010
1000
0010
,  // measure 63
0001
0000
0100
0000
2000
0000
0000
3000
;

//---------------dance-single - ----------------
#NOTEDATA:;
#CHARTNAME:;
#STEPSTYPE:dance-single;
#DESCRIPTION:;
#CHARTSTYLE:;
#DIFFICULTY:Beginner;
#METER:2;
#RADARVALUES:0.139451,0.211875,0.028432,0.094772,0.000000,103.000000,100.000000,3.000000,10.000000,0.000000,0.000000,0.000000,0.000000,0.000000,0.139451,0.211875,0.028432,0.094772,0.000000,103.000000,100.000000,3.000000,10.000000,0.000000,0.000000,0.000000,0.000000,0.000000;
#CREDIT:;
#NOTES:
// measure 0
0000
0000
0000
0000
,  // measure 1
0000
0000
0000
0000
,  // measure 2
0000
0000
0000
0000
,  // measure 3
0000
0000
0000
0000
,  // measure 4
1000
0000
0000
0000
,  // measure 5
0001
0000
0000
0000
,  // measure 6
1000
0000
0001
0000
,  // measure 7
1000
0000
0000
0000
,  // measure 8
0001
0000
0001
0000
,  // measure 9
0010
0000
0010
0000
,  // measure 10
0100
0000
0100
0000
,  // measure 11
1000
1000
1000
0000
,  // measure 12
0010
0000
0010
0000
,  // measure 13
0100
0000
0100
0000
,  // measure 14
0001
0000
0001
0000
,  // measure 15
1001
0000
0000
0000
,  // measure 16
1000
0000
1000
0000
,  // measure 17
0100
0000
0100
0000
,  // measure 18
0010
0000
0010
0000
,  // measure 19
0001
0001
0001
0000
,  // measure 20
0100
0000
0100
0000
,  // measure 21
0010
0000
0010
0000
,  // measure 22
1000
0000
0001
0000
,  // measure 23
0010
0000
0000
0000
,  // measure 24
0110
0000
0000
0000
,  // measure 25
0000
0000
0000
0000
,  // measure 26
0000
0000
0000
0000
,  // measure 27
0000
0000
0000
0000
,  // measure 28
2000
0000
3000
0000
,  // measure 29
0020
0000
0030
0000
,  // measure 30
0200
0000
0300
0000
,  // measure 31
0002
0000
0003
0000
,  // measure 32
0020
0000
0000
0000
,  // measure 33
0030
0000
0010
0000
,  // measure 34
0200
0000
0000
0000
,  // measure 35
0300
0000
0100
0000
,  // measure 36
2000
0000
0000
0000
,  // measure 37
3000
0000
1000
0000
,  // measure 38
0002
0000
0000
0000
,  // measure 39
0003
0000
0001
0000
,  // measure 40
0100
0000
0100
0000
,  // measure 41
0010
0000
0010
0000
,  // measure 42
0100
0000
0100
0000
,  // measure 43
0010
0000
0010
0000
,  // measure 44
1000
0000
0001
0000
,  // measure 45
1000
0000
0001
0000
,  // measure 46
0020
0000
0000
0000
,  // measure 47
0030
0000
0000
0000
,  // measure 48
0001
0000
1000
0000
,  // measure 49
0001
0000
1000
1000
,  // measure 50
1000
0000
0001
0000
,  // measure 51
1000
0000
0010
0010
,  // measure 52
0010
0000
0100
0000
,  // measure 53
0010
0000
0100
0100
,  // measure 54
0100
0000
0001
0000
,  // measure 55
1001
0000
0000
0000
,  // measure 56
1000
0000
0001
0000
,  // measure 57
1000
0000
0001
0001
,  // measure 58
0001
0000
1000
0000
,  // measure 59
0001
0000
0010
0010
,  // measure 60
0010
0000
0100
0000
,  // measure 61
0010
0000
0100
0100
,  // measure 62
0100
0000
1000
0000
,  // measure 63
0001
0000
0000
0000
0200
0000
0000
0300
;
