#VERSION:0.83;
#TITLE:ナスカの丘;
#SUBTITLE:;
#ARTIST:劇団レコード feat. Sana;
#TITLETRANSLIT:Nazca no oka;
#SUBTITLETRANSLIT:;
#ARTISTTRANSLIT:Gekidan Record feat. Sana;
#GENRE:;
#ORIGIN:;
#CREDIT:;
#BANNER:Nazca no oka.png;
#BACKGROUND:Nazca no oka-bg.png;
#PREVIEWVID:;
#JACKET:Nazca no oka-jacket.png;
#CDIMAGE:;
#DISCIMAGE:;
#LYRICSPATH:;
#CDTITLE:cdtitle.png;
#MUSIC:Nazca no oka.ogg;
#OFFSET:1.537000;
#SAMPLESTART:89.565002;
#SAMPLELENGTH:12.000000;
#SELECTABLE:YES;
#BPMS:0.000=85.000,
16.000=63.000,
18.000=124.000;
#STOPS:178.500=0.484;
#DELAYS:;
#WARPS:;
#TIMESIGNATURES:0.000=4=4;
#TICKCOUNTS:0.000=4;
#COMBOS:0.000=1;
#SPEEDS:0.000=1.000=0.000=0;
#SCROLLS:0.000=1.000;
#FAKES:;
#LABELS:0.000=Song Start;
#BGCHANGES:;
#KEYSOUNDS:;
#ATTACKS:
;

//---------------dance-single - ----------------
#NOTEDATA:;
#CHARTNAME:;
#STEPSTYPE:dance-single;
#DESCRIPTION:;
#CHARTSTYLE:;
#DIFFICULTY:Hard;
#METER:11;
#RADARVALUES:0.420424,0.534843,0.053370,0.800549,0.194419,386.000000,379.000000,7.000000,105.000000,0.000000,0.000000,0.000000,0.000000,0.000000,0.420424,0.534843,0.053370,0.800549,0.194419,386.000000,379.000000,7.000000,105.000000,0.000000,0.000000,0.000000,0.000000,0.000000;
#CREDIT:;
#NOTES:
// measure 0
0000
0000
0000
0000
,  // measure 1
0000
0000
0000
0000
,  // measure 2
0000
0000
0000
0000
0000
0000
0001
1000
,  // measure 3
0100
0000
0000
0000
0010
0000
0100
1000
,  // measure 4
0020
0000
0000
0000
0000
0000
1030
0001
,  // measure 5
2000
3200
0302
0203
,  // measure 6
1300
0000
0001
1000
0001
0000
0100
0000
0010
0000
0000
0000
0100
0000
0001
0000
,  // measure 7
0020
0000
0000
0000
0030
0000
0100
0010
0100
0000
0100
0000
0010
0000
0001
0000
,  // measure 8
2000
0000
3001
0100
0020
0000
1030
1000
,  // measure 9
0002
0000
0203
0000
1300
0100
0001
1000
,  // measure 10
0001
0000
0010
0100
0010
0000
0100
0000
2000
0000
0000
0000
3010
0000
0100
0000
,  // measure 11
0002
0000
0000
0000
0003
0000
1000
0001
1000
0000
1000
0000
0100
0000
0010
0000
,  // measure 12
0001
1000
0000
0000
0010
0000
1000
0001
0000
0000
0010
0000
0001
1000
0000
0000
,  // measure 13
0002
0203
0320
0032
,  // measure 14
0023
0000
0000
0000
0230
0000
0000
0000
0301
1000
0001
0000
0010
0000
0100
0000
,  // measure 15
0002
0203
0320
0032
,  // measure 16
2003
0000
3020
0000
0031
0010
0100
0001
,  // measure 17
0020
2030
3020
0032
,  // measure 18
1003
0000
0001
0100
0001
0000
0010
0000
0010
0000
0000
0000
0100
0000
1000
0000
,  // measure 19
0020
0000
0030
0000
0010
0100
0001
1000
,  // measure 20
0100
0000
0000
0010
0000
0000
0001
0000
1000
0000
1000
0000
0001
0000
0100
0010
,  // measure 21
2000
3200
0320
2030
,  // measure 22
3002
0000
0000
0000
0203
0000
0000
0000
1300
0001
1000
0000
0010
0000
0100
0000
,  // measure 23
2000
3002
0023
2030
,  // measure 24
3200
0000
0320
0000
1030
0010
0001
1000
,  // measure 25
0020
0032
2003
3200
,  // measure 26
0301
0000
0010
0100
0010
0000
0100
0000
0100
0000
0000
0000
1000
0000
0001
0000
,  // measure 27
0200
0000
0300
0000
0100
0001
1000
0100
,  // measure 28
0010
0000
0001
0000
1000
0001
1000
0000
0010
0000
0010
0000
0100
0000
0000
0000
,  // measure 29
0002
0000
0000
0010
0023
0000
0000
0100
,  // measure 30
0100
0130
0020
0000
0031
0010
1000
0010
,  // measure 31
0002
0000
0000
0100
0203
0000
0000
0010
,  // measure 32
0310
1000
0002
0000
0023
0000
0230
0000
,  // measure 33
2300
0000
0000
0010
3020
0000
0000
0100
,  // measure 34
0100
0130
0002
0000
0103
1000
0100
0001
,  // measure 35
2000
0000
0000
0100
3200
0000
0000
0010
,  // measure 36
0310
0000
0001
0000
1000
0000
0001
0100
0001
0000
0000
1000
0000
0000
0001
0000
,  // measure 37
0010
0000
0010
0000
0000
0000
0100
0000
1000
0000
1000
0000
0000
0000
0001
0010
,  // measure 38
0002
0000
0023
0000
2030
0000
3010
0001
,  // measure 39
0100
0000
0100
0000
0000
0000
0010
0000
1000
0000
1000
0000
0000
0000
0001
1000
,  // measure 40
0002
0000
0203
0000
2300
0000
3100
0001
,  // measure 41
0100
0000
0000
0100
0010
0000
0100
0000
0001
1000
0001
0000
0010
0000
0100
0000
,  // measure 42
0010
0000
0000
0100
0010
0000
0100
0000
1000
0001
1000
0000
0010
0000
0100
0000
,  // measure 43
0001
0000
0000
0001
1000
0000
0100
0000
0010
0000
0000
0001
0000
0000
1000
0000
,  // measure 44
0020
0000
0000
0100
0000
0000
0130
0000
1001
0000
1001
0000
1000
0000
0000
1000
,  // measure 45
0010
0000
0000
0010
0100
0000
0000
0100
0001
0000
0000
0001
0010
0000
0100
0010
,  // measure 46
0100
0000
0010
0000
0001
0000
0000
0001
0100
0000
0010
0000
1000
0000
0000
1000
,  // measure 47
0010
0000
1000
0001
1000
0000
0100
0000
0001
0000
0100
0000
1000
0000
0000
1000
,  // measure 48
0010
0000
0100
0000
0001
0000
0000
0001
1000
0000
0100
0000
0001
0000
0000
0001
,  // measure 49
0100
0000
0000
0100
1000
0000
0010
0000
0001
0000
0010
0000
1000
0000
0100
0010
,  // measure 50
0100
0000
0010
0000
0001
0000
0000
0001
0100
0000
0010
0000
1000
0000
0000
1000
,  // measure 51
0100
0010
0001
0001
0100
1000
0100
0001
,  // measure 52
1000
0010
1000
0000
0001
0000
0000
0000
2000
0000
3200
0000
0302
0000
0000
0000
,  // measure 53
2003
0000
0000
0000
3020
0000
0000
0000
0032
0000
0000
0000
0103
0000
0001
0100
,  // measure 54
0002
0203
2300
0000
3200
0320
2030
0000
,  // measure 55
3100
0000
0000
0000
1000
0000
0100
0000
2000
0000
0000
0000
3200
0000
0000
0000
0302
0000
0000
0000
0203
0000
0000
0300
0210
0000
0000
0000
0000
0000
0000
0000
,  // measure 56
2300
0000
0000
0000
3002
0000
0000
0003
2001
0000
0000
0000
0000
0000
0000
0000
3002
0000
0000
0000
0203
0000
0000
0000
2300
0000
0000
0000
0000
0000
0000
0000
,  // measure 57
3002
0000
0000
0000
0023
0000
0230
0000
0302
0000
0023
0000
2030
0000
0000
3001
,  // measure 58
0200
0320
0032
0000
2003
3020
0032
0000
,  // measure 59
0013
0000
1000
0001
0020
0000
2030
0000
3020
0000
0032
0000
0103
0010
0000
0100
,  // measure 60
0000
0001
1000
0000
0100
0010
0000
0100
0000
1000
0001
0000
1001
0000
1001
0000
,  // measure 61
1001
0000
0000
0000
;

//---------------dance-single - ----------------
#NOTEDATA:;
#CHARTNAME:;
#STEPSTYPE:dance-single;
#DESCRIPTION:;
#CHARTSTYLE:;
#DIFFICULTY:Medium;
#METER:7;
#RADARVALUES:0.296258,0.372065,0.114364,0.602318,0.000000,272.000000,257.000000,15.000000,79.000000,0.000000,0.000000,0.000000,0.000000,0.000000,0.296258,0.372065,0.114364,0.602318,0.000000,272.000000,257.000000,15.000000,79.000000,0.000000,0.000000,0.000000,0.000000,0.000000;
#CREDIT:;
#NOTES:
// measure 0
0000
0000
0000
0000
,  // measure 1
0000
0000
0000
0000
,  // measure 2
0000
0000
0000
1000
,  // measure 3
0100
0000
0010
0001
,  // measure 4
0200
0000
0000
0000
0000
0000
0301
1000
,  // measure 5
0001
0010
0100
1000
,  // measure 6
0010
0000
1000
0010
1000
0000
0001
0010
,  // measure 7
0001
0000
0000
0010
0010
0000
0100
0010
,  // measure 8
0100
0000
1000
0001
1000
0000
0010
0100
,  // measure 9
0010
0000
1000
0000
0001
0100
0010
0000
,  // measure 10
1000
0000
0001
0100
0001
0000
1000
0100
,  // measure 11
1000
0000
0000
0100
0100
0000
0010
0000
,  // measure 12
1001
0000
0000
1001
0000
0000
1001
0000
,  // measure 13
0002
0203
0320
2030
,  // measure 14
3002
0203
2300
3000
,  // measure 15
2000
3200
0302
2003
,  // measure 16
3020
0000
0230
0000
0301
1000
0001
0000
,  // measure 17
2000
3200
0302
0203
,  // measure 18
1300
0000
0100
0010
0001
0000
0100
0010
,  // measure 19
2000
0000
3000
0000
0001
1000
0001
0000
,  // measure 20
0010
0000
0010
0000
0100
0010
0100
0000
,  // measure 21
2000
3200
0320
0032
,  // measure 22
2003
3020
0032
0003
,  // measure 23
0002
0023
2030
3002
,  // measure 24
0203
0000
0320
0000
1030
0010
1000
0000
,  // measure 25
0002
0023
2030
3020
,  // measure 26
0031
0000
0010
0001
0100
0000
0010
1000
,  // measure 27
0200
0000
0300
0000
0010
0100
0010
0000
,  // measure 28
0001
1000
0001
0000
1000
0000
0001
0000
,  // measure 29
0200
0000
2300
0000
,  // measure 30
3100
0001
1000
0010
,  // measure 31
2000
0000
3002
0000
,  // measure 32
0013
0010
0100
1000
,  // measure 33
0200
0000
0302
0000
,  // measure 34
0103
1000
0001
0100
,  // measure 35
0020
0000
2030
0000
,  // measure 36
3001
0001
1001
0110
,  // measure 37
2001
0000
0000
0100
3200
0000
0000
0310
,  // measure 38
0002
2003
3020
0230
,  // measure 39
0302
0000
0000
0100
0203
0000
0000
0310
,  // measure 40
2000
3200
0320
0032
,  // measure 41
1003
0000
1000
0000
1000
0010
0100
0000
,  // measure 42
0001
0000
0001
0000
0001
0010
0100
0000
,  // measure 43
0010
0000
0010
0000
0100
1000
0010
0000
,  // measure 44
0100
0001
0010
0000
1001
0000
1010
0000
,  // measure 45
0011
0101
1100
1001
,  // measure 46
0001
0010
0001
0000
1000
0010
2000
0000
,  // measure 47
3000
0010
0010
0000
0010
1000
0001
0000
,  // measure 48
0010
0001
1000
0000
0001
0000
1001
0000
,  // measure 49
0110
0000
1000
0001
1000
0000
0100
0000
,  // measure 50
1000
0100
1000
0000
0001
0100
0002
0000
,  // measure 51
0003
0000
0100
0100
0100
0000
0010
1000
,  // measure 52
0010
0000
1000
0000
0200
0320
0032
0000
,  // measure 53
0023
2030
3020
0032
,  // measure 54
0103
0001
0200
0000
1300
0100
2000
0000
,  // measure 55
3000
0100
0001
0100
0002
0000
0023
0000
,  // measure 56
0130
0100
0200
0000
1300
0001
2000
0000
,  // measure 57
3020
0000
0031
0010
0002
0000
0023
0000
,  // measure 58
1030
0010
2000
0000
3100
1000
0200
0000
,  // measure 59
0300
1000
0100
0010
0001
0000
2002
0000
,  // measure 60
0000
0000
0000
0000
3003
0000
0100
0100
,  // measure 61
0100
0000
0000
0000
;

//---------------dance-single - ----------------
#NOTEDATA:;
#CHARTNAME:;
#STEPSTYPE:dance-single;
#DESCRIPTION:;
#CHARTSTYLE:;
#DIFFICULTY:Easy;
#METER:5;
#RADARVALUES:0.201499,0.209286,0.022873,0.365965,0.000000,185.000000,182.000000,3.000000,48.000000,0.000000,0.000000,0.000000,0.000000,0.000000,0.201499,0.209286,0.022873,0.365965,0.000000,185.000000,182.000000,3.000000,48.000000,0.000000,0.000000,0.000000,0.000000,0.000000;
#CREDIT:;
#NOTES:
// measure 0
0000
0000
0000
0000
,  // measure 1
0000
0000
0000
0000
,  // measure 2
0000
0000
0000
1000
,  // measure 3
1000
0000
0001
1000
,  // measure 4
0002
0000
0003
0000
,  // measure 5
1000
0100
0010
0001
,  // measure 6
1000
1000
1000
0000
,  // measure 7
0001
0000
0010
0010
,  // measure 8
0100
1000
0001
0000
,  // measure 9
1000
0010
0100
0001
,  // measure 10
1000
1000
1000
0000
,  // measure 11
0010
0000
0100
0001
,  // measure 12
0010
0000
0010
0000
,  // measure 13
0001
0100
0001
0100
,  // measure 14
0010
0100
0020
0030
,  // measure 15
1000
0010
1000
0001
,  // measure 16
1000
0100
2000
3000
,  // measure 17
0001
0010
0100
1000
,  // measure 18
0010
0100
0001
1000
,  // measure 19
2000
3000
0001
1000
,  // measure 20
0010
0100
0001
0000
,  // measure 21
1000
0100
1000
0100
,  // measure 22
0010
0001
0200
0300
,  // measure 23
0001
0100
0001
1000
,  // measure 24
0001
0010
0002
0003
,  // measure 25
1000
0010
0100
0001
,  // measure 26
0010
0100
1000
0001
,  // measure 27
0002
0003
1000
0001
,  // measure 28
0100
0010
0100
0000
,  // measure 29
0020
0000
2000
0000
,  // measure 30
3030
1000
0010
0100
,  // measure 31
0002
0000
0023
0000
,  // measure 32
0130
1000
0001
1000
,  // measure 33
0002
0000
0200
0000
,  // measure 34
0303
0001
0100
0010
,  // measure 35
2000
0000
3002
0000
,  // measure 36
1003
0100
0010
0000
,  // measure 37
0200
0000
2300
0000
,  // measure 38
0010
0010
3001
0000
,  // measure 39
0200
0000
0302
0000
,  // measure 40
0010
0010
1003
0000
,  // measure 41
0001
0100
1000
0000
,  // measure 42
1000
0100
0001
0000
,  // measure 43
0010
0000
0100
0010
,  // measure 44
0220
0000
0330
0001
,  // measure 45
0010
1000
0010
0001
,  // measure 46
1000
0001
0000
0100
,  // measure 47
0000
0010
1000
0100
,  // measure 48
0010
0001
0000
1000
,  // measure 49
0010
0001
0010
1000
,  // measure 50
0100
0001
0000
0100
,  // measure 51
0000
0010
0010
0100
,  // measure 52
1000
0001
0000
2000
,  // measure 53
3020
0230
0302
2003
,  // measure 54
3020
2030
3002
0023
,  // measure 55
0030
0200
2300
3002
,  // measure 56
2003
3200
0320
0032
,  // measure 57
0203
2300
3200
0302
,  // measure 58
2003
3020
2030
3200
,  // measure 59
0300
0002
0203
2300
,  // measure 60
0000
0000
3000
1001
,  // measure 61
1001
0000
0000
0000
;

//---------------dance-single - ----------------
#NOTEDATA:;
#CHARTNAME:;
#STEPSTYPE:dance-single;
#DESCRIPTION:;
#CHARTSTYLE:;
#DIFFICULTY:Challenge;
#METER:13;
#RADARVALUES:0.511916,0.558097,0.045746,0.617566,0.266850,470.000000,464.000000,6.000000,81.000000,0.000000,0.000000,0.000000,0.000000,0.000000,0.511916,0.558097,0.045746,0.617566,0.266850,470.000000,464.000000,6.000000,81.000000,0.000000,0.000000,0.000000,0.000000,0.000000;
#CREDIT:;
#NOTES:
// measure 0
0000
0000
0000
0000
,  // measure 1
0000
0000
0000
0000
,  // measure 2
0000
0000
0000
0000
0000
0000
0001
1000
,  // measure 3
0100
0000
0000
0000
0010
0000
0100
1000
,  // measure 4
0020
0000
0000
0000
0000
0000
1030
0001
,  // measure 5
1000
1000
0010
0010
0001
0001
0100
0100
,  // measure 6
1000
0000
0001
0100
0010
0000
0100
0000
0020
0000
0000
0000
1030
0000
0001
0000
,  // measure 7
0010
0000
0100
0000
0100
0000
0010
0001
1000
0000
1000
0000
0001
0000
0100
0000
,  // measure 8
0010
0010
1000
0100
0020
0000
0031
1000
,  // measure 9
0001
0001
0100
0100
1000
1000
0010
0010
,  // measure 10
0001
0000
1000
0010
0100
0000
0001
0000
0020
0000
0000
0000
0130
0000
1000
0000
,  // measure 11
0001
0000
0100
0000
0100
0000
0010
0100
0010
0000
1000
0000
0001
0000
0010
0000
,  // measure 12
0100
1000
0000
0000
0010
0000
0100
0001
0000
0000
0010
0000
0100
1000
0000
0000
,  // measure 13
0001
0000
0100
0000
0010
0000
1000
0000
0001
0100
0001
0000
1000
0000
0010
0000
,  // measure 14
1000
0000
0001
0000
0010
0000
0100
0000
0010
0001
0010
0000
0001
0000
0000
0000
,  // measure 15
1000
0000
0010
0000
0100
0000
0001
0000
1000
0100
1000
0000
0001
0000
0100
0000
,  // measure 16
0010
1000
0001
0010
0200
2300
3002
0203
,  // measure 17
0310
0000
1000
0000
0100
0000
1000
0000
0010
1000
0010
0000
0100
0000
0001
0000
,  // measure 18
0010
0000
0100
0010
0100
0000
0010
0000
0001
1000
0001
0000
0100
0000
0010
0000
,  // measure 19
0200
0000
0000
0000
0310
0000
0010
0000
1000
0001
1000
0000
0001
0010
0100
1000
,  // measure 20
0002
0000
0000
0203
0000
0000
0310
0000
1000
0000
1000
0000
0100
0000
0010
0001
,  // measure 21
1000
0000
0100
0000
0001
0000
0100
0000
0010
0100
0010
0000
0001
0000
1000
0000
,  // measure 22
0001
0000
0100
0000
1000
0000
0100
0000
0010
0100
0010
0000
1000
0000
0000
0000
,  // measure 23
0001
0000
0010
0000
1000
0000
0010
0000
0001
0100
0001
0000
0100
0000
0010
0000
,  // measure 24
1000
0010
0001
0010
0200
0302
2003
3200
,  // measure 25
0310
0000
0001
0000
0100
0000
0010
0000
1000
0001
1000
0000
0100
0000
0001
0000
,  // measure 26
0100
0000
1000
0001
1000
0000
0010
0000
0100
0001
1000
0000
0100
0000
0010
0000
,  // measure 27
0200
0000
0000
0000
0310
0000
0010
0000
0001
1000
0001
0000
1000
0010
0100
0001
,  // measure 28
1000
0000
1000
0000
0100
0010
0100
0000
0010
0000
0010
0000
0001
0000
1000
0000
,  // measure 29
0020
0000
0000
0001
0001
0000
0000
0100
,  // measure 30
0100
0100
2030
0000
3020
0000
2030
0000
,  // measure 31
3200
0000
0000
0001
0001
0000
0000
0310
,  // measure 32
0100
1000
0002
0000
0203
0000
0302
0000
,  // measure 33
0023
0000
0000
1000
1000
0000
0000
0100
,  // measure 34
0100
0100
0032
0000
0023
0000
0032
0000
,  // measure 35
0203
0000
0000
1000
1000
0000
0000
0310
,  // measure 36
0100
0000
0001
0000
1000
0000
0100
0010
0001
0000
0000
0001
0000
0000
0100
0000
,  // measure 37
0010
0000
1000
0000
0000
0000
1000
0000
0001
0000
1000
0000
0000
0000
1000
0100
,  // measure 38
0002
0000
0203
0000
0320
0000
0130
0100
,  // measure 39
0010
0000
0001
0000
0000
0000
0001
0000
1000
0000
0001
0000
0000
0000
0001
0100
,  // measure 40
2000
0000
0000
0000
3200
0000
0000
0000
0310
0100
0010
0000
0100
0000
0001
1000
,  // measure 41
0100
0000
0000
0100
0010
0000
0001
0000
1000
0001
1000
0000
0010
0000
0100
0001
,  // measure 42
0100
0000
0000
0100
0010
0000
1000
0000
0001
1000
0001
0000
0010
0000
0100
1000
,  // measure 43
0100
0000
0000
0010
0001
0000
1000
0000
0010
0100
0010
0000
0100
0000
0010
0100
,  // measure 44
0020
0000
0000
1000
0000
0000
1030
0000
1001
0000
1001
0000
2000
0000
0100
0000
,  // measure 45
3200
0000
0001
0000
0302
0000
0100
0000
0203
0000
1000
0000
1300
0000
0001
0100
,  // measure 46
0010
0000
1000
0000
1010
0000
0000
0001
0010
0000
0100
0010
0001
0000
0001
1000
,  // measure 47
0010
0000
1000
0001
1000
0000
0100
0000
0001
0000
0100
0000
1000
0000
0010
1000
,  // measure 48
0010
0000
0100
0000
0002
0000
0000
1003
0100
0000
0010
0000
0002
0000
0100
0000
,  // measure 49
0203
0000
1000
0000
1300
0000
0100
0000
0010
0000
0100
0000
0001
0000
1000
0100
,  // measure 50
0010
0000
0001
0000
0011
0000
0000
1000
0010
0000
0100
0010
1000
0000
1000
0001
,  // measure 51
0010
0100
0001
0100
1000
0001
0100
0010
,  // measure 52
1000
0001
0010
0000
0200
0000
0000
0000
2300
0000
3200
0000
0302
0000
1000
0000
,  // measure 53
2003
0000
0010
0000
3020
0000
0001
0000
0032
0000
0100
0000
0103
0000
1000
0100
,  // measure 54
2000
3200
0302
0000
0203
0320
2030
0001
,  // measure 55
3001
0000
1000
0100
0020
0000
0230
0000
0302
0000
0203
0000
2300
0000
0000
3010
,  // measure 56
0200
0000
0302
0000
0013
0100
1000
0000
0002
0000
0203
0000
2300
0000
0001
0000
,  // measure 57
3002
0000
0010
0000
0023
0000
0230
0000
0302
0000
0023
0000
2030
0000
3010
0100
,  // measure 58
2000
3002
0203
0000
2300
3200
0302
0010
,  // measure 59
0013
0000
1000
0010
0002
0000
2003
0000
3020
0000
0032
0000
0013
1000
0000
1000
,  // measure 60
0000
0001
1000
0001
0010
0001
0000
0001
0000
1000
0001
1000
0010
0000
0110
0000
,  // measure 61
1001
0000
0000
0000
;

//---------------dance-single - ----------------
#NOTEDATA:;
#CHARTNAME:;
#STEPSTYPE:dance-single;
#DESCRIPTION:;
#CHARTSTYLE:;
#DIFFICULTY:Beginner;
#METER:2;
#RADARVALUES:0.124167,0.163445,0.015249,0.160110,0.000000,114.000000,112.000000,2.000000,21.000000,0.000000,0.000000,0.000000,0.000000,0.000000,0.124167,0.163445,0.015249,0.160110,0.000000,114.000000,112.000000,2.000000,21.000000,0.000000,0.000000,0.000000,0.000000,0.000000;
#CREDIT:;
#OFFSET:1.537000;
#BPMS:0.000000=85.000000
,16.000000=62.999996
,18.000000=124.000000
;
#STOPS:;
#DELAYS:;
#WARPS:;
#TIMESIGNATURES:0.000000=4=4
;
#TICKCOUNTS:0.000000=4
;
#COMBOS:0.000000=1
;
#SPEEDS:0.000000=1.000000=0.000000=0
;
#SCROLLS:0.000000=1.458823
,16.000000=1.968253
,18.000000=1.000000
;
#FAKES:;
#LABELS:0.000000=Song Start
;
#NOTES:
// measure 0
0000
0000
0000
0000
,  // measure 1
0000
0000
0000
0000
,  // measure 2
0000
0000
0000
0000
,  // measure 3
1000
0000
0001
0000
,  // measure 4
0200
0000
0300
0000
,  // measure 5
0001
0000
0001
0000
,  // measure 6
0001
0001
0001
0000
,  // measure 7
1000
0000
1000
0000
,  // measure 8
1000
1000
1000
0000
,  // measure 9
0100
0000
0100
0000
,  // measure 10
0100
0100
0100
0000
,  // measure 11
0010
0000
0010
0010
,  // measure 12
0010
0000
0000
0000
,  // measure 13
0001
0000
0001
0000
,  // measure 14
0001
0000
0001
0000
,  // measure 15
0100
0000
0100
0000
,  // measure 16
0010
0000
0010
0000
,  // measure 17
1000
0000
1000
0000
,  // measure 18
1000
1000
1000
0000
,  // measure 19
0200
0000
0300
0000
,  // measure 20
0100
0000
0010
0000
,  // measure 21
0001
0000
0001
0000
,  // measure 22
0001
0000
0001
0000
,  // measure 23
0010
0000
0010
0000
,  // measure 24
0100
0000
0100
0000
,  // measure 25
1000
0000
1000
0000
,  // measure 26
1000
1000
1000
0000
,  // measure 27
0020
0000
0030
0000
,  // measure 28
0100
0000
0001
0000
,  // measure 29
2000
0000
0000
0000
,  // measure 30
3000
0000
1000
0000
,  // measure 31
0200
0000
0000
0000
,  // measure 32
0300
0000
0100
0000
,  // measure 33
0020
0000
0000
0000
,  // measure 34
0030
0000
0010
0000
,  // measure 35
0002
0000
0000
0000
,  // measure 36
0003
0000
0001
0000
,  // measure 37
1000
0000
2000
0000
,  // measure 38
0000
0000
3000
0000
,  // measure 39
0001
0000
0002
0000
,  // measure 40
0000
0000
0003
0000
,  // measure 41
0100
0000
0000
0000
,  // measure 42
0010
0000
0000
0000
,  // measure 43
0100
0000
0010
0000
,  // measure 44
0200
0000
0300
0000
,  // measure 45
0001
0000
0001
0000
,  // measure 46
0010
0010
0010
0000
,  // measure 47
0100
0000
1000
0000
,  // measure 48
0001
0001
0001
0000
,  // measure 49
1000
0000
1000
0000
,  // measure 50
0010
0010
0010
0000
,  // measure 51
0100
0000
0001
0001
,  // measure 52
0001
0000
1000
0000
,  // measure 53
0002
0003
0020
0030
,  // measure 54
0100
0100
0200
0300
,  // measure 55
2000
3000
0020
0030
,  // measure 56
0100
0100
0200
0300
,  // measure 57
0002
0003
2000
3000
,  // measure 58
0100
0100
0200
0300
,  // measure 59
0020
0030
0001
0001
,  // measure 60
0002
0000
0003
0000
,  // measure 61
1001
1001
0000
0000
;
