#VERSION:0.83;
#TITLE:NULCTRL;
#SUBTITLE:;
#ARTIST:Silentroom;
#TITLETRANSLIT:;
#SUBTITLETRANSLIT:;
#ARTISTTRANSLIT:;
#GENRE:Electronic;
#ORIGIN:;
#CREDIT:;
#BANNER:NULCTRL.png;
#BACKGROUND:NULCTRL-bg.png;
#PREVIEWVID:;
#JACKET:NULCTRL-jacket.png;
#CDIMAGE:;
#DISCIMAGE:;
#LYRICSPATH:;
#CDTITLE:cdtitle.png;
#MUSIC:NULCTRL.ogg;
#OFFSET:2.400000;
#SAMPLESTART:19.200001;
#SAMPLELENGTH:19.200006;
#SELECTABLE:YES;
#BPMS:0.000=100.000;
#STOPS:;
#DELAYS:;
#WARPS:;
#TIMESIGNATURES:0.000=4=4;
#TICKCOUNTS:0.000=4;
#COMBOS:0.000=1;
#SPEEDS:0.000=1.000=0.000=0;
#SCROLLS:0.000=1.000;
#FAKES:;
#LABELS:0.000=Song Start;
#BGCHANGES:3.563=NULCTRL.avi=1.000=1=0=0=StretchNoLoop==CrossFade==,
99999=-nosongbg-=1.000=0=0=0 // don't automatically add -songbackground-
;
#KEYSOUNDS:;
#ATTACKS:
;

//---------------dance-single - ----------------
#NOTEDATA:;
#CHARTNAME:;
#STEPSTYPE:dance-single;
#DESCRIPTION:;
#CHARTSTYLE:;
#DIFFICULTY:Challenge;
#METER:13;
#RADARVALUES:0.606348,0.647091,0.610710,0.152678,0.740486,556.000000,476.000000,80.000000,20.000000,22.000000,0.000000,2.000000,0.000000,0.000000,0.606348,0.647091,0.610710,0.152678,0.740486,556.000000,476.000000,80.000000,20.000000,22.000000,0.000000,2.000000,0.000000,0.000000;
#CREDIT:;
#OFFSET:2.400000;
#BPMS:0.000000=100.000000
,48.000000=800.000000
,49.000000=100.000000
,61.000000=800.000000
,62.000000=100.000000
,74.000000=800.000000
,75.000000=100.000000
,135.000000=800.000000
,136.000000=100.000000
,148.000000=800.000000
,149.000000=100.000000
,161.000000=800.000000
,162.000000=100.000000
;
#STOPS:48.000000=0.581249
,48.250000=0.581251
,48.500000=0.581251
,48.750000=0.581251
,61.000000=0.581249
,61.250000=0.581251
,61.500000=0.581251
,61.750000=0.581251
,74.000000=0.581249
,74.250000=0.581251
,74.500000=0.581251
,74.750000=0.581251
,135.000000=0.581249
,135.250000=0.581251
,135.500000=0.581251
,135.750000=0.581251
,148.000000=0.581249
,148.250000=0.581251
,148.500000=0.581251
,148.750000=0.581251
,161.000000=0.581249
,161.250000=0.581251
,161.500000=0.581251
,161.750000=0.581251
;
#DELAYS:;
#WARPS:;
#TIMESIGNATURES:0.000000=4=4
;
#TICKCOUNTS:0.000000=4
;
#COMBOS:0.000000=1
;
#SPEEDS:0.000000=1.000000=0.000000=0
;
#SCROLLS:0.000000=1.000000
;
#FAKES:;
#LABELS:0.000000=Song Start
;
#NOTES:
// measure 0
0000
0000
0000
0000
,  // measure 1
0000
0000
0000
0000
,  // measure 2
0000
0000
0000
0000
,  // measure 3
0000
0000
0000
0000
,  // measure 4
0000
0000
0000
0000
,  // measure 5
1001
0000
0010
0000
1001
0000
1000
0100
0010
0000
1100
0000
0010
0000
0101
0000
,  // measure 6
1000
0010
1000
0010
0100
0000
1010
0000
0001
0010
0100
0000
0010
0010
0010
0010
,  // measure 7
0001
0000
1100
0000
0101
0000
1000
0010
1000
0000
0101
0000
1000
0000
0001
1000
,  // measure 8
0100
0100
0100
0100
0010
0000
0100
0100
0010
0000
0100
0000
MMMM
0000
0001
0000
,  // measure 9
2001
0000
3100
0000
0010
0000
0011
0000
0000
1100
0000
0001
0100
0001
0100
0000
,  // measure 10
1002
0000
0103
0000
0010
0000
1010
0000
0000
0101
0000
1000
0100
1000
0100
0010
,  // measure 11
2001
0000
3010
0000
0100
0000
0101
0000
0000
1010
0000
0001
0010
0001
0010
0100
,  // measure 12
1100
0101
1100
0101
1002
0000
0103
0000
0001
0000
0011
0000
0000
1010
0000
1000
,  // measure 13
0100
0000
1000
0000
2001
0000
3100
0000
1000
0000
1010
0000
0000
0011
0000
0001
,  // measure 14
0100
0000
0001
0000
1000
0100
1000
0100
1000
0000
0011
0000
0000
1010
0000
0001
,  // measure 15
0100
0000
0001
0000
0011
1010
0011
1010
0002
0000
0100
0000
1003
0000
1010
0000
,  // measure 16
0000
1001
0000
1000
0100
1000
0100
0000
2001
0000
3100
0000
0010
0000
0011
0000
,  // measure 17
0000
1001
0000
0001
0100
1000
0100
0001
0010
1000
0010
0001
0100
0000
0110
0000
,  // measure 18
0000
1001
0000
1000
0010
1000
0010
0100
0101
0011
1100
1010
0001
0010
0001
0000
,  // measure 19
0010
0001
0010
0000
0001
0100
0001
0000
0100
0001
0100
0000
1000
0100
1000
0000
,  // measure 20
0100
1000
0100
0000
1000
0010
1000
0000
0010
1000
0010
0000
0001
0010
0001
0010
,  // measure 21
0001
0100
0001
0100
1000
0100
1000
0100
1000
0010
1000
0010
0001
0000
0011
0000
,  // measure 22
1100
0000
0001
0100
0001
0000
1010
0000
0110
0000
0101
0000
1000
0100
1000
0100
,  // measure 23
2000
0200
000M
00M0
0000
0000
000M
00M0
0000
0000
330M
00M0
0001
0100
0001
0100
,  // measure 24
0002
0200
M000
00M0
0000
0000
M000
00M0
0000
0000
M303
00M0
1000
0100
1000
0100
,  // measure 25
2000
0200
000M
00M0
0000
0000
000M
00M0
0000
0000
330M
00M0
0001
0100
0001
0100
,  // measure 26
0001
0100
0010
0000
0100
0010
0100
0010
1000
0100
0010
0001
1000
0010
1000
0010
,  // measure 27
0100
0010
0100
0010
0001
0010
0001
0010
0100
0010
0100
0010
1000
0100
1000
0100
,  // measure 28
0010
0100
0010
0100
0001
0100
0001
0100
0010
0100
0010
0100
1000
0010
0100
0001
,  // measure 29
0010
0000
0100
0000
1000
0000
0010
0000
0100
0000
0001
0000
0010
0000
0100
0000
1000
0000
0100
0000
0010
0000
0001
0000
0400
0040
0000
0000
0000
0000
0000
0000
,  // measure 30
0000
0000
0000
0000
0000
0000
0330
1010
,  // measure 31
1000
0010
1000
0000
0011
0000
0001
0010
0001
0100
0001
0100
1001
0000
1100
0000
,  // measure 32
0001
0010
0001
0000
0101
0000
1000
0010
0002
0000
0013
1000
0100
0000
0011
0000
,  // measure 33
1000
0100
1000
0000
1010
0000
0001
0100
0001
0100
0010
1000
1100
0101
0011
1010
,  // measure 34
1000
0000
1100
0000
1000
0100
0001
0000
0101
0000
0001
0100
1000
0010
1000
0010
,  // measure 35
0100
0000
1010
0000
1000
0010
0001
0000
0011
0000
0001
0010
1000
0100
0010
0001
,  // measure 36
1000
0000
1001
0000
0001
0100
1000
0000
1100
0000
1000
0100
0001
0010
0001
0000
,  // measure 37
0011
0000
0000
0101
0000
0000
1100
0000
0000
1010
0000
0000
0001
0000
0000
0000
0000
0000
0001
0000
0000
0000
0000
0000
1000
0000
0000
0000
0010
0000
1000
0000
0010
0000
0000
0000
1000
0000
0000
0000
0001
0000
1000
0000
0001
0000
0000
0000
,  // measure 38
1000
0000
0100
1000
0100
0000
0010
0000
0001
0010
0001
0000
1000
0000
0001
1000
0001
0000
0100
0000
0001
0100
0001
0000
,  // measure 39
0010
0000
0000
0100
0000
0000
2000
0000
0000
0000
0000
0000
3002
0000
0000
0000
0000
0000
0103
0000
0000
0000
0000
0000
0102
0000
0000
0000
0000
0000
1003
0000
0000
0000
0000
0000
0001
0000
0000
0000
0010
0000
0001
0000
1000
0000
0000
0000
,  // measure 40
0001
0000
0000
0000
1000
0000
0001
0000
0100
0000
0000
0000
1010
0000
0000
1100
0000
0000
0011
0000
0000
0101
0000
0000
1000
0000
0000
0010
0000
0000
1000
0000
0000
0000
0000
0000
0010
0000
0000
1000
0000
0000
0010
0000
0000
0000
0000
0000
,  // measure 41
1000
0100
1000
0000
0100
1000
0100
0000
0001
0100
0001
0000
0100
0001
0100
0000
,  // measure 42
0001
0010
0001
0000
0010
0001
0010
0000
1000
0010
1000
0010
1000
0100
1000
0100
,  // measure 43
0001
0100
0001
0100
0001
0010
0001
0010
1000
0000
1010
0000
0101
0000
1000
0100
,  // measure 44
1000
0000
0011
0000
0110
0000
1100
0000
0001
0100
0001
0100
0001
0200
0000
0000
,  // measure 45
0000
0000
0000
0000
0300
0000
0000
0000
0001
0100
0001
0100
0001
0200
0000
0000
,  // measure 46
0000
0000
0000
0000
0300
0000
0000
0000
0001
0100
0001
0100
0001
0200
0000
0000
,  // measure 47
0000
0000
0000
0000
0300
0000
0000
0000
0001
0100
0001
0100
0001
0100
0010
0000
,  // measure 48
1000
0100
1000
0100
1000
0100
1000
0100
0000
0000
0000
0000
0000
0000
0000
0000
;

//---------------dance-single - ----------------
#NOTEDATA:;
#CHARTNAME:;
#STEPSTYPE:dance-single;
#DESCRIPTION:;
#CHARTSTYLE:;
#DIFFICULTY:Hard;
#METER:10;
#RADARVALUES:0.440584,0.487519,0.305355,0.129776,0.312989,404.000000,364.000000,40.000000,17.000000,0.000000,0.000000,0.000000,0.000000,0.000000,0.440584,0.487519,0.305355,0.129776,0.312989,404.000000,364.000000,40.000000,17.000000,0.000000,0.000000,0.000000,0.000000,0.000000;
#CREDIT:;
#OFFSET:2.400000;
#BPMS:0.000000=100.000000
,45.000000=1600.000000
,46.000000=100.000000
,59.000000=1600.000000
,60.000000=100.000000
,73.000000=1600.000000
,74.000000=100.000000
,135.000000=1600.000000
,136.000000=100.000000
,149.000000=1600.000000
,150.000000=100.000000
,163.000000=1600.000000
,164.000000=100.000000
;
#STOPS:32.000000=1.799999
,45.000000=0.581249
,45.500000=0.581249
,46.000000=0.600001
,59.000000=0.581249
,59.500000=0.581249
,60.000000=0.600001
,73.000000=0.581249
,73.500000=0.581249
,74.000000=0.600001
,135.000000=0.581249
,135.500000=0.581249
,136.000000=0.600001
,149.000000=0.581249
,149.500000=0.581249
,150.000000=0.600001
,163.000000=0.581249
,163.500000=0.581249
,164.000000=0.600001
;
#DELAYS:;
#WARPS:;
#TIMESIGNATURES:0.000000=4=4
;
#TICKCOUNTS:0.000000=4
;
#COMBOS:0.000000=1
;
#SPEEDS:0.000000=1.000000=0.000000=0
;
#SCROLLS:0.000000=1.000000
;
#FAKES:;
#LABELS:0.000000=Song Start
;
#NOTES:
// measure 0
0000
0000
0000
0000
,  // measure 1
0000
0000
0000
0000
,  // measure 2
0000
0000
0000
0000
,  // measure 3
0000
0000
0000
0000
,  // measure 4
0000
0000
0000
0000
,  // measure 5
1000
0000
0001
0000
1000
0000
0010
0100
0010
0000
1000
0000
1000
0000
0001
0000
,  // measure 6
0010
0100
0010
0100
0010
0000
0001
0000
0010
0100
0010
0000
0001
1000
0001
1000
,  // measure 7
0010
0000
0100
0000
0100
0000
0001
1000
0100
0000
0010
0000
0100
0000
0010
0001
,  // measure 8
1000
0000
0010
0000
1001
0000
1000
0000
0010
0000
0100
0000
0000
0010
0000
0010
,  // measure 9
1000
0000
0100
0000
1001
0000
0001
0000
0010
0000
0100
0000
0000
0010
0000
0010
,  // measure 10
0001
0000
0100
0000
1001
0000
1000
0000
0010
0000
0100
0000
0000
0010
0000
0010
,  // measure 11
1000
0100
1100
0101
1100
0000
0011
0100
,  // measure 12
1000
0000
0010
0000
0000
0100
0000
0100
0001
0000
1000
0000
1010
0000
0100
0000
,  // measure 13
0001
0000
0010
0000
0000
0100
0000
0100
1000
0000
0001
0000
1000
0010
1000
0010
,  // measure 14
1000
0000
0010
0000
0000
0100
0000
0100
0001
0000
0010
0000
0011
0000
1010
0000
,  // measure 15
0011
0000
0000
0000
0002
0000
0000
0000
0103
0000
0010
0000
0000
0010
0000
0010
,  // measure 16
1000
0000
0001
0000
1001
0000
1000
0000
0100
0000
0010
0000
0000
0010
0000
0010
,  // measure 17
0200
0000
1000
0000
0320
0000
0001
0000
0130
0000
1000
0000
0000
0010
0000
0010
,  // measure 18
0100
0001
0101
1100
0101
0000
1000
0100
,  // measure 19
1000
0100
0001
0100
0001
0100
0001
0010
,  // measure 20
0001
0000
0010
0000
1000
0000
0010
0000
1000
0000
0010
0000
1000
0100
1000
0000
,  // measure 21
0001
0100
0001
0000
1000
0010
1000
0000
0001
0010
0001
0000
1000
0000
1100
0000
,  // measure 22
0011
0000
0001
1000
0001
0000
0100
0000
0101
0000
1010
0000
0002
0000
0100
0000
,  // measure 23
1003
0000
1000
0000
1000
0000
0002
0100
,  // measure 24
1003
0000
1000
0000
1000
0000
0002
0100
,  // measure 25
1003
0000
1000
0000
1000
0000
0002
0100
,  // measure 26
1003
0000
0010
0000
1000
0000
1000
0000
1000
0000
1001
0000
0001
0010
0100
0000
,  // measure 27
1000
0010
0100
0000
0001
0010
0100
0000
1000
0010
0100
0000
0010
1000
0100
0000
,  // measure 28
0010
0001
0100
0000
0010
1000
0100
0000
0010
0001
0100
0000
0001
0000
0010
0000
,  // measure 29
1000
0100
0001
0010
1000
0100
0002
0000
,  // measure 30
0000
0000
0000
0000
0003
0000
1100
0100
,  // measure 31
1000
0001
0000
0001
1000
0000
0010
1000
0010
0000
0100
0000
0101
0000
0100
0000
,  // measure 32
0001
1000
0000
1000
0001
0000
0010
0001
0200
0000
0310
0000
1010
0000
0001
0000
,  // measure 33
1000
0100
0000
0100
1000
0000
0001
0100
0000
0100
0001
0000
0011
0000
1010
0000
,  // measure 34
0011
0000
0000
0000
0101
0000
0100
0000
0010
1000
0000
1000
0100
0000
0010
0001
,  // measure 35
0100
0000
0001
0000
1001
0000
1000
0000
0010
0100
0000
0100
0001
0000
0010
0100
,  // measure 36
2000
0000
0010
0000
3001
0000
1001
0000
1000
0010
0000
0100
0001
0000
1000
0100
,  // measure 37
0000
0010
0001
0000
1100
0000
0101
0000
1100
0000
0000
0000
0001
0000
0100
0000
,  // measure 38
0001
0010
0010
0001
1000
1000
0001
0100
0100
0010
1000
1000
,  // measure 39
0001
0000
1000
0000
1000
0000
0100
0000
1000
0000
1000
0000
0002
0000
0000
0203
0000
0000
0010
0000
0000
0301
0000
0000
,  // measure 40
0021
0000
0000
0130
0000
0000
1000
0000
0100
0000
0010
0000
0001
0000
0100
0000
0010
0000
1010
0000
0000
0011
0000
0000
,  // measure 41
1010
0000
0001
0100
0001
0100
1000
0100
,  // measure 42
1000
0100
1000
0010
1000
0010
0001
0010
,  // measure 43
0001
0000
0010
0000
0001
0100
0001
0000
1000
0100
1000
0000
0001
0010
0001
0000
,  // measure 44
1000
0010
1000
0000
0001
0000
0101
0000
1010
0000
1000
0001
1000
0000
0100
0000
,  // measure 45
1100
0011
2000
0100
3001
0000
0000
0000
,  // measure 46
0000
0000
2000
0100
3001
0000
0000
0000
,  // measure 47
0000
0000
2000
0100
3001
0000
0000
0000
,  // measure 48
0000
0000
2000
0100
3001
0010
0100
0100
,  // measure 49
0100
0100
0000
0000
0000
0000
0000
0000
;

//---------------dance-single - ----------------
#NOTEDATA:;
#CHARTNAME:;
#STEPSTYPE:dance-single;
#DESCRIPTION:;
#CHARTSTYLE:;
#DIFFICULTY:Medium;
#METER:8;
#RADARVALUES:0.328257,0.444435,0.427497,0.114508,0.103057,301.000000,245.000000,56.000000,15.000000,0.000000,0.000000,0.000000,0.000000,0.000000,0.328257,0.444435,0.427497,0.114508,0.103057,301.000000,245.000000,56.000000,15.000000,0.000000,0.000000,0.000000,0.000000,0.000000;
#CREDIT:;
#OFFSET:2.400000;
#BPMS:0.000000=100.000000
,46.500000=200.000000
,46.541668=100.000000
,47.041668=200.000000
,48.000000=100.000000
,61.500000=200.000000
,61.541668=100.000000
,62.041668=200.000000
,63.000000=100.000000
,76.500000=200.000000
,76.541664=100.000000
,77.041664=200.000000
,78.000000=100.000000
,139.500000=200.000000
,139.541672=100.000000
,140.041672=200.000000
,141.000000=100.000000
,154.500000=200.000000
,154.541672=100.000000
,155.041672=200.000000
,156.000000=100.000000
,169.500000=200.000000
,169.541672=100.000000
,170.041672=200.000000
,171.000000=100.000000
;
#STOPS:32.000000=1.799999
,45.000000=0.299999
,45.500000=0.300001
,46.000000=0.300001
,60.000000=0.299999
,60.500000=0.300001
,61.000000=0.300001
,75.000000=0.299999
,75.500000=0.300001
,76.000000=0.300001
,138.000000=0.299999
,138.500000=0.300001
,139.000000=0.300001
,153.000000=0.299999
,153.500000=0.300001
,154.000000=0.300001
,168.000000=0.299999
,168.500000=0.300001
,169.000000=0.300001
;
#DELAYS:;
#WARPS:;
#TIMESIGNATURES:0.000000=4=4
;
#TICKCOUNTS:0.000000=4
;
#COMBOS:0.000000=1
;
#SPEEDS:0.000000=1.000000=0.000000=0
;
#SCROLLS:0.000000=1.000000
,46.500000=0.500000
,46.541668=1.000000
,47.020832=0.500000
,48.000000=1.000000
,61.500000=0.500000
,61.541668=1.000000
,62.020832=0.500000
,63.000000=1.000000
,76.500000=0.500000
,76.541664=1.000000
,77.020836=0.500000
,78.000000=1.000000
,139.500000=0.500000
,139.541672=1.000000
,140.020828=0.500000
,141.000000=1.000000
,154.500000=0.500000
,154.541672=1.000000
,155.020828=0.500000
,156.000000=1.000000
,169.500000=0.500000
,169.541672=1.000000
,170.020828=0.500000
,171.000000=1.000000
;
#FAKES:;
#LABELS:0.000000=Song Start
;
#NOTES:
// measure 0
0000
0000
0000
0000
,  // measure 1
0000
0000
0000
0000
,  // measure 2
0000
0000
0000
0000
,  // measure 3
0000
0000
0000
0000
,  // measure 4
0000
0000
0000
0000
,  // measure 5
1000
0100
0010
0000
0001
0100
0010
0000
,  // measure 6
1000
0001
0010
0000
0001
1000
0010
0000
,  // measure 7
0220
0000
0000
0000
,  // measure 8
0330
0000
0000
0000
1001
0000
0000
0000
1000
0000
0100
0000
0000
1000
0000
0000
,  // measure 9
0100
0000
0000
0000
1001
0000
0000
0000
0001
0000
0100
0000
0000
0001
0000
0000
,  // measure 10
0100
0000
0000
0000
1001
0000
0000
0000
1000
0000
0100
0000
0000
1000
0000
0000
,  // measure 11
0100
0000
0000
0000
0000
0000
0000
0000
0000
0000
0000
0000
0000
0000
0000
0000
0000
0000
0000
0000
0000
0000
0000
0000
0000
0000
0000
0000
0000
0000
0000
0000
0000
0000
0000
0000
0000
0000
0000
0000
0000
0000
0000
0000
0000
0000
0000
0000
1001
0000
0000
0000
0000
0000
0000
0000
0000
0000
0000
0000
0000
0000
0000
0000
0000
0000
0000
0000
0000
0000
0000
0000
1001
0000
0000
0000
0000
0000
0000
0000
0000
0000
0000
0000
0000
0000
0000
0000
0000
0000
0000
0000
0000
0000
0000
0000
1001
0000
0000
0000
0000
0000
0000
0000
0000
0000
0000
0000
0000
0000
0000
0000
0000
0000
0000
0000
0000
0000
0000
0000
0010
0000
0000
0000
0000
0000
0000
0000
0000
0000
0000
0000
0000
0000
0000
0000
0000
0000
0000
0000
0000
0000
0000
0000
0000
0010
0000
0000
0000
0000
0000
0000
0000
0000
0000
0000
0000
0000
0000
0000
0000
0000
0000
0000
0000
0000
0000
0000
0000
0000
0000
0000
0000
0000
0000
0000
0000
0000
0000
0000
0000
0000
0000
0000
0000
0000
0000
0000
0000
0000
0000
0000
,  // measure 12
1001
0000
0000
0000
0001
0000
0010
0000
0000
0001
0000
0000
0100
0000
0000
0000
,  // measure 13
1001
0000
0000
0000
1000
0000
0010
0000
0000
1000
0000
0000
0100
0000
0000
0000
,  // measure 14
1001
0000
1000
0000
0001
0000
0010
0000
0000
0001
0000
0000
0100
0000
0000
0000
,  // measure 15
1001
0000
0000
0000
0000
0000
0000
0000
0000
0000
0000
0000
0000
0000
0000
0000
0000
0000
0000
0000
0000
0000
0000
0000
1001
0000
0000
0000
0000
0000
0000
0000
0000
0000
0000
0000
0000
0000
0000
0000
0000
0000
0000
0000
0000
0000
0000
0000
1001
0000
0000
0000
0000
0000
0000
0000
0000
0000
0000
0000
0000
0000
0000
0000
0000
0000
0000
0000
0000
0000
0000
0000
0100
0000
0000
0000
0000
0000
0000
0000
0000
0000
0000
0000
0000
0000
0000
0000
0000
0000
0000
0000
0000
0000
0000
0000
0000
0100
0000
0000
0000
0000
0000
0000
0000
0000
0000
0000
0000
0000
0000
0000
0000
0000
0000
0000
0000
0000
0000
0000
0000
0000
0000
0000
0000
0000
0000
0000
0000
0000
0000
0000
0000
0000
0000
0000
0000
0000
0000
0000
0000
0000
0000
0000
2000
0000
0000
0000
0000
0000
0000
0000
0000
0000
0000
0000
0000
0000
0000
0000
0000
0000
0000
0000
0000
0000
0000
0000
0000
0000
0000
0000
0000
0000
0000
0000
0000
0000
0000
0000
0000
0000
0000
0000
0000
0000
0000
0000
0000
0000
0000
0000
,  // measure 16
3001
0000
0010
0000
0000
0100
0000
0000
1000
0000
0000
0000
1001
0000
0000
0000
,  // measure 17
1000
0000
0010
0000
0000
1000
0000
0000
0200
0000
0000
0000
0302
0000
0000
0000
,  // measure 18
0103
0000
0010
0000
0000
0100
0000
0000
1000
0000
0000
0000
1001
0000
1001
0000
,  // measure 19
1001
0000
0000
0000
0000
0000
0000
0000
0000
0000
0000
0000
0000
0000
0000
0000
0000
0000
0000
0000
0000
0000
0000
0000
0010
0000
0000
0000
0000
0000
0000
0000
0000
0000
0000
0000
0000
0000
0000
0000
0000
0000
0000
0000
0000
0000
0000
0000
0000
0010
0000
0000
0000
0000
0000
0000
0000
0000
0000
0000
0000
0000
0000
0000
0000
0000
0000
0000
0000
0000
0000
0000
0000
0000
0000
0000
0000
0000
0000
0000
0000
0000
0000
0000
0000
0000
0000
0000
0000
0000
0000
0000
0000
0000
0000
0000
1000
0000
0000
0000
0000
0000
0000
0000
0000
0000
0000
0000
0000
0000
0000
0000
0000
0000
0000
0000
0000
0000
0000
0000
1000
0000
0000
0000
0000
0000
0000
0000
0000
0000
0000
0000
0000
0000
0000
0000
0000
0000
0000
0000
0000
0000
0000
0000
0100
0000
0000
0000
0000
0000
0000
0000
0000
0000
0000
0000
0000
0000
0000
0000
0000
0000
0000
0000
0000
0000
0000
0000
0000
0000
0000
0000
0000
0000
0000
0000
0000
0000
0000
0000
0000
0000
0000
0000
0000
0000
0000
0000
0000
0000
0000
0000
,  // measure 20
0001
0001
0010
0000
1000
1000
0100
0000
,  // measure 21
0001
0001
0010
0000
1000
0100
0001
0010
,  // measure 22
1000
0100
0001
0010
1000
0001
0001
1000
,  // measure 23
0001
1000
1000
1000
0200
0000
0310
0000
,  // measure 24
0001
0001
0200
0310
,  // measure 25
1000
1000
0200
0310
,  // measure 26
0001
0001
0200
0310
,  // measure 27
1000
1000
1000
0000
0001
0010
1000
0000
,  // measure 28
1000
0100
0001
0000
1000
0100
0001
0000
,  // measure 29
0001
0010
1000
0000
2010
0000
0001
0000
,  // measure 30
0001
0001
0002
0000
,  // measure 31
0000
0000
0000
0000
3000
0000
0000
0000
1003
0000
1010
0000
0000
1010
0000
0000
,  // measure 32
1010
0000
0000
1010
0000
0000
0100
0000
0001
0000
0011
0000
0000
0011
0000
0000
,  // measure 33
0011
0000
0000
0011
0000
0000
0100
0000
1000
0000
1001
0000
0000
1001
0000
0000
,  // measure 34
1001
0000
0000
1001
0000
0000
0100
0000
1001
0000
1001
0000
1001
0000
0010
0000
,  // measure 35
0000
0010
0000
0000
0000
0000
0000
0000
0000
0000
0000
0000
0000
0000
0000
0000
0000
0000
0000
0000
0000
0000
0000
0000
0000
0000
0000
0000
0000
0000
0000
0000
0000
0000
0000
0000
0000
0000
0000
0000
0000
0000
0000
0000
0000
0000
0000
0000
0010
0000
0000
0000
0000
0000
0000
0000
0000
0000
0000
0000
0000
0000
0000
0000
0000
0000
0000
0000
0000
0000
0000
0000
1010
0000
0000
0000
0000
0000
0000
0000
0000
0000
0000
0000
0000
0000
0000
0000
0000
0000
0000
0000
0000
0000
0000
0000
0000
0000
0000
0000
0000
0000
0000
0000
0000
0000
0000
0000
0011
0000
0000
0000
0000
0000
0000
0000
0000
0000
0000
0000
0000
0000
0000
0000
0000
0000
0000
0000
0000
0000
0000
0000
0000
0000
0000
0000
0000
0000
0000
0000
0000
0000
0000
0000
1010
0000
0000
0000
0000
0000
0000
0000
0000
0000
0000
0000
0000
0000
0000
0000
0000
0000
0000
0000
0000
0000
0000
0000
0000
0000
0000
0000
0000
0000
0000
0000
0000
0000
0000
0000
0011
0000
0000
0000
0000
0000
0000
0000
0000
0000
0000
0000
,  // measure 36
0000
0000
0001
0000
0001
0000
0101
0000
0000
1100
0000
0000
0101
0000
0000
1100
,  // measure 37
0000
0000
1000
0000
1000
0000
1010
0000
0000
1001
0000
0000
0011
0000
0000
1001
,  // measure 38
0000
0000
0000
0000
0000
0000
0000
0000
0000
0000
0000
0000
0000
0000
0000
0000
0000
0000
0000
0000
0000
0000
0000
0000
0010
0000
0000
0000
0000
0000
0000
0000
0000
0000
0000
0000
0000
0000
0000
0000
0000
0000
0000
0000
0000
0000
0000
0000
1001
0000
0000
0000
0000
0000
0000
0000
0000
0000
0000
0000
0000
0000
0000
0000
0000
0000
0000
0000
0000
0000
0000
0000
1001
0000
0000
0000
0000
0000
0000
0000
0000
0000
0000
0000
0000
0000
0000
0000
0000
0000
0000
0000
0000
0000
0000
0000
1001
0000
0000
0000
0000
0000
0000
0000
0000
0000
0000
0000
0000
0000
0000
0000
0000
0000
0000
0000
0000
0000
0000
0000
0100
0000
0000
0000
0000
0000
0000
0000
0000
0000
0000
0000
0000
0000
0000
0000
0000
0000
0000
0000
0000
0000
0000
0000
0000
0100
0000
0000
0000
0000
0000
0000
0000
0000
0000
0000
0000
0000
0000
0000
0000
0000
0000
0000
0000
0000
0000
0000
0000
0000
0000
0000
0000
0000
0000
0000
0000
0000
0000
0000
0000
0000
0000
0000
0000
0000
0000
0000
0000
0000
0000
0000
,  // measure 39
1001
0000
1000
0000
0010
1001
0010
0000
,  // measure 40
1001
0000
0010
0001
0100
0001
0010
0010
,  // measure 41
0010
0000
1001
0000
0010
1001
0010
1000
,  // measure 42
1001
0000
0000
0000
0000
0000
0000
0000
0000
0000
0000
0000
0000
0000
0000
0000
0000
0000
0000
0000
0000
0000
0000
0000
1001
0000
0000
0000
0000
0000
0000
0000
0000
0000
0000
0000
0000
0000
0000
0000
0000
0000
0000
0000
0000
0000
0000
0000
1001
0000
0000
0000
0000
0000
0000
0000
0000
0000
0000
0000
0000
0000
0000
0000
0000
0000
0000
0000
0000
0000
0000
0000
0010
0000
0000
0000
0000
0000
0000
0000
0000
0000
0000
0000
0000
0000
0000
0000
0000
0000
0000
0000
0000
0000
0000
0000
0000
0010
0000
0000
0000
0000
0000
0000
0000
0000
0000
0000
0000
0000
0000
0000
0000
0000
0000
0000
0000
0000
0000
0000
0000
0000
0000
0000
0000
0000
0000
0000
0000
0000
0000
0000
0000
0000
0000
0000
0000
0000
0000
0000
0000
0000
0000
0000
0001
0000
0000
0000
0000
0000
0000
0000
0000
0000
0000
0000
0000
0000
0000
0000
0000
0000
0000
0000
0000
0000
0000
0000
0001
0000
0000
0000
0000
0000
0000
0000
0000
0000
0000
0000
0000
0000
0000
0000
0000
0000
0000
0000
0000
0000
0000
0000
,  // measure 43
0100
0000
1000
1000
0010
0000
0001
0001
,  // measure 44
0100
0000
1000
1000
0010
0000
0001
0100
,  // measure 45
1000
0010
0001
0100
1000
0010
0001
1000
,  // measure 46
1000
0001
1000
0001
0001
0001
0020
0000
,  // measure 47
0130
0000
0000
0020
,  // measure 48
0130
0000
0000
0020
,  // measure 49
0130
0000
0000
0020
,  // measure 50
0130
0000
0010
0010
0010
0010
0000
0000
;

//---------------dance-single - ----------------
#NOTEDATA:;
#CHARTNAME:;
#STEPSTYPE:dance-single;
#DESCRIPTION:;
#CHARTSTYLE:;
#DIFFICULTY:Easy;
#METER:5;
#RADARVALUES:0.266095,0.337417,0.396962,0.083973,0.000000,244.000000,192.000000,52.000000,11.000000,0.000000,0.000000,0.000000,0.000000,0.000000,0.266095,0.337417,0.396962,0.083973,0.000000,244.000000,192.000000,52.000000,11.000000,0.000000,0.000000,0.000000,0.000000,0.000000;
#CREDIT:;
#OFFSET:2.400000;
#BPMS:0.000000=100.000000
;
#STOPS:32.000000=1.799999
;
#DELAYS:;
#WARPS:;
#TIMESIGNATURES:0.000000=4=4
;
#TICKCOUNTS:0.000000=4
;
#COMBOS:0.000000=1
;
#SPEEDS:0.000000=1.000000=0.000000=0
;
#SCROLLS:0.000000=1.000000
;
#FAKES:;
#LABELS:0.000000=Song Start
;
#NOTES:
// measure 0
0000
0000
0000
0000
,  // measure 1
0000
0000
0000
0000
,  // measure 2
0000
0000
0000
0000
,  // measure 3
0000
0000
0000
0000
,  // measure 4
0000
0000
0000
0000
,  // measure 5
1000
0010
1000
0010
,  // measure 6
0001
0010
0001
0010
,  // measure 7
2000
0001
0001
0001
,  // measure 8
3001
0000
1001
0000
1000
0100
1000
0000
,  // measure 9
0100
0000
1001
0000
0001
0100
0001
0000
,  // measure 10
0100
0000
1001
0000
1000
0100
1000
0000
,  // measure 11
0100
1001
1001
1001
,  // measure 12
0010
0000
1001
0000
0001
0010
0001
0000
,  // measure 13
0100
0000
1001
0000
1000
0010
1000
0000
,  // measure 14
0100
0000
1001
0000
0001
0010
0001
0000
,  // measure 15
0100
1001
1001
1001
,  // measure 16
0010
0000
1001
0000
1000
0010
0100
0000
,  // measure 17
0001
0000
0101
0000
0001
0010
0100
0000
,  // measure 18
1000
0000
1100
0000
1000
0010
0100
0000
,  // measure 19
0001
1001
1001
1001
,  // measure 20
0010
1000
1000
0100
,  // measure 21
0100
0001
0001
0010
,  // measure 22
0010
1000
0100
0001
,  // measure 23
0010
0000
1010
0000
1010
0000
0001
1000
,  // measure 24
0100
2000
3001
0000
,  // measure 25
0000
2000
3001
0000
,  // measure 26
0000
2000
3001
0000
,  // measure 27
0000
2000
3001
0100
,  // measure 28
0010
1010
1010
0101
,  // measure 29
0101
0011
0011
1100
,  // measure 30
1100
0002
1000
1000
,  // measure 31
1000
2000
0000
0000
,  // measure 32
3003
0000
0001
0100
0001
0000
0110
0000
,  // measure 33
0101
0000
0100
0010
0100
0000
1010
0000
,  // measure 34
0110
0000
0010
1000
0010
0000
0011
0000
,  // measure 35
1010
1001
1001
1001
,  // measure 36
0010
0000
1000
0100
0010
0000
1100
0000
,  // measure 37
0011
0000
0001
0100
0010
0000
0101
0000
,  // measure 38
1010
0000
1000
0001
0010
0000
1100
0000
,  // measure 39
0011
1001
1001
1001
,  // measure 40
0010
1001
0001
0100
,  // measure 41
1000
0001
0010
1000
,  // measure 42
0100
0010
0100
0000
0010
0000
0001
0000
,  // measure 43
0100
1001
1001
1001
,  // measure 44
0010
0001
0001
0100
,  // measure 45
0100
1000
1000
0010
,  // measure 46
0010
0001
0100
1000
,  // measure 47
0010
0000
0011
0000
0011
0000
1000
0001
,  // measure 48
0100
0002
1003
0000
,  // measure 49
0000
0002
1003
0000
,  // measure 50
0000
0002
1003
0000
,  // measure 51
0000
0002
1003
0010
,  // measure 52
0010
0000
0000
0000
;

//---------------dance-single - ----------------
#NOTEDATA:;
#CHARTNAME:;
#STEPSTYPE:dance-single;
#DESCRIPTION:;
#CHARTSTYLE:;
#DIFFICULTY:Beginner;
#METER:2;
#RADARVALUES:0.130866,0.199435,0.137410,0.076339,0.000000,120.000000,102.000000,18.000000,10.000000,0.000000,0.000000,0.000000,0.000000,0.000000,0.130866,0.199435,0.137410,0.076339,0.000000,120.000000,102.000000,18.000000,10.000000,0.000000,0.000000,0.000000,0.000000,0.000000;
#CREDIT:;
#NOTES:
0000
0000
0000
0000
,
0000
0000
0000
0000
,
0000
0000
0000
0000
,
0000
0000
0000
0000
,
0000
0000
0000
0000
,
1000
1000
1000
0000
,
0001
0001
0001
0000
,
0020
0000
0000
0000
,
0030
0000
0000
0000
,
0001
0000
0100
0000
,
0001
0000
0100
0000
,
0001
0000
0100
0000
,
1001
1001
1001
0000
,
1000
0000
0100
0000
,
1000
0000
0100
0000
,
1000
0000
0100
0000
,
1001
1001
1001
0000
,
0001
0000
0010
0000
,
0001
0000
1000
0000
,
0010
0000
1000
0000
,
1001
1001
1001
0000
,
1000
0000
0001
0000
,
1000
0000
0001
0000
,
1000
0001
1000
0001
,
1000
0000
0000
0000
,
0200
0300
0000
0000
,
0200
0300
0000
0000
,
0200
0300
0000
0000
,
0200
0300
0000
0000
,
0010
0010
0010
0010
,
0010
0010
0010
0010
,
0020
0000
0000
0000
,
0000
0000
0000
0030
,
0001
1000
0001
0000
,
1000
0001
1000
0000
,
0001
1000
0001
0000
,
1001
1001
1001
0000
,
0010
0100
0010
0000
,
0100
0010
0100
0000
,
0010
0100
0010
0000
,
1001
1001
1001
0000
,
1000
0000
0010
0000
,
0001
0000
0100
0000
,
1000
0000
0010
0000
,
1001
1001
1001
0000
,
0001
0000
1000
0000
,
0001
0000
1000
0000
,
0001
1000
0001
1000
,
0001
0000
0000
0000
,
0020
0030
0000
0000
,
0020
0030
0000
0000
,
0020
0030
0000
0000
,
0020
0030
0000
0000
;
