#VERSION:0.83;
#TITLE:Mor Ardain;
#SUBTITLE:-Roaming the Wastes-;
#ARTIST:Kenji Hiramatsu;
#TITLETRANSLIT:;
#SUBTITLETRANSLIT:;
#ARTISTTRANSLIT:;
#GENRE:Soundtrack;
#ORIGIN:;
#CREDIT:;
#BANNER:Mor Ardain -Roaming the Wastes-.png;
#BACKGROUND:Mor Ardain -Roaming the Wastes--bg.png;
#PREVIEWVID:;
#JACKET:Mor Ardain -Roaming the Wastes--jacket.png;
#CDIMAGE:;
#DISCIMAGE:;
#LYRICSPATH:;
#CDTITLE:cdtitle.png;
#MUSIC:Mor Ardain -Roaming the Wastes-.ogg;
#OFFSET:0.819803;
#SAMPLESTART:41.374317;
#SAMPLELENGTH:15.609756;
#SELECTABLE:YES;
#BPMS:0.000=123.000;
#STOPS:;
#DELAYS:;
#WARPS:;
#TIMESIGNATURES:0.000=4=4;
#TICKCOUNTS:0.000=4;
#COMBOS:0.000=1;
#SPEEDS:0.000=1.000=0.000=0;
#SCROLLS:0.000=1.000;
#FAKES:;
#LABELS:0.000=Song Start;
#BGCHANGES:;
#KEYSOUNDS:;
#ATTACKS:
;

//---------------dance-single - ----------------
#NOTEDATA:;
#CHARTNAME:;
#STEPSTYPE:dance-single;
#DESCRIPTION:;
#CHARTSTYLE:;
#DIFFICULTY:Challenge;
#METER:13;
#RADARVALUES:0.572816,0.819005,0.705771,0.442076,0.527389,517.000000,426.000000,91.000000,57.000000,0.000000,0.000000,0.000000,0.000000,0.000000,0.572816,0.819005,0.705771,0.442076,0.527389,517.000000,426.000000,91.000000,57.000000,0.000000,0.000000,0.000000,0.000000,0.000000;
#CREDIT:;
#NOTES:
0000
0000
0000
0000
,
0000
0000
0000
0000
,
0000
0000
0000
0000
,
0000
0000
0000
0000
,
0000
0000
0000
0000
0000
0000
0000
0000
0000
0000
0100
0000
0001
0100
0001
0000
,
1010
0000
0000
0012
0000
0000
0000
0000
1000
0000
0000
0000
1003
0000
0001
0100
,
0002
0003
0202
0303
2200
3300
2020
3030
,
0011
0000
0100
0010
0000
1100
0000
2001
0000
0000
3010
0000
1000
0010
1000
0000
,
1010
0000
0100
0010
0000
0101
0000
2001
0000
0000
3100
0000
1000
0000
0100
0000
,
0011
0000
0000
2010
0000
0000
0000
0000
0001
0000
0000
0000
3001
0000
1000
0100
,
2000
3000
2200
3300
0202
0303
0022
0033
,
1010
0000
0100
0001
0000
0110
0000
2001
0000
0000
3010
0000
1000
0010
1000
0001
,
0010
0000
0000
1100
0000
0000
0000
0000
0000
1001
0000
1000
0010
0100
0001
1000
,
0100
0000
0000
0000
1100
0000
0000
1000
0100
0000
1000
0000
0010
0000
0100
0000
,
0001
0000
0000
0000
0101
0000
0000
0001
0100
0000
0010
0000
1000
0000
0001
0000
,
0010
0000
0000
0000
0110
0000
0000
0010
0001
0000
1000
0000
0010
0000
0001
0000
,
0020
0000
0000
2030
0000
0000
3002
0000
0023
0000
0000
2030
0000
0000
3020
0000
,
0032
0000
0000
0000
1003
0000
0000
1000
0001
0000
0100
0000
0001
0000
1000
0000
,
2100
0000
0000
3010
0000
0000
0102
0000
0000
0000
0013
0000
0100
0000
0010
0000
,
0011
1001
1010
1001
,
0021
0100
0100
0130
,
0010
0001
0000
1001
0000
1000
0001
1000
0010
0000
0100
0000
0001
0100
0001
0100
,
0010
0000
0000
0101
0000
0000
2001
0000
0000
0000
3100
0000
1000
0000
0100
0000
,
0110
0000
0000
1100
0000
0000
1002
0000
0000
0000
0103
0000
0010
0000
1000
0000
,
1010
0000
0000
1001
0000
0000
0021
0000
0000
0000
0130
0000
1000
0000
0010
0000
,
0002
0000
0013
1000
0100
0000
0110
0000
,
0010
0001
0000
0001
0000
0001
0000
0010
0001
0000
0100
0000
1000
0000
0001
0000
,
0010
1000
0000
1000
0000
1000
0000
0010
1000
0000
0100
0000
0001
0000
0100
0000
,
1000
0000
0010
0000
1010
0000
0100
0001
0000
0001
0010
0000
0011
0000
0100
0000
,
1000
0000
0001
0000
0101
0000
0010
2000
0000
0000
3001
0000
1000
0000
0100
0000
,
0110
0000
0000
0011
0000
0000
2100
0000
0000
0000
3001
0000
0100
0000
0010
0100
,
0010
0000
0000
1010
0000
0000
0102
0000
0000
0000
1003
0000
0100
0000
0010
0001
,
0010
0000
0000
1100
0000
0000
0201
0000
0000
0000
0301
0000
0100
0000
0010
1000
,
0020
0000
1030
0100
0110
0000
0011
0000
,
1000
0010
0000
1000
0000
0010
0000
1000
0100
0000
0001
0000
1000
0000
0010
0000
,
0001
0010
0000
0001
0000
0010
0000
0001
0100
0000
1000
0000
0100
0000
0001
0000
,
1000
0010
1000
0000
1000
0000
0001
0010
0001
0000
0001
0000
1000
0010
1000
0000
,
0101
0000
0000
0000
0000
0000
0000
0000
0001
0100
0001
0000
1000
0100
1000
0000
,
0100
0000
0000
0000
0000
0000
0000
0000
0000
0000
0000
0000
0000
0000
0000
0000
0000
0000
0200
0000
0000
0000
0000
0000
0000
0000
0000
0320
0000
0000
0000
0000
0000
0000
0000
0000
0000
0000
0000
0000
0130
0000
0000
0000
1000
0000
0000
0000
,
0002
0000
0000
0000
0000
0000
0203
0000
0000
0000
0000
0000
0320
0000
0000
1030
,
0002
0000
0000
1000
0000
0000
1003
0001
,
0010
0000
0000
0000
0001
0000
2000
0000
3020
0000
0000
2030
0000
0000
3200
0000
,
0310
0100
0010
0100
1000
0001
1000
0001
0010
0100
0010
0100
1000
0001
1000
0001
,
0100
0001
0100
0001
1000
0001
1000
0001
1000
0100
1000
0100
0010
0001
0010
0001
,
1000
0001
1000
0001
0100
0010
0100
0010
1000
0001
1000
0001
0010
0100
0010
0100
,
1000
0010
1000
0010
0100
0001
0100
0001
1000
0100
0010
0001
1000
0000
0000
0000
,
2002
0000
0000
3003
,
1000
0010
0000
0101
0000
1001
0000
1100
0000
0000
1000
0000
0100
0000
1000
0000
,
0012
0000
0000
0100
0000
0000
1000
0000
0000
0000
0103
0000
0001
0000
0100
0000
,
2010
0000
0000
0100
0000
0000
0001
0000
0000
0000
3100
0000
1000
0000
0100
0000
,
0012
0000
0000
0100
0000
0000
1000
0000
0000
0000
1003
0000
0010
0000
0100
0000
,
0102
0000
0013
0100
1100
0000
0101
0000
,
0001
0010
0000
0001
0000
0010
0000
0001
0100
0000
1000
0000
0001
0000
0010
0000
,
1000
0010
0000
1000
0000
0010
0000
1000
0100
0000
0001
0000
0100
0000
1000
0000
,
0001
0010
0001
0000
0001
0000
1000
0010
1000
0000
1000
0000
0001
0010
0001
0000
,
1100
0000
0000
0000
0000
0000
0000
0000
0000
0000
0000
0000
0001
0010
0001
0010
,
0001
0000
0000
1001
0000
0000
0101
0000
1010
0000
0000
1001
0000
0000
1100
0000
,
0011
0000
0000
1001
0000
0000
0101
0000
0110
0000
0110
0000
0010
1000
0000
0000
,
1010
0000
0000
0011
0000
0000
0101
0000
0011
0000
0000
1010
0000
0000
1100
0000
,
1010
0000
0000
0011
0000
0000
0101
0000
1001
0000
1001
0000
1000
0100
0000
0000
,
0120
0000
0100
0100
0100
0100
0100
0130
,
0010
0001
0000
1001
0000
1001
0000
1000
0010
0000
0000
0000
0110
0000
0000
0202
,
0000
0000
0000
0000
,
0000
0000
0000
0000
,
0303
0000
0000
0000
;

//---------------dance-single - ----------------
#NOTEDATA:;
#CHARTNAME:;
#STEPSTYPE:dance-single;
#DESCRIPTION:;
#CHARTSTYLE:;
#DIFFICULTY:Hard;
#METER:10;
#RADARVALUES:0.421025,0.496366,0.473099,0.302473,0.271450,380.000000,319.000000,61.000000,39.000000,0.000000,0.000000,0.000000,0.000000,0.000000,0.421025,0.496366,0.473099,0.302473,0.271450,380.000000,319.000000,61.000000,39.000000,0.000000,0.000000,0.000000,0.000000,0.000000;
#CREDIT:;
#NOTES:
0000
0000
0000
0000
,
0000
0000
0000
0000
,
0000
0000
0000
0000
,
0000
0000
0000
0000
,
0000
0000
0000
0000
0000
0001
0100
0001
,
0011
0000
0000
2010
0000
0000
0000
0000
0001
0000
0000
0000
3001
0000
1000
0000
,
0100
1100
1001
1010
,
0101
0000
0000
0001
0000
0100
0000
0002
0000
0000
1000
0000
1003
0000
0000
0000
,
1100
0000
0000
1000
0000
0100
0000
2000
0000
0000
3001
0000
1000
0000
0010
0000
,
1010
0000
0000
0012
0000
0000
0000
0000
1000
0000
0000
0000
1003
0000
0001
0000
,
0100
0101
1001
0011
,
1100
0000
0000
1000
0000
0010
0000
2000
0000
0000
0000
0000
3001
0000
0010
0000
,
0001
0000
0000
0101
0000
0000
0000
0000
1000
0000
0000
0010
0000
0000
0100
0000
,
0001
0000
0101
0000
0001
0100
0010
1000
,
0001
0011
1000
1010
,
0001
0000
1001
0000
1000
0100
0001
0100
,
2000
0000
0000
3020
0000
0000
0230
0000
0302
0000
0000
0023
0000
0000
0230
0000
,
2300
0000
3001
0000
1000
0010
0100
0001
,
1001
0000
0000
0010
0000
0000
2002
0000
0000
0000
0000
0000
3003
0000
1000
0000
,
1001
1010
1001
0011
,
2001
0001
0001
3001
,
1000
0001
0000
1000
0000
1000
0000
0001
1000
0000
0000
0000
0001
0000
0010
0000
,
0001
0000
0000
1001
0000
0000
0201
0000
0000
0000
0310
0000
1000
0000
0010
0000
,
1000
0000
0000
1001
0000
0000
1200
0000
0000
0000
0310
0000
0001
0000
0010
0000
,
0001
0000
0000
1100
0000
0000
0102
0000
0000
0000
1003
0000
0010
0000
0100
0000
,
0002
0000
0013
0100
1000
0000
1100
0000
,
1000
0000
0000
0010
0000
0010
0000
1000
0010
0000
0100
0000
0001
0000
0010
0000
,
0001
0000
0000
0010
0000
0010
0000
0001
0010
0000
0100
0000
1000
0000
0010
0000
,
1000
0000
0000
0000
0010
0000
0000
0001
0000
0000
0010
0000
1000
0000
0000
0000
,
0001
0000
0010
0000
1000
0000
0000
0010
0000
0000
0001
0000
0100
0000
0010
0000
,
1010
0000
0000
0110
0000
0000
0102
0000
0000
0000
1003
0000
0100
0000
0010
0000
,
0011
0000
0000
0110
0000
0000
2100
0000
0000
0000
3001
0000
0100
0000
0010
0000
,
1010
0000
0000
0011
0000
0000
2010
0000
0000
0000
3001
0000
0100
0000
0001
0000
,
2001
0000
3100
0010
0011
0000
1100
0000
,
0001
0000
0000
0001
0000
0010
0000
0001
0010
0000
0100
0000
0010
0000
0001
0000
,
1000
0000
0000
1000
0000
0010
0000
1000
0010
0000
0100
0000
0001
0000
0010
0000
,
0100
1000
0000
0000
0000
0000
0100
1000
0000
0000
0000
0000
0100
1000
0000
0000
,
1100
0000
0000
0000
0100
1000
0010
0100
,
0102
0000
0000
0100
0000
0000
1000
0000
,
0023
0000
0000
0001
0000
0000
0001
0000
,
0230
0000
0000
0010
0000
0000
0310
0100
,
1000
0000
0000
0000
0010
0000
0100
0000
0001
0000
0000
0100
0000
0000
0001
0000
,
1000
0100
1000
0100
0010
0001
0010
0001
,
0100
0001
0100
0001
1000
0010
1000
0010
,
1000
0100
1000
0100
0001
0100
0001
0100
,
1000
0010
0001
0010
1000
0100
0010
0000
,
2002
0000
0000
3003
,
1000
0001
0000
1000
0000
1000
0000
0001
0000
0000
1000
0000
0100
0000
0010
0000
,
0022
0000
0000
0033
,
2002
0000
0000
3003
,
2020
0000
0000
3030
,
0220
0330
1000
0001
,
1000
0000
0000
1000
0000
0010
0000
1000
0010
0000
0100
0000
0010
0000
1000
0000
,
0001
0000
0000
0001
0000
0010
0000
0001
0010
0000
0100
0000
1000
0000
0010
0000
,
0100
0001
0000
0000
0000
0000
0100
0001
0000
0000
0000
0000
0100
0001
0000
0000
,
0101
0000
0000
0000
0000
0000
1000
0100
,
0011
0000
0000
0001
0000
0000
1000
0000
1010
0000
0000
1000
0000
0000
0001
0000
,
0011
0000
0000
0001
0000
0000
1000
0000
0010
0000
0010
0000
0100
0001
0000
0000
,
0101
0000
0000
0001
0000
0000
1000
0000
1100
0000
0000
1000
0000
0000
0001
0000
,
0101
0000
0000
0001
0000
0000
1000
0000
0100
0000
0100
0000
0010
0100
0000
0000
,
1002
1000
1000
1003
,
0001
1000
0000
0001
0000
0001
0000
1000
0001
0000
0000
0000
0101
0000
0000
2020
,
0000
0000
0000
0000
,
0000
0000
0000
0000
,
3030
0000
0000
0000
;

//---------------dance-single - ----------------
#NOTEDATA:;
#CHARTNAME:;
#STEPSTYPE:dance-single;
#DESCRIPTION:;
#CHARTSTYLE:;
#DIFFICULTY:Medium;
#METER:8;
#RADARVALUES:0.305797,0.347457,0.263695,0.457588,0.096947,276.000000,242.000000,34.000000,59.000000,0.000000,0.000000,0.000000,0.000000,0.000000,0.305797,0.347457,0.263695,0.457588,0.096947,276.000000,242.000000,34.000000,59.000000,0.000000,0.000000,0.000000,0.000000,0.000000;
#CREDIT:;
#NOTES:
0000
0000
0000
0000
,
0000
0000
0000
0000
,
0000
0000
0000
0000
,
0000
0000
0000
0000
,
0000
0000
0000
0000
0000
1000
0100
0000
,
0011
0000
0000
0022
0000
0000
0000
0000
0000
0000
0033
0000
0000
0000
0001
0000
,
0200
2300
3200
0302
,
0013
0000
0000
0100
0000
0000
0000
0210
0000
0000
0000
0000
1300
0000
0000
0000
,
0010
0000
0000
0100
0000
0000
0000
0210
0000
0000
0301
0000
0100
0000
0000
0000
,
1010
0000
0000
2020
0000
0000
0000
0000
0000
0000
3030
0000
0000
0000
1000
0000
,
0200
0302
0203
2300
,
3010
0000
0000
1001
0000
0000
0000
2001
0000
0000
0000
0000
3001
0000
0000
0000
,
0011
0000
0000
1100
0000
0000
0000
0000
1000
0000
0000
0000
0001
0000
1000
0000
,
0002
0000
0100
0000
0103
0001
0100
0010
,
1000
0100
0010
0100
,
2000
0000
0100
0000
3100
1000
0100
0010
,
0002
0000
0103
0010
2000
0000
3100
0010
,
0002
0000
1000
0000
1003
0010
0100
0001
,
1000
0000
0000
1000
0000
0000
2000
0000
0000
0000
0000
0000
3000
0000
0001
0000
,
2000
3200
0302
0023
,
2030
0100
0100
3100
,
2002
0000
3003
1001
,
0001
0000
0000
0001
0000
0000
0002
0000
0000
0000
0103
0000
0010
0000
0000
0000
,
1000
0000
0000
1000
0000
0000
2000
0000
0000
0000
3100
0000
0010
0000
0000
0000
,
0001
0000
0000
0001
0000
0000
0002
0000
0000
0000
1003
0000
0010
0000
1000
0000
,
0020
0000
1030
0001
0020
0000
0032
0000
,
0103
0000
0100
0000
0001
0100
1000
0100
,
0001
0000
0001
0000
0100
1000
0100
0001
,
1000
0000
0010
0000
0100
0001
0010
0000
,
0100
1000
0010
0000
1000
0000
0001
0000
,
1000
0000
0000
0100
0000
0000
2000
0000
0000
0000
3010
0000
1000
0000
0000
0000
,
0001
0000
0000
0100
0000
0000
0002
0000
0000
0000
0013
0000
0001
0000
0000
0000
,
1000
0000
0000
0100
0000
0000
2000
0000
0000
0000
3001
0000
0100
0000
0010
0000
,
0200
0000
0301
1000
0200
0000
0320
0000
,
0130
0000
0100
0000
1000
0100
0001
0100
,
1000
0000
1000
0000
0100
0001
0100
1000
,
0010
0000
0000
0010
0000
0000
0010
0000
,
0110
0000
0100
0010
,
1002
0000
0000
0000
,
0023
0000
0000
0000
,
0230
0000
0000
0000
0000
0000
1300
0100
,
1000
0000
0001
0100
0001
0000
1000
0000
,
0001
0000
0010
0001
0010
0000
0001
0000
,
1000
0000
0010
1000
0010
0000
1000
0001
,
0010
0000
0100
0010
0100
0000
1000
0000
,
0010
0000
1000
0010
0001
0010
1000
0000
,
0220
0000
0000
0330
,
2002
0000
0000
0000
0000
0000
0000
3003
0000
0000
1000
0000
0100
0000
0000
0000
,
0022
0000
0000
0033
,
2002
0000
0000
3003
,
2020
0000
0000
3030
,
0220
0330
1000
0001
,
0100
0000
0100
0000
0001
0100
1000
0100
,
0001
0000
0001
0000
0100
1000
0100
0001
,
0010
0000
0000
0010
0000
0000
0010
0000
,
0110
0000
0000
0001
,
0011
0000
0000
1000
0000
0000
0000
0000
1010
0000
0000
0001
0000
0000
0000
0000
,
0011
0000
0000
1000
0000
0000
0000
0000
0010
0000
0010
0000
0010
0000
0000
0000
,
0101
0000
0000
1000
0000
0000
0000
0000
1100
0000
0000
0001
0000
0000
0000
0000
,
0101
0000
0000
1000
0000
0000
0000
0000
0100
0000
0100
0000
0100
0000
0000
0000
,
2002
0000
0000
3003
,
1001
0000
0000
1001
0000
1001
0000
0000
1001
0000
0000
0000
1100
0000
0000
0022
,
0000
0000
0000
0000
,
0000
0000
0000
0000
,
0033
0000
0000
0000
;

//---------------dance-single - ----------------
#NOTEDATA:;
#CHARTNAME:;
#STEPSTYPE:dance-single;
#DESCRIPTION:;
#CHARTSTYLE:;
#DIFFICULTY:Easy;
#METER:4;
#RADARVALUES:0.218268,0.273002,0.178382,0.224916,0.000000,197.000000,174.000000,23.000000,29.000000,0.000000,0.000000,0.000000,0.000000,0.000000,0.218268,0.273002,0.178382,0.224916,0.000000,197.000000,174.000000,23.000000,29.000000,0.000000,0.000000,0.000000,0.000000,0.000000;
#CREDIT:;
#NOTES:
0000
0000
0000
0000
,
0000
0000
0000
0000
,
0000
0000
0000
0000
,
0000
0000
0000
0000
,
0000
0000
0000
0001
,
0022
0000
0000
0033
,
1000
0010
0100
0001
,
1000
0100
2000
3000
,
0001
0100
0002
1003
,
2020
0000
0000
3030
,
0001
0010
0100
1000
,
0001
0100
0020
0030
,
2002
0000
0000
3003
0000
0000
0000
0000
0001
0000
0000
0000
1000
0000
0000
0000
,
0002
0003
1000
0001
,
0010
0100
1000
0001
,
0200
0300
0001
0100
,
0010
1000
0100
0010
,
0002
0003
1000
0100
,
0010
0001
2000
3000
,
1000
0010
0001
0100
,
2000
0000
0000
3000
,
1001
0110
1001
0000
,
0001
0010
0100
0100
,
1000
0010
0100
0100
,
0001
0010
0100
0010
,
0002
0003
1000
1000
,
0001
0001
0010
0001
,
1000
1000
0010
1000
,
0001
0010
0001
0010
,
0100
1000
0001
0000
,
1000
0010
0100
0100
,
0001
0010
0100
0100
,
1000
0010
0100
0010
,
2000
3000
0001
0001
,
1000
1000
0100
0010
,
0100
0100
0010
0001
,
0100
0010
0100
0010
,
1001
0000
0010
0100
,
2001
0000
0000
0000
,
3200
0000
0000
0000
,
0320
0000
0000
0031
,
2000
0000
0001
3001
,
1000
0100
0010
0001
,
1000
0010
0100
0001
,
1000
0100
0001
0100
,
1000
0010
0001
0010
,
2000
0000
0000
3000
,
1001
0110
1001
0000
,
0002
0000
0000
0003
,
2000
0000
0000
3000
,
0002
0000
0000
0003
,
2002
3003
0001
1000
,
0001
0001
0100
0010
,
0100
0100
0010
1000
,
0100
0010
0100
0010
,
1001
0000
0000
0000
,
1001
0000
0110
0000
,
1001
0000
0010
0010
,
1001
0000
0110
0000
,
1001
0000
0100
0100
,
2002
0000
0000
3003
,
1001
0110
1001
0010
,
0020
0000
0000
0000
,
0000
0000
0000
0000
,
0030
0000
0000
0000
;

//---------------dance-single - ----------------
#NOTEDATA:;
#CHARTNAME:;
#STEPSTYPE:dance-single;
#DESCRIPTION:;
#CHARTSTYLE:;
#DIFFICULTY:Beginner;
#METER:2;
#RADARVALUES:0.145143,0.223365,0.100824,0.031023,0.000000,131.000000,118.000000,13.000000,4.000000,0.000000,0.000000,0.000000,0.000000,0.000000,0.145143,0.223365,0.100824,0.031023,0.000000,131.000000,118.000000,13.000000,4.000000,0.000000,0.000000,0.000000,0.000000,0.000000;
#CREDIT:;
#NOTES:
0000
0000
0000
0000
,
0000
0000
0000
0000
,
0000
0000
0000
0000
,
0000
0000
0000
0000
,
0000
0000
0000
0000
,
0002
0000
0003
0000
,
1000
0000
0010
0000
,
1000
1000
1000
0000
,
0001
0001
0001
0000
,
2000
0000
3000
0000
,
0001
0000
0010
0000
,
0001
0001
0001
0000
,
1001
0000
0000
0000
,
1000
0000
1000
0000
,
0010
0010
0010
0000
,
0100
0000
0001
0000
,
0010
0010
0010
0000
,
0001
0000
1000
0000
,
0010
0010
0010
0000
,
0100
0000
0010
0000
,
1001
0000
0000
0000
,
0001
0001
0001
0000
,
1000
0000
0100
0000
,
1000
0000
0100
0000
,
1000
0000
0100
0000
,
0010
0000
0001
0000
,
1000
1000
1000
0000
,
1000
1000
1000
0000
,
0010
0000
0010
0000
,
1000
1000
1000
0000
,
0001
0000
0100
0000
,
0001
0000
0100
0000
,
0001
0000
0100
0000
,
0010
0000
1000
0000
,
0001
0001
0001
0000
,
0001
0001
0001
0000
,
0010
0000
0010
0000
,
0010
0000
0000
0000
,
1001
0000
0000
0000
,
0000
0000
0000
0000
,
0000
0000
0000
0000
,
0000
0000
0000
0000
,
1000
1000
1000
0000
,
0100
0100
0100
0000
,
0010
0010
0010
0000
,
0001
0001
0001
0000
,
0100
0000
0000
0000
,
0010
0010
0010
0000
,
1001
0000
0000
0000
,
1001
0000
0000
0000
,
1001
0000
0000
0000
,
1001
0000
0000
0000
,
1000
1000
1000
0000
,
1000
1000
1000
0000
,
0010
0000
0010
0000
,
0010
0000
0000
0000
,
1001
0000
1001
0000
,
1001
0000
0100
0100
,
0100
0000
1001
0000
,
1001
0000
0010
0010
,
0010
0000
0000
0000
,
0010
0010
0010
0000
,
2002
0000
0000
0000
,
0000
0000
0000
0000
,
3003
0000
0000
0000
;
