#VERSION:0.83;
#TITLE:MilK;
#SUBTITLE:;
#ARTIST:モリモリあつし;
#TITLETRANSLIT:;
#SUBTITLETRANSLIT:;
#ARTISTTRANSLIT:Morimori Atsushi;
#GENRE:Future Bass;
#ORIGIN:;
#CREDIT:;
#BANNER:MilK.png;
#BACKGROUND:MilK-bg.png;
#PREVIEWVID:;
#JACKET:MilK-jacket.png;
#CDIMAGE:;
#DISCIMAGE:;
#LYRICSPATH:;
#CDTITLE:cdtitle.png;
#MUSIC:MilK.ogg;
#OFFSET:1.499365;
#SAMPLESTART:26.900635;
#SAMPLELENGTH:13.199993;
#SELECTABLE:YES;
#BPMS:0.000=150.000;
#STOPS:;
#DELAYS:;
#WARPS:;
#TIMESIGNATURES:0.000=4=4;
#TICKCOUNTS:0.000=4;
#COMBOS:0.000=1;
#SPEEDS:0.000=1.000=0.000=0;
#SCROLLS:0.000=1.000;
#FAKES:;
#LABELS:0.000=Song Start;
#BGCHANGES:3.875=MilK.avi=1.000=1=0=0=StretchNoLoop==CrossFade==,
99999=-nosongbg-=1.000=0=0=0 // don't automatically add -songbackground-
;
#KEYSOUNDS:;
#ATTACKS:
;

//---------------dance-single - ----------------
#NOTEDATA:;
#CHARTNAME:;
#STEPSTYPE:dance-single;
#DESCRIPTION:;
#CHARTSTYLE:;
#DIFFICULTY:Challenge;
#METER:13;
#RADARVALUES:0.618734,0.724870,0.747882,0.649260,0.419142,527.000000,436.000000,91.000000,79.000000,8.000000,4.000000,16.000000,0.000000,0.000000,0.618734,0.724870,0.747882,0.649260,0.419142,527.000000,436.000000,91.000000,79.000000,8.000000,4.000000,16.000000,0.000000,0.000000;
#CREDIT:;
#OFFSET:1.499365;
#BPMS:0.000000=150.000000
,86.500000=300.000000
,88.000000=150.000000
,97.500000=300.000000
,99.500000=150.000000
,104.000000=75.000000
,104.250000=150.000000
,104.500000=300.000000
,105.000000=150.000000
,117.500000=300.000000
,119.000000=150.000000
,127.000000=300.000000
,127.250000=150.000000
,127.375000=75.000000
,127.500000=300.000000
,127.750000=150.000000
,127.875000=75.000000
,128.000000=300.000000
,128.250000=150.000000
,128.375000=75.000000
,128.500000=150.000000
,129.000000=300.000000
,130.500000=150.000000
,166.000000=300.000000
,167.000000=150.000000
,182.000000=300.000000
,183.000000=150.000000
,199.000000=300.000000
,199.500000=150.000000
,199.750000=75.000000
,200.000000=150.000000
,214.000000=300.000000
,215.000000=150.000000
,245.500000=300.000000
,247.000000=150.000000
,256.500000=300.000000
,258.500000=150.000000
,263.000000=75.000000
,263.250000=150.000000
,263.500000=300.000000
,264.000000=150.000000
,276.500000=300.000000
,278.000000=150.000000
,286.000000=300.000000
,286.250000=150.000000
,286.375000=75.000000
,286.500000=300.000000
,286.750000=150.000000
,286.875000=75.000000
,287.000000=300.000000
,287.250000=150.000000
,287.375000=75.000000
,287.500000=150.000000
,288.000000=300.000000
,289.500000=150.000000
;
#STOPS:86.500000=0.099999
,87.000000=0.100003
,87.500000=0.100003
,97.500000=0.050000
,97.750000=0.050000
,98.000000=0.150002
,98.750000=0.149998
,104.000000=0.400002
,117.500000=0.099999
,118.000000=0.100003
,118.500000=0.100003
,129.000000=0.150002
,129.750000=0.149998
,166.000000=0.050003
,166.250000=0.049996
,166.500000=0.049996
,166.750000=0.049996
,182.000000=0.050003
,182.250000=0.049996
,182.500000=0.049996
,182.750000=0.049996
,214.000000=0.050003
,214.250000=0.049996
,214.500000=0.049996
,214.750000=0.049996
,245.500000=0.099999
,246.000000=0.100003
,246.500000=0.100003
,256.500000=0.050000
,256.750000=0.050000
,257.000000=0.150002
,257.750000=0.149998
,263.000000=0.400002
,276.500000=0.099999
,277.000000=0.100003
,277.500000=0.100003
,288.000000=0.150002
,288.750000=0.149998
;
#DELAYS:;
#WARPS:;
#TIMESIGNATURES:0.000000=4=4
;
#TICKCOUNTS:0.000000=4
;
#COMBOS:0.000000=1
;
#SPEEDS:0.000000=1.000000=0.000000=0
;
#SCROLLS:0.000000=1.000000
,133.000000=0.500000
,133.250000=0.000000
,133.500000=-0.500000
,133.750000=-1.000000
,134.000000=-0.500000
,134.250000=0.000000
,134.500000=0.500000
,134.750000=1.000000
,292.000000=0.500000
,292.250000=0.000000
,292.500000=-0.500000
,292.750000=-1.000000
,293.000000=-0.500000
,293.250000=0.000000
,293.500000=0.500000
,293.750000=1.000000
;
#FAKES:;
#LABELS:0.000000=Song Start
;
#NOTES:
// measure 0
0000
0000
0000
0000
,  // measure 1
0000
0000
0000
0000
,  // measure 2
0000
0000
0000
0000
,  // measure 3
0000
0000
0000
0000
,  // measure 4
0000
0000
0000
0000
,  // measure 5
0000
0000
0000
0000
,  // measure 6
1000
0010
0001
0010
2000
0000
0000
3100
,  // measure 7
0020
0000
0000
0000
0031
0100
0010
1000
,  // measure 8
0001
0010
1000
0010
0001
0100
0100
0010
,  // measure 9
1000
0002
0000
0000
1003
0001
1000
0001
,  // measure 10
0102
1003
0012
1003
,  // measure 11
0102
0000
0103
0000
1010
0010
1000
0001
,  // measure 12
0010
0100
0001
0100
1000
0001
0100
0010
,  // measure 13
1000
0000
0001
0000
0001
0000
0000
0000
0001
0000
1000
0000
1000
0000
0100
0010
,  // measure 14
0100
0000
0000
0100
1000
0000
0000
1000
0010
0000
0000
0010
0100
0000
0100
0000
,  // measure 15
0001
1000
0001
0000
1000
0100
1000
0100
1000
0000
0001
0100
0001
0100
0001
0000
,  // measure 16
0040
0400
0000
0000
0000
0000
0000
0000
0000
0000
0000
0000
0330
0000
0000
0000
,  // measure 17
2002
0000
0000
0010
0000
3003
0001
0100
,  // measure 18
1020
0000
0000
0000
1030
0100
1000
0100
0020
0000
0000
0002
0000
0000
0033
0000
,  // measure 19
2002
0000
3000
0103
0210
0000
1300
0100
,  // measure 20
0001
0000
0020
0000
0000
0000
0130
0000
1200
0000
0000
2000
0000
0000
3300
0000
,  // measure 21
1000
0000
0001
0100
0000
0001
0100
0000
0010
1000
0001
0000
0001
0000
0001
0000
,  // measure 22
1000
0000
0200
0000
0000
0000
0000
0000
0302
0000
0000
0103
0020
0000
0000
0000
,  // measure 23
0032
0000
0000
1003
1020
0000
0130
0001
,  // measure 24
4000
3400
0340
0034
4003
3000
0001
0100
0010
0000
0000
1010
0000
0000
0102
0000
,  // measure 25
1000
0000
1003
0000
0100
0000
0010
0000
0001
0100
0000
1000
0000
0100
0001
0000
,  // measure 26
1000
0000
0000
0000
2001
0000
0000
0002
0000
0000
3003
0000
0022
0000
0000
0000
,  // measure 27
0003
0130
0210
0000
0301
0100
1000
0020
,  // measure 28
0000
0000
0130
0000
0201
0000
0000
0002
0000
0000
0303
0000
0001
0000
0010
0100
,  // measure 29
0000
0010
0100
0000
1000
0001
0100
0000
0100
0000
0100
0000
0001
0000
0020
0000
,  // measure 30
0000
0000
0000
0000
2030
0000
0000
3010
0200
0000
0000
0000
2300
0000
0000
0000
,  // measure 31
0000
3001
1002
0000
0103
0010
1000
1000
,  // measure 32
1000
0000
0100
0000
0011
0000
0000
1100
0000
0000
1002
0000
0100
0000
0103
0000
,  // measure 33
0010
1000
0000
0000
0000
0000
2100
0000
,  // measure 34
3001
2010
3001
2100
,  // measure 35
3100
0000
0011
0010
0001
1000
0010
0100
,  // measure 36
1000
0100
0001
1000
0100
0010
0001
1000
,  // measure 37
1000
0000
0000
0000
1000
0000
0001
0000
0001
0000
0100
0010
0100
0000
0000
0100
,  // measure 38
0001
0000
0000
0001
0010
0000
0000
0010
0100
0000
0100
0000
1000
0001
1000
0000
,  // measure 39
0001
0100
0001
0100
0001
0000
1000
0100
1000
0100
1000
0000
0040
0400
0000
0000
,  // measure 40
0000
0000
0330
2002
,  // measure 41
0000
0000
0010
0000
0000
0000
3003
0000
1000
0001
1000
0001
1000
0000
0000
1100
,  // measure 42
0000
0000
0110
0000
0000
1100
0000
0000
1001
0000
1000
0000
1010
0000
0000
0110
,  // measure 43
0000
0000
1010
0000
0000
1001
0000
0000
2200
0000
3300
0000
0011
0000
0000
1001
,  // measure 44
0000
0000
1010
0000
0000
1001
0000
0000
0011
0000
0001
0010
0100
0000
1000
0000
,  // measure 45
0010
0000
0001
0000
0010
0000
0100
0000
0001
1000
0001
1000
0001
0000
0000
0101
,  // measure 46
0000
0000
0110
0000
0000
0101
0000
0000
1001
0000
0001
0000
0011
0000
0000
0110
,  // measure 47
0000
0000
0011
0000
0000
1001
0000
0000
0202
0000
0303
0000
1010
0000
0000
1001
,  // measure 48
0000
0000
0011
0000
0000
1001
0000
0000
1010
0000
1000
0002
2000
0000
0000
0000
,  // measure 49
0000
0010
0000
0000
0010
3003
MMMM
0000
,  // measure 50
0011
0000
0000
1100
0000
0000
0011
0000
0001
0000
1000
0000
1010
0000
0000
0101
,  // measure 51
0000
0000
1010
0000
0000
1001
0000
0000
2200
0000
3300
0000
0011
0000
0000
1001
,  // measure 52
0000
0000
0101
0000
0000
1001
0000
0000
1100
0000
0100
0010
0001
0000
1000
0000
,  // measure 53
0010
0000
0100
0000
1000
0000
0100
0000
0001
1000
0001
1000
0001
0000
0000
0011
,  // measure 54
0000
0000
0110
0000
0000
1100
0000
0000
1010
0000
0000
0110
0000
0000
0101
0000
,  // measure 55
0000
0011
0000
0000
0110
0000
0000
1100
0000
0000
1001
0000
0004
4000
0000
0000
,  // measure 56
0000
0000
0000
0000
0000
0000
0000
0000
0000
0000
3003
0000
1000
0001
0100
0001
,  // measure 57
0100
0001
1000
0001
0100
0001
0100
0001
1000
0000
0100
0000
0021
0000
0000
0000
,  // measure 58
0031
0100
0001
0100
0020
0000
0000
2000
0000
0000
3030
0000
2002
0000
0000
0000
,  // measure 59
0003
3100
0210
0000
0301
0100
1000
0020
,  // measure 60
0000
0000
0130
0000
0201
0000
0000
0002
0000
0000
0303
0000
0001
0000
1000
0100
,  // measure 61
0000
1000
0100
0000
0010
0001
1000
0000
1000
0000
1000
0000
0001
0000
0200
0000
,  // measure 62
0000
0000
0000
0000
2300
0000
0000
3100
0020
0000
0000
0000
2030
0000
0000
0000
,  // measure 63
0000
0000
3001
0000
0021
0000
0000
0000
0130
0000
1000
0000
0004
0403
0340
4030
,  // measure 64
3004
0003
1000
0100
0010
0000
0000
0011
0000
0000
2100
0000
0001
0000
3001
0000
,  // measure 65
0100
0000
0010
0000
1000
0100
0000
0001
0000
0100
1000
0000
0001
0000
0000
0000
,  // measure 66
1002
0000
0000
2000
0000
0000
3003
0000
2020
0000
0000
0000
3000
0000
0130
0000
,  // measure 67
0210
0000
1300
0100
0001
0020
0000
0130
,  // measure 68
1200
0000
0000
2000
0000
0000
3300
0000
1000
0000
0010
0100
0000
0010
0100
0000
,  // measure 69
0001
1000
0100
0000
0100
0000
0100
0000
1000
0000
0020
0000
0000
0000
0000
0000
,  // measure 70
0032
0000
0000
0013
0200
0000
0000
0000
0302
0000
0000
0000
0000
0000
1003
0000
,  // measure 71
2001
0000
3100
0010
0001
0001
0001
0100
,  // measure 72
1010
0000
0000
0101
0000
0000
2001
0000
0100
0000
3100
0000
0010
0000
0001
0000
,  // measure 73
0000
0000
MMMM
0000
;

//---------------dance-single - ----------------
#NOTEDATA:;
#CHARTNAME:;
#STEPSTYPE:dance-single;
#DESCRIPTION:;
#CHARTSTYLE:;
#DIFFICULTY:Hard;
#METER:11;
#RADARVALUES:0.435579,0.513450,0.230117,0.575294,0.193134,371.000000,343.000000,28.000000,70.000000,24.000000,0.000000,12.000000,0.000000,0.000000,0.435579,0.513450,0.230117,0.575294,0.193134,371.000000,343.000000,28.000000,70.000000,24.000000,0.000000,12.000000,0.000000,0.000000;
#CREDIT:;
#OFFSET:1.499365;
#BPMS:0.000000=150.000000
,104.000000=75.000000
,105.000000=150.000000
,133.000000=300.000000
,133.250000=150.000000
,133.375000=75.000000
,133.625000=150.000000
,133.750000=300.000000
,134.250000=150.000000
,134.375000=75.000000
,134.625000=150.000000
,134.750000=300.000000
,135.000000=150.000000
,263.000000=75.000000
,264.000000=150.000000
,292.000000=300.000000
,292.250000=150.000000
,292.375000=75.000000
,292.625000=150.000000
,292.750000=300.000000
,293.250000=150.000000
,293.375000=75.000000
,293.625000=150.000000
,293.750000=300.000000
,294.000000=150.000000
;
#STOPS:;
#DELAYS:;
#WARPS:;
#TIMESIGNATURES:0.000000=4=4
;
#TICKCOUNTS:0.000000=4
;
#COMBOS:0.000000=1
;
#SPEEDS:0.000000=1.000000=0.000000=0
;
#SCROLLS:0.000000=1.000000
;
#FAKES:;
#LABELS:0.000000=Song Start
;
#NOTES:
// measure 0
0000
0000
0000
0000
,  // measure 1
0000
0000
0000
0000
,  // measure 2
0000
0000
0000
0000
,  // measure 3
0000
0000
0000
0000
,  // measure 4
0000
0000
0000
0000
,  // measure 5
0000
0000
0000
0000
,  // measure 6
1000
0010
0100
0010
2000
0000
0000
3001
,  // measure 7
0020
0000
0000
0000
0130
1000
0001
0100
,  // measure 8
0010
1000
0001
1000
0100
0010
0100
0010
,  // measure 9
0001
2000
0000
0000
3001
0100
0010
1000
,  // measure 10
0002
0010
2003
0010
,  // measure 11
3002
0000
0010
0000
1003
0010
0100
0001
,  // measure 12
1000
0100
1000
0100
0010
0001
1000
0000
,  // measure 13
0001
0100
1000
0000
1000
0100
0001
1000
,  // measure 14
0100
0100
0010
0010
,  // measure 15
1100
0000
0011
0000
0001
1000
0010
0100
,  // measure 16
0004
0000
0000
0000
0000
0000
0000
0000
0043
0000
0000
0000
0000
0000
0000
0000
0430
0000
0000
0000
0000
0000
0000
0000
4300
0000
0000
0000
0000
0000
0000
3000
,  // measure 17
1001
0000
0000
M00M
0000
0000
1001
0000
0000
M00M
0000
0000
1000
0000
0100
0000
,  // measure 18
0020
0000
0130
1000
0020
0000
0000
0030
,  // measure 19
0002
0000
0000
0013
1000
0000
0001
1000
,  // measure 20
0100
0002
0000
0103
0020
0000
0230
0000
,  // measure 21
2300
0000
0000
3002
0000
0103
0100
0100
,  // measure 22
0001
0000
2000
0000
0000
0000
0000
0000
3002
0000
0000
0003
0020
0000
0000
0000
,  // measure 23
2030
0000
0000
3010
0001
0000
0100
0010
,  // measure 24
2000
0000
0000
0000
3000
0000
0001
1000
0001
0000
0000
1001
0000
0000
2002
0000
,  // measure 25
0000
0000
0000
0000
3003
0000
0000
0000
1000
0010
0000
1000
0000
0001
0010
0000
,  // measure 26
0001
0000
1002
0000
0000
0003
0200
0000
,  // measure 27
0000
0310
1000
0000
0001
0010
0100
0002
,  // measure 28
0000
0103
0020
0000
0032
0000
2003
0000
,  // measure 29
0000
3002
0000
0103
0100
0100
0010
2000
,  // measure 30
0000
3200
0302
0203
,  // measure 31
0000
1300
0020
0000
0130
0001
0040
0000
,  // measure 32
0000
0030
0100
0000
1001
0000
0000
1001
0000
0000
2002
0000
0000
0000
0000
0000
,  // measure 33
3003
0000
0M00
00M0
0M00
00M0
2000
0000
,  // measure 34
0010
3002
0010
2003
,  // measure 35
0010
0000
3001
0010
0100
1000
0001
0100
,  // measure 36
0001
0100
0010
1000
0001
0000
1000
0100
,  // measure 37
0001
0000
0001
0100
1000
0001
0100
0000
,  // measure 38
0100
0010
0010
0101
,  // measure 39
1010
0000
1000
0001
0010
0100
4000
0000
,  // measure 40
3040
0000
0000
0000
0000
0000
0000
0000
0430
0000
0000
0000
0000
0000
0000
0000
0304
0000
0000
0000
0000
0000
0000
0003
1001
0000
0000
0000
0000
0000
M00M
0000
,  // measure 41
0000
0000
1001
0000
0000
M00M
0000
0000
1000
0001
1000
0001
1000
0000
0000
0100
,  // measure 42
0000
0000
0010
0000
0000
0100
0000
0000
1000
0000
0010
0000
0100
0000
0000
0010
,  // measure 43
0000
0000
0001
0000
0000
0010
0000
0000
1020
0000
0000
0000
0130
0000
0000
0001
,  // measure 44
0000
0000
1000
0000
0000
0100
0000
0000
0010
0000
0010
0000
0001
0000
0100
0000
,  // measure 45
0001
0000
0010
0000
0001
0000
0100
0000
0001
1000
0001
1000
0001
0000
0000
0100
,  // measure 46
0000
0000
0010
0000
0000
0100
0000
0000
0001
0000
0010
0000
0100
0000
0000
0010
,  // measure 47
0000
0000
1000
0000
0000
0010
0000
0000
0021
0000
0000
0000
0130
0000
0000
1000
,  // measure 48
0000
0000
0001
0000
0000
0100
0000
0000
0010
0000
0010
0000
1001
0000
0000
0000
,  // measure 49
0000
0110
0000
0000
1001
0000
MMMM
0000
,  // measure 50
0001
0000
0000
0010
0000
0000
0100
0000
1000
0000
0010
0000
0100
0000
0000
1000
,  // measure 51
0000
0000
0100
0000
0000
0001
0000
0000
0021
0000
0000
0000
0130
0000
0000
1000
,  // measure 52
0000
0000
0001
0000
0000
0100
0000
0000
0001
0000
0001
0000
1000
0000
0100
0000
,  // measure 53
1000
0000
0010
0000
1000
0000
0100
0000
1000
0001
1000
0001
1000
0000
0000
0100
,  // measure 54
0000
0000
0100
0000
0000
0001
0000
0000
0001
0000
0000
0010
0000
0000
0010
0000
,  // measure 55
0000
1000
0000
0000
1000
0000
0000
0100
0000
0000
0010
0000
0004
4000
0000
0000
,  // measure 56
0000
0000
0000
0000
0000
0000
0000
0000
3003
0000
0000
0000
1001
0000
0000
0100
,  // measure 57
0000
0000
1001
0000
0000
0100
0000
0000
0001
0000
0100
0000
0020
0000
0000
0000
,  // measure 58
0130
0001
0020
0000
0000
0030
2000
0000
,  // measure 59
0000
3010
0001
0000
1000
0001
0100
2000
,  // measure 60
0000
3100
0020
0000
0230
0000
0302
0000
,  // measure 61
0000
2003
0000
3100
0100
0100
1000
0002
,  // measure 62
0000
0000
0000
0000
2003
0000
0000
3000
0020
0000
0000
0000
0032
0000
0000
0000
,  // measure 63
0000
0013
1000
0000
0100
0010
0002
0000
,  // measure 64
0003
0000
1000
0001
1000
0000
0000
1001
0000
0000
2002
0000
0000
0000
0000
0000
,  // measure 65
3003
0000
0000
0000
0001
0010
0000
0001
0000
1000
0010
0000
1000
0000
0000
0000
,  // measure 66
2001
0000
0000
3000
0200
0000
0000
0310
,  // measure 67
0001
0000
1000
0010
0100
2000
0000
3100
,  // measure 68
0020
0000
2030
0000
3002
0000
0000
2003
,  // measure 69
0000
3100
0100
0100
0010
0002
0000
0000
,  // measure 70
0203
0000
2300
0000
3200
0000
0000
0301
,  // measure 71
0020
0000
0000
0000
0130
0000
1000
0000
0040
0000
0000
0000
0000
0030
0100
0000
,  // measure 72
1001
0000
0000
1001
0000
0000
2002
0000
0000
0000
0000
0000
3003
0000
0000
0000
,  // measure 73
0M00
00M0
0M00
00M0
MMMM
0000
0000
0000
;

//---------------dance-single - ----------------
#NOTEDATA:;
#CHARTNAME:;
#STEPSTYPE:dance-single;
#DESCRIPTION:;
#CHARTSTYLE:;
#DIFFICULTY:Medium;
#METER:8;
#RADARVALUES:0.338132,0.359969,0.123277,0.731445,0.115059,288.000000,273.000000,15.000000,89.000000,8.000000,0.000000,3.000000,0.000000,0.000000,0.338132,0.359969,0.123277,0.731445,0.115059,288.000000,273.000000,15.000000,89.000000,8.000000,0.000000,3.000000,0.000000,0.000000;
#CREDIT:;
#OFFSET:1.499365;
#BPMS:0.000000=150.000000
,104.000000=75.000000
,105.000000=150.000000
,262.000000=75.000000
,263.000000=150.000000
;
#STOPS:133.000000=0.199996
,133.500000=0.200000
,291.000000=0.200004
,291.500000=0.200004
;
#DELAYS:;
#WARPS:;
#TIMESIGNATURES:0.000000=4=4
;
#TICKCOUNTS:0.000000=4
;
#COMBOS:0.000000=1
;
#SPEEDS:0.000000=1.000000=0.000000=0
;
#SCROLLS:0.000000=1.000000
;
#FAKES:;
#LABELS:0.000000=Song Start
;
#NOTES:
// measure 0
0000
0000
0000
0000
,  // measure 1
0000
0000
0000
0000
,  // measure 2
0000
0000
0000
0000
,  // measure 3
0000
0000
0000
0000
,  // measure 4
0000
0000
0000
0000
,  // measure 5
0000
0000
0000
0000
,  // measure 6
2000
3000
0200
0300
,  // measure 7
0020
0030
0002
0003
,  // measure 8
2000
0000
3002
2003
3000
0002
2003
3000
,  // measure 9
0002
0203
0000
0300
0010
1000
0010
1000
,  // measure 10
0002
0013
0020
1030
,  // measure 11
2000
0000
3100
0000
0100
0001
0100
0001
,  // measure 12
1000
0100
0010
0001
,  // measure 13
1000
0010
1000
0000
0001
0010
0001
0000
,  // measure 14
2000
3010
0020
0130
,  // measure 15
0200
0000
0301
0100
0001
1000
0100
0000
,  // measure 16
2000
0100
0001
3010
,  // measure 17
0110
0000
0000
0110
0000
0000
0001
1000
,  // measure 18
0002
0023
0230
0000
,  // measure 19
0302
0000
0000
0000
0103
0000
0010
0001
,  // measure 20
0000
2000
0000
0000
3020
0000
0230
0000
,  // measure 21
0302
0000
0000
2003
0000
3001
1000
0001
,  // measure 22
1000
0200
0000
0000
0320
0000
0032
0000
,  // measure 23
2003
0000
0000
0000
3001
0000
1000
0010
,  // measure 24
0200
0000
0000
0000
0300
0000
0000
0000
0010
0000
0000
0010
0000
0000
2002
0000
,  // measure 25
0000
0000
0000
0000
3003
0000
0000
0000
1000
0000
0000
0001
0000
0000
1000
0000
,  // measure 26
0000
2001
0000
3020
,  // measure 27
0000
0000
0130
0000
0010
1000
0000
0200
,  // measure 28
0000
0302
0203
2300
,  // measure 29
0000
3002
0000
1003
0001
1000
0001
0200
,  // measure 30
0000
0320
2030
3200
,  // measure 31
0000
0000
0301
0000
0100
1000
0002
0000
,  // measure 32
0003
0000
0100
0000
0010
0000
0000
0010
0000
0000
2002
0000
0000
0000
0000
0000
,  // measure 33
3003
0000
2000
3010
,  // measure 34
0020
0031
0002
0103
,  // measure 35
0100
1000
0100
1000
0001
0000
0100
0000
,  // measure 36
0010
0000
1000
0000
0001
0010
0001
0000
,  // measure 37
1000
0010
1000
0000
0002
0000
0013
0000
,  // measure 38
0020
0000
0130
0000
0200
0000
1300
0100
,  // measure 39
1000
0001
0100
0000
0002
0000
0100
0000
,  // measure 40
1000
0000
0013
0000
0110
0000
0000
0110
,  // measure 41
0000
0000
0000
0000
0004
0000
0000
0000
1003
0000
0000
0010
0000
0000
1000
0000
,  // measure 42
0000
0010
0000
0000
1000
0000
0000
0000
0001
0000
0000
0010
0000
0000
0001
0000
,  // measure 43
0000
0010
0000
0000
0200
0000
0000
0000
1300
0000
0000
0001
0000
0000
0100
0000
,  // measure 44
0000
0001
0000
0000
1000
0000
0000
0000
0001
0000
0000
0000
0010
0000
0000
0000
,  // measure 45
0100
0000
0000
0000
4000
0000
0000
0000
3001
0000
0000
0010
0000
0000
0001
0000
,  // measure 46
0000
0010
0000
0000
0001
0000
0000
0000
1000
0000
0000
0010
0000
0000
1000
0000
,  // measure 47
0000
0010
0000
0000
0200
0000
0000
0000
0301
0000
0000
1000
0000
0000
0100
0000
,  // measure 48
0000
1000
0000
0000
0001
0000
0000
0000
1001
0000
0000
0000
0000
0000
1001
0000
,  // measure 49
0000
0000
0000
0000
1001
0000
0000
0000
MMMM
0000
0000
0000
1000
0000
0000
0100
,  // measure 50
0000
0000
1000
0000
0100
0000
0000
0000
0010
0000
0000
0001
0000
0000
1000
0000
,  // measure 51
0000
0001
0000
0000
0200
0000
0000
0000
0301
0000
0000
1000
0000
0000
0100
0000
,  // measure 52
0000
1000
0000
0000
0001
0000
0000
0000
1000
0000
0000
0000
0010
0000
0000
0000
,  // measure 53
0100
0000
0000
0000
0004
0000
0000
0000
1003
0000
0000
0100
0000
0000
1000
0000
,  // measure 54
0000
0100
0000
0000
0010
0000
0000
0001
0000
0000
0010
0000
0000
0001
0000
0000
,  // measure 55
1000
0000
0000
0010
0000
0000
1000
0000
0020
0000
0000
0000
0000
0000
0000
0000
,  // measure 56
0000
0000
0030
0000
1001
0000
0000
1001
,  // measure 57
0000
0000
1000
0001
2000
0000
3020
0000
,  // measure 58
0230
0000
2300
0000
,  // measure 59
3100
0000
0010
1000
0000
0002
0000
0000
,  // measure 60
0023
0000
0230
0000
2300
0000
0000
3002
,  // measure 61
0000
1003
0001
1000
0001
0200
0000
0000
,  // measure 62
0320
2030
3002
0000
,  // measure 63
1003
0000
0001
0010
0200
0000
0300
0000
,  // measure 64
0010
0000
0000
0010
0000
0000
2002
0000
0000
0000
0000
0000
3003
0000
0000
0000
,  // measure 65
0001
0000
0000
1000
0000
0000
0001
0000
0000
0000
0000
0000
1002
0000
0000
0000
,  // measure 66
0000
0023
0000
0130
,  // measure 67
0010
0001
0000
0200
0000
0000
2300
0000
,  // measure 68
3200
0000
0302
0000
0000
2003
0000
3001
,  // measure 69
1000
0001
1000
0200
0000
0000
0320
0000
,  // measure 70
0032
0203
0000
1300
,  // measure 71
0100
0000
0001
0000
2000
0000
0000
0000
3000
0000
0100
0000
0010
0000
0000
0010
,  // measure 72
0000
2002
0000
0000
3003
0000
0000
0000
,  // measure 73
MMMM
0000
0000
0000
;

//---------------dance-single - ----------------
#NOTEDATA:;
#CHARTNAME:;
#STEPSTYPE:dance-single;
#DESCRIPTION:;
#CHARTSTYLE:;
#DIFFICULTY:Easy;
#METER:5;
#RADARVALUES:0.231292,0.299975,0.213680,0.673915,0.000000,197.000000,171.000000,26.000000,82.000000,4.000000,0.000000,0.000000,0.000000,0.000000,0.231292,0.299975,0.213680,0.673915,0.000000,197.000000,171.000000,26.000000,82.000000,4.000000,0.000000,0.000000,0.000000,0.000000;
#CREDIT:;
#OFFSET:1.499365;
#BPMS:0.000000=150.000000
,104.000000=75.000000
,105.000000=150.000000
,133.000000=75.000000
,134.000000=150.000000
,262.000000=75.000000
,263.000000=150.000000
,291.000000=75.000000
,292.000000=150.000000
;
#STOPS:;
#DELAYS:;
#WARPS:;
#TIMESIGNATURES:0.000000=4=4
;
#TICKCOUNTS:0.000000=4
;
#COMBOS:0.000000=1
;
#SPEEDS:0.000000=1.000000=0.000000=0
;
#SCROLLS:0.000000=1.000000
;
#FAKES:;
#LABELS:0.000000=Song Start
;
#NOTES:
// measure 0
0000
0000
0000
0000
,  // measure 1
0000
0000
0000
0000
,  // measure 2
0000
0000
0000
0000
,  // measure 3
0000
0000
0000
0000
,  // measure 4
0000
0000
0000
0000
,  // measure 5
0000
0000
0000
0000
,  // measure 6
0001
0000
0100
0000
,  // measure 7
0010
0000
1000
0000
,  // measure 8
0001
0000
1000
0000
,  // measure 9
0100
0000
0100
0100
,  // measure 10
2000
3000
0020
0030
,  // measure 11
0002
0003
0010
1000
,  // measure 12
0001
0001
0010
0010
,  // measure 13
0100
0100
0010
0010
,  // measure 14
0002
0003
0200
0300
,  // measure 15
2000
3000
0100
0001
,  // measure 16
0010
0100
0010
0100
,  // measure 17
2002
0000
0000
3003
0000
0000
1000
0000
,  // measure 18
0200
0310
0002
0000
,  // measure 19
2003
0000
3001
0001
,  // measure 20
0000
0200
0000
0000
0320
0000
2030
0000
,  // measure 21
3002
0000
0000
0023
0000
0000
0130
0000
,  // measure 22
0200
0000
2300
3002
,  // measure 23
2003
0000
3010
0100
,  // measure 24
0002
0000
0003
0000
1001
0000
0000
2002
,  // measure 25
0000
3003
0100
0000
,  // measure 26
0100
2001
0000
3200
,  // measure 27
0000
0000
0310
0000
0010
0000
0000
0002
,  // measure 28
0000
0203
0320
2030
,  // measure 29
0000
3002
0000
0000
1003
0000
2000
0000
,  // measure 30
0000
3200
0320
0230
,  // measure 31
0000
0310
0001
0100
,  // measure 32
0000
0000
1001
0000
0000
2002
0000
0000
,  // measure 33
3003
0000
0002
0003
,  // measure 34
0020
0030
2000
3000
,  // measure 35
0010
0001
1000
1000
,  // measure 36
0010
0010
0100
0100
,  // measure 37
0010
0010
2000
3000
,  // measure 38
0200
0300
0002
0003
,  // measure 39
0100
1000
0010
0100
,  // measure 40
0010
0000
0100
0000
2002
0000
0000
3003
,  // measure 41
0000
0001
2001
0000
,  // measure 42
0000
3000
1020
0000
,  // measure 43
0000
0030
0201
0000
,  // measure 44
0000
0300
0001
1000
,  // measure 45
0001
1000
1002
0000
,  // measure 46
0000
0003
0021
0000
,  // measure 47
0000
0030
1200
0000
,  // measure 48
0000
0000
0300
0000
1001
0000
0000
1001
,  // measure 49
0000
1001
0000
2010
,  // measure 50
0000
3000
0012
0000
,  // measure 51
0000
0003
0201
0000
,  // measure 52
0000
0300
0001
1000
,  // measure 53
0001
0000
1000
0000
0100
0000
0000
0100
,  // measure 54
0000
0000
0100
0000
0000
0100
0000
0000
,  // measure 55
0100
0000
0000
0100
0020
0000
0000
0000
,  // measure 56
0000
0000
0030
0000
1001
0000
0000
1001
,  // measure 57
0000
0001
0200
0310
,  // measure 58
2000
0000
3002
0000
,  // measure 59
1003
0000
1000
0000
0000
0200
0000
0000
,  // measure 60
0320
0000
0032
0000
2003
0000
0000
3020
,  // measure 61
0000
0130
0200
0000
,  // measure 62
0302
2003
3002
0000
,  // measure 63
0013
0100
2000
3000
,  // measure 64
1001
0000
0000
2002
0000
0000
3003
0000
,  // measure 65
0100
0000
0100
1002
,  // measure 66
0000
0203
0000
0310
,  // measure 67
0010
0000
0000
2000
0000
0000
3200
0000
,  // measure 68
0320
0000
0032
0000
0000
2003
0000
0000
,  // measure 69
3001
0002
0000
0203
,  // measure 70
0320
0230
0000
0310
,  // measure 71
1000
0100
0000
1001
,  // measure 72
0000
2002
0000
0000
3003
0000
0000
0000
,  // measure 73
MMMM
0000
0000
0000
;

//---------------dance-single - ----------------
#NOTEDATA:;
#CHARTNAME:;
#STEPSTYPE:dance-single;
#DESCRIPTION:;
#CHARTSTYLE:;
#DIFFICULTY:Beginner;
#METER:1;
#RADARVALUES:0.092751,0.149730,0.032874,0.115059,0.000000,79.000000,75.000000,4.000000,14.000000,0.000000,0.000000,0.000000,0.000000,0.000000,0.092751,0.149730,0.032874,0.115059,0.000000,79.000000,75.000000,4.000000,14.000000,0.000000,0.000000,0.000000,0.000000,0.000000;
#CREDIT:;
#OFFSET:1.499365;
#BPMS:0.000000=150.000000
;
#STOPS:;
#DELAYS:;
#WARPS:;
#TIMESIGNATURES:0.000000=4=4
;
#TICKCOUNTS:0.000000=4
;
#COMBOS:0.000000=1
;
#SPEEDS:0.000000=1.000000=0.000000=0
;
#SCROLLS:0.000000=1.000000
;
#FAKES:;
#LABELS:0.000000=Song Start
;
#NOTES:
// measure 0
0000
0000
0000
0000
,  // measure 1
0000
0000
0000
0000
,  // measure 2
0000
0000
0000
0000
,  // measure 3
0000
0000
0000
0000
,  // measure 4
0000
0000
0000
0000
,  // measure 5
0000
0000
0000
0000
,  // measure 6
1000
0000
0000
0000
,  // measure 7
1000
0000
0000
0000
,  // measure 8
0001
0000
0000
0000
,  // measure 9
0001
0000
0000
0000
,  // measure 10
1000
0000
1000
0000
,  // measure 11
1000
0000
0000
0000
,  // measure 12
0100
0000
0010
0000
,  // measure 13
0100
0000
0000
0000
,  // measure 14
0010
0000
0010
0000
,  // measure 15
0010
0000
0000
0000
,  // measure 16
0001
0000
1000
0000
,  // measure 17
2002
0000
0000
3003
,  // measure 18
0000
0000
0100
0000
,  // measure 19
0000
0000
0010
0000
,  // measure 20
0000
0000
1000
0000
,  // measure 21
0000
0000
0000
0001
,  // measure 22
0000
0000
1000
0000
,  // measure 23
0000
0000
0100
0000
,  // measure 24
0000
0000
0000
0000
0020
0000
0000
0030
,  // measure 25
0000
0000
0001
0000
,  // measure 26
0000
0000
1000
0000
,  // measure 27
0000
0000
0010
0000
,  // measure 28
0000
0000
0100
0000
,  // measure 29
0000
0000
0000
0001
,  // measure 30
0000
0000
1000
0000
,  // measure 31
0000
0000
0100
0000
,  // measure 32
0000
0000
0000
0000
0020
0000
0000
0030
,  // measure 33
0000
0000
0000
0000
,  // measure 34
0001
0000
0001
0000
,  // measure 35
0001
0000
0000
0000
,  // measure 36
0100
0000
0010
0000
,  // measure 37
0100
0000
0000
0000
,  // measure 38
0010
0000
0010
0000
,  // measure 39
0010
0000
0000
0000
,  // measure 40
1000
0000
0001
0000
,  // measure 41
2000
0000
0000
3000
0000
0000
0000
0000
,  // measure 42
0100
0000
0000
0000
,  // measure 43
0010
0000
0000
0000
,  // measure 44
0100
0000
0000
0000
,  // measure 45
1000
0000
0001
0000
,  // measure 46
0100
0000
0000
0000
,  // measure 47
0010
0000
0000
0000
,  // measure 48
0100
0000
0000
0000
,  // measure 49
2002
0000
0000
3003
,  // measure 50
0000
0001
0000
0000
,  // measure 51
0010
0000
0000
0000
,  // measure 52
0100
0000
0000
0000
,  // measure 53
1000
0000
0001
0000
,  // measure 54
0200
0000
0000
0000
,  // measure 55
0000
0000
0300
0000
,  // measure 56
0220
0000
0330
0000
,  // measure 57
2002
0000
0000
3003
,  // measure 58
0000
0000
0100
0000
,  // measure 59
0000
0000
0010
0000
,  // measure 60
0000
0000
0001
0000
,  // measure 61
0000
0000
0000
1000
,  // measure 62
0000
0000
0001
0000
,  // measure 63
0000
0000
0100
0000
,  // measure 64
0000
0000
0000
0000
0020
0000
0000
0030
,  // measure 65
0000
0000
1000
0000
,  // measure 66
0000
0000
0001
0000
,  // measure 67
0000
0000
0010
0000
,  // measure 68
0000
0000
0100
0000
,  // measure 69
0000
0000
0000
1000
,  // measure 70
0000
0000
0001
0000
,  // measure 71
0000
0000
0100
0000
,  // measure 72
0000
0000
0000
0000
0020
0000
0000
0030
;
