#VERSION:0.83;
#TITLE:Mamma Mia;
#SUBTITLE:;
#ARTIST:KARA;
#TITLETRANSLIT:;
#SUBTITLETRANSLIT:;
#ARTISTTRANSLIT:;
#GENRE:K-Pop;
#ORIGIN:;
#CREDIT:;
#BANNER:Mamma Mia.png;
#BACKGROUND:Mamma Mia-bg.png;
#PREVIEWVID:;
#JACKET:Mamma Mia-jacket.png;
#CDIMAGE:;
#DISCIMAGE:;
#LYRICSPATH:;
#CDTITLE:cdtitle.png;
#MUSIC:Mamma Mia.ogg;
#OFFSET:1.697229;
#SAMPLESTART:73.304764;
#SAMPLELENGTH:14.999992;
#SELECTABLE:YES;
#BPMS:0.000=128.000;
#STOPS:;
#DELAYS:;
#WARPS:;
#TIMESIGNATURES:0.000=4=4;
#TICKCOUNTS:0.000=4;
#COMBOS:0.000=1;
#SPEEDS:0.000=1.000=0.000=0;
#SCROLLS:0.000=1.000;
#FAKES:;
#LABELS:0.000=Song Start;
#BGCHANGES:2.375=Mamma Mia.avi=1.000=1=0=0=StretchNoLoop==CrossFade==,
227.500=Mamma Mia-bg.png=1.000=1=0=1===CrossFade==,
99999=-nosongbg-=1.000=0=0=0 // don't automatically add -songbackground-
;
#KEYSOUNDS:;
#ATTACKS:
;

//---------------dance-single - ----------------
#NOTEDATA:;
#CHARTNAME:;
#STEPSTYPE:dance-single;
#DESCRIPTION:;
#CHARTSTYLE:;
#DIFFICULTY:Challenge;
#METER:11;
#RADARVALUES:0.461015,0.603593,0.082511,0.467564,0.238366,352.000000,343.000000,9.000000,51.000000,32.000000,0.000000,0.000000,0.000000,0.000000,0.461015,0.603593,0.082511,0.467564,0.238366,352.000000,343.000000,9.000000,51.000000,32.000000,0.000000,0.000000,0.000000,0.000000;
#CREDIT:;
#NOTES:
// measure 0
0000
0000
0000
0000
,  // measure 1
0000
0000
0000
0000
,  // measure 2
0000
0000
0000
0000
,  // measure 3
0000
0000
0000
0000
,  // measure 4
0000
0000
0000
0000
,  // measure 5
2000
0000
0000
0000
,  // measure 6
3002
0000
0000
0000
,  // measure 7
0023
0000
0000
0030
,  // measure 8
MMMM
0000
0000
0000
0000
0000
0000
0000
0001
1000
0000
0001
1000
0001
1000
0000
,  // measure 9
0001
0000
0010
0000
0100
0000
0000
0010
0000
0100
0000
0000
0010
0000
0001
0000
,  // measure 10
1000
0000
0010
0000
0100
0000
0000
0010
0000
0100
0000
0000
0001
0000
1000
0000
,  // measure 11
0100
0000
0010
0000
0001
0000
0000
0010
0000
0001
0000
0000
1000
0000
0010
0000
,  // measure 12
0100
0000
0010
0000
1000
0000
0000
0010
0000
1000
0000
0000
0100
0000
0010
0000
,  // measure 13
0001
0000
0100
0000
1000
0000
0000
0100
0000
1000
0000
0000
0100
0000
0001
0000
,  // measure 14
1000
0000
0100
0000
0001
0000
0000
0100
0000
0001
0000
0000
0100
0000
1000
0000
,  // measure 15
0010
0000
0100
0000
0001
0000
0000
1000
0000
0100
0000
0000
0010
0000
0001
0000
,  // measure 16
0100
0000
1000
0000
0001
0000
0010
0100
0000
0010
0000
1000
0100
0000
0010
0000
,  // measure 17
0002
0000
0013
0000
0010
0001
0100
0010
,  // measure 18
2000
0000
0000
0000
3010
0000
0000
0000
0010
0000
1000
0000
0100
0010
0000
0002
,  // measure 19
0000
2003
0000
3020
0000
0031
0010
2000
,  // measure 20
0000
3001
0000
0001
0012
0000
1003
1200
,  // measure 21
0000
0310
0001
1000
2010
0000
3001
0201
,  // measure 22
0000
0310
1000
0200
0000
0301
0100
1000
,  // measure 23
0020
0000
1030
0010
0010
1000
0001
2000
,  // measure 24
0002
0000
0000
0000
0000
3003
MMMM
0000
,  // measure 25
0001
0010
0001
0010
0001
0010
0001
0010
0000
0200
0000
0000
1300
0000
0000
0000
,  // measure 26
1000
0010
1000
0010
1000
0010
1000
0010
0000
0200
0000
0000
0301
0000
1000
0100
,  // measure 27
1000
0000
0000
0011
0000
0000
0001
0100
0001
0000
0000
1010
0000
0000
1000
0000
,  // measure 28
0002
0000
1003
0010
0100
0001
0010
0100
,  // measure 29
2000
0000
0000
3020
0000
0000
0031
0000
0020
0000
0000
2030
0000
0000
3001
0000
,  // measure 30
2000
0000
0000
3200
0000
0000
0301
0000
0100
0000
1000
0000
0001
0000
0200
0000
,  // measure 31
0010
0000
0000
0000
0310
0000
1000
0000
0002
0000
0000
0013
0000
0000
0001
0000
,  // measure 32
2000
3200
0302
0023
,  // measure 33
1030
0000
0000
0000
0001
0000
0010
2000
0000
0000
3010
0000
0001
0000
1000
0000
,  // measure 34
0001
0001
0100
0100
0010
0010
1000
0001
,  // measure 35
0010
0000
0001
0000
1000
0000
0010
0002
0000
0000
0013
0000
1000
0000
0001
0000
,  // measure 36
1000
1000
0100
0100
0010
0010
0001
1000
,  // measure 37
0010
1000
MMMM
0010
0001
MMMM
0010
0010
,  // measure 38
1000
0100
MMMM
0001
0010
0100
1000
0001
,  // measure 39
0102
0000
0000
0000
1003
0000
0010
1000
0020
0000
0000
0100
0000
0000
1030
0000
,  // measure 40
0002
0023
2030
3200
,  // measure 41
0301
0000
0000
0000
1000
0000
0010
0002
0000
0000
0013
0000
0100
0000
0001
0000
,  // measure 42
0010
0010
0100
0100
1000
1000
0001
0100
,  // measure 43
1000
0000
0100
0000
0001
0000
0010
2000
0000
0000
3010
0000
0100
0000
1000
0000
,  // measure 44
0010
0010
0100
0100
0001
0001
1000
0100
,  // measure 45
0010
0001
MMMM
0010
1000
MMMM
0010
0010
,  // measure 46
0001
0100
MMMM
1000
0010
0100
0001
1000
,  // measure 47
2100
0000
0000
0000
3001
0000
0010
0001
0020
0000
0000
0100
0000
0000
0031
0000
,  // measure 48
2000
3020
0032
0203
,  // measure 49
1300
1000
0010
0010
0100
0100
0001
1000
,  // measure 50
1000
0100
0100
0010
0010
0001
0100
1000
,  // measure 51
0100
0100
0001
0001
0010
0010
0100
1000
,  // measure 52
1000
0010
0010
0100
0100
0001
0010
1000
,  // measure 53
0010
0010
0001
0001
0100
0100
0010
1000
,  // measure 54
1000
0001
0001
0010
0010
0100
1000
0010
,  // measure 55
2010
0000
0000
0000
3001
0000
0100
0001
0200
0000
0000
0000
0301
0000
1000
0000
,  // measure 56
0100
0000
0001
0000
1000
0000
0010
0100
0000
0010
0000
0001
0100
0000
2000
0000
,  // measure 57
0000
3000
0000
0000
;

//---------------dance-single - ----------------
#NOTEDATA:;
#CHARTNAME:;
#STEPSTYPE:dance-single;
#DESCRIPTION:;
#CHARTSTYLE:;
#DIFFICULTY:Hard;
#METER:10;
#RADARVALUES:0.395530,0.419891,0.174190,0.504236,0.059591,302.000000,283.000000,19.000000,55.000000,0.000000,0.000000,0.000000,0.000000,0.000000,0.395530,0.419891,0.174190,0.504236,0.059591,302.000000,283.000000,19.000000,55.000000,0.000000,0.000000,0.000000,0.000000,0.000000;
#CREDIT:;
#NOTES:
// measure 0
0000
0000
0000
0000
,  // measure 1
0000
0000
0000
0000
,  // measure 2
0000
0000
0000
0000
,  // measure 3
0000
0000
0000
0000
,  // measure 4
0000
0000
0000
0000
,  // measure 5
2000
0000
0000
0000
,  // measure 6
3002
0000
0000
0000
,  // measure 7
0023
0000
0000
0030
,  // measure 8
1001
0000
0000
0000
0001
0000
1000
0001
,  // measure 9
0100
0010
1000
0000
1000
0000
0010
1000
,  // measure 10
0100
0010
0001
0000
0001
0000
0100
0010
,  // measure 11
1000
0001
0010
0000
0010
0000
0100
0010
,  // measure 12
0001
1000
0010
0000
0010
0000
1000
0100
,  // measure 13
0001
0100
1000
0000
1000
0000
0001
0100
,  // measure 14
1000
0100
0001
0000
0001
0000
1000
0100
,  // measure 15
0010
0001
1000
0000
1000
0000
0001
0100
,  // measure 16
1000
0000
0001
0000
0010
0000
0000
1000
0000
0000
0010
0000
1000
0000
0001
0000
,  // measure 17
0020
0000
0130
0000
0000
0010
0001
1000
,  // measure 18
0020
0000
0000
0000
0130
0000
0000
0000
0000
0000
0010
0000
1000
0000
0000
0002
,  // measure 19
0000
0023
0000
0230
0000
1300
1000
0002
,  // measure 20
0000
0003
1000
0010
0002
0000
0013
2000
,  // measure 21
0000
3000
0001
0010
2000
0000
3010
0002
,  // measure 22
0000
0003
1000
0020
0000
0130
0001
0010
,  // measure 23
0220
0000
0000
0300
0030
0001
1000
0002
,  // measure 24
2000
0000
0000
3003
,  // measure 25
0001
0100
1000
0000
1000
0100
0001
0000
,  // measure 26
1000
0100
0001
0000
0001
0100
1000
0010
,  // measure 27
2000
0000
0000
3001
0000
0000
0010
0000
0002
0000
0000
1003
0000
0000
0010
0000
,  // measure 28
0200
0000
0310
1000
0001
1000
0100
0010
,  // measure 29
0002
0000
0000
1003
0000
0000
0010
0000
0200
0000
0000
0301
0000
0000
0010
0000
,  // measure 30
0200
0000
0000
1300
0000
0000
0001
0000
1000
0000
0001
0000
0100
0000
0010
0000
,  // measure 31
2000
0000
3000
0001
0020
0000
0030
0000
,  // measure 32
0011
1100
1010
0101
,  // measure 33
1001
0000
0000
0000
0001
0000
0000
0020
0000
0000
0130
0000
1000
0000
0001
0000
,  // measure 34
0100
0010
0100
0010
0100
0010
1000
0100
,  // measure 35
0010
0000
0001
0000
1000
0000
0000
0020
0000
0000
0130
0000
0001
0000
1000
0000
,  // measure 36
0100
0010
0100
0010
0100
0010
0001
0100
,  // measure 37
0010
2000
0000
3010
2000
0000
3100
0100
,  // measure 38
0010
0002
0000
0013
0001
1000
0001
0100
,  // measure 39
1000
0000
0000
0000
1000
0000
0010
0000
0001
0000
0000
0100
0000
0000
0001
0000
,  // measure 40
0101
1010
1100
0011
,  // measure 41
1001
0000
0000
0000
1000
0000
0000
0020
0000
0000
0031
0000
0010
0000
1000
0000
,  // measure 42
0100
0010
0100
0010
0100
0010
0100
0001
,  // measure 43
0100
0000
1000
0000
0001
0000
0000
0020
0000
0000
1030
0000
0010
0000
0001
0000
,  // measure 44
0100
0010
0100
0010
0100
0010
0100
1000
,  // measure 45
0100
0002
0000
0103
0002
0000
0013
0010
,  // measure 46
0100
2000
0000
3100
1000
0001
1000
0010
,  // measure 47
0001
0000
0000
0000
0001
0000
0100
0000
1000
0000
0000
0100
0000
0000
1000
0000
,  // measure 48
1001
0011
1001
1010
,  // measure 49
2001
0000
3200
0000
0302
0000
0103
0020
,  // measure 50
0000
0032
0000
0203
0000
0310
1010
0000
,  // measure 51
0002
0000
0203
0000
2300
0000
3100
0020
,  // measure 52
0000
2030
0000
3200
0000
0310
0011
0000
,  // measure 53
2000
0000
3020
0000
0032
0000
0013
2000
,  // measure 54
0000
3002
0000
0023
0000
0130
1000
0010
,  // measure 55
0001
0000
0001
0100
1000
0000
1000
0010
,  // measure 56
1000
0100
0001
1000
0010
0001
0100
2000
,  // measure 57
0000
3000
0000
0000
;

//---------------dance-single - ----------------
#NOTEDATA:;
#CHARTNAME:;
#STEPSTYPE:dance-single;
#DESCRIPTION:;
#CHARTSTYLE:;
#DIFFICULTY:Medium;
#METER:6;
#RADARVALUES:0.324806,0.419891,0.293373,0.302541,0.000000,248.000000,216.000000,32.000000,33.000000,0.000000,0.000000,0.000000,0.000000,0.000000,0.324806,0.419891,0.293373,0.302541,0.000000,248.000000,216.000000,32.000000,33.000000,0.000000,0.000000,0.000000,0.000000,0.000000;
#CREDIT:;
#NOTES:
// measure 0
0000
0000
0000
0000
,  // measure 1
0000
0000
0000
0000
,  // measure 2
0000
0000
0000
0000
,  // measure 3
0000
0000
0000
0000
,  // measure 4
0000
0000
0000
0000
,  // measure 5
2000
0000
0000
0000
,  // measure 6
3002
0000
0000
0000
,  // measure 7
0023
0000
0000
0000
,  // measure 8
0130
0000
1000
0001
,  // measure 9
1000
0010
1000
0000
0010
0000
1000
0000
,  // measure 10
0001
0010
0001
0000
0010
0000
0001
0000
,  // measure 11
1000
0100
1000
0000
0100
0000
1000
0000
,  // measure 12
0001
0100
0001
0000
0100
0000
0001
0000
,  // measure 13
1000
0100
0001
0000
0100
0000
0100
0000
,  // measure 14
0001
0100
1000
0000
0100
0000
0100
0000
,  // measure 15
1000
0010
0001
0000
0010
0000
0010
0000
,  // measure 16
0001
0010
1000
0000
0100
0000
0010
0001
,  // measure 17
2000
3000
1000
0100
,  // measure 18
0002
0003
0001
0010
,  // measure 19
1000
0100
0010
0100
,  // measure 20
1000
0000
0000
0001
0100
0000
0001
0100
,  // measure 21
0000
0000
1000
0000
0100
0000
1000
0100
,  // measure 22
0000
0000
0001
1000
0000
0001
1000
0000
,  // measure 23
2002
3003
1000
0001
,  // measure 24
0220
0000
0000
0330
,  // measure 25
0001
0100
0001
0000
1000
0000
0001
0000
,  // measure 26
1000
0100
1000
0000
0001
0000
1000
0000
,  // measure 27
0010
0001
0010
1000
,  // measure 28
0100
0000
0010
0000
0001
1000
0001
0000
,  // measure 29
1000
1000
0010
0010
,  // measure 30
0100
0000
0100
0000
0001
0000
1000
0001
,  // measure 31
0020
0000
0200
0330
,  // measure 32
2000
3200
0320
0032
,  // measure 33
2003
0000
3010
0100
0010
0000
0100
0000
,  // measure 34
0101
1001
1100
0110
,  // measure 35
0011
0000
0010
0100
0010
0000
0100
0000
,  // measure 36
1100
1001
0101
0110
,  // measure 37
0010
1000
0000
0010
1000
0000
0100
0000
,  // measure 38
0010
0001
0000
0010
0001
0000
1000
0000
,  // measure 39
0002
0100
2003
0100
,  // measure 40
3002
0203
0320
2030
,  // measure 41
3001
0000
1000
0100
0010
0000
0001
0000
,  // measure 42
0101
1100
0101
0011
,  // measure 43
1001
0000
0001
0100
0010
0000
1000
0000
,  // measure 44
1100
0101
1100
1010
,  // measure 45
1000
0100
0000
1000
0100
0000
0010
0000
,  // measure 46
0001
0100
0000
0001
0100
0000
0010
0000
,  // measure 47
2000
0100
3002
0100
,  // measure 48
2003
3200
0320
0032
,  // measure 49
1003
0000
1010
0000
1001
0000
0001
0010
,  // measure 50
0000
1001
0000
0101
0000
0010
2000
0000
,  // measure 51
3001
0000
0011
0000
1001
0000
1000
0010
,  // measure 52
0000
1001
0000
1100
0000
0010
0002
0000
,  // measure 53
1003
0000
0101
0000
1100
0000
0001
0010
,  // measure 54
0000
1010
0000
0011
0000
1000
0010
0000
,  // measure 55
2000
0100
3002
0100
,  // measure 56
1003
0000
0100
0000
0001
0000
0010
2000
,  // measure 57
0000
3000
0000
0000
;

//---------------dance-single - ----------------
#NOTEDATA:;
#CHARTNAME:;
#STEPSTYPE:dance-single;
#DESCRIPTION:;
#CHARTSTYLE:;
#DIFFICULTY:Easy;
#METER:4;
#RADARVALUES:0.208243,0.261286,0.091679,0.174190,0.000000,159.000000,149.000000,10.000000,19.000000,0.000000,0.000000,0.000000,0.000000,0.000000,0.208243,0.261286,0.091679,0.174190,0.000000,159.000000,149.000000,10.000000,19.000000,0.000000,0.000000,0.000000,0.000000,0.000000;
#CREDIT:;
#NOTES:
// measure 0
0000
0000
0000
0000
,  // measure 1
0000
0000
0000
0000
,  // measure 2
0000
0000
0000
0000
,  // measure 3
0000
0000
0000
0000
,  // measure 4
0000
0000
0000
0000
,  // measure 5
2000
0000
0000
0000
,  // measure 6
3002
0000
0000
0000
,  // measure 7
0023
0000
0000
0000
,  // measure 8
0130
0000
0000
0000
,  // measure 9
1000
0010
1000
0000
,  // measure 10
1000
0100
1000
0000
,  // measure 11
0001
0010
0001
0000
,  // measure 12
0001
0100
0001
0000
,  // measure 13
1000
0100
0001
0000
,  // measure 14
0001
0100
1000
0000
,  // measure 15
1000
0010
0001
0000
,  // measure 16
0001
0010
0100
0010
,  // measure 17
2000
3000
0001
0001
,  // measure 18
0002
0003
1000
1000
,  // measure 19
1000
0000
0100
0000
,  // measure 20
0010
0000
0001
0100
,  // measure 21
0001
0000
1000
0100
,  // measure 22
1000
0000
0001
0100
,  // measure 23
0220
0330
0100
0010
,  // measure 24
2002
0000
0000
3003
,  // measure 25
1000
0100
0001
0000
,  // measure 26
0001
0100
1000
0000
,  // measure 27
0001
0000
0001
0000
,  // measure 28
1000
0010
0001
0010
,  // measure 29
1000
0000
0100
0000
,  // measure 30
0010
0000
0100
1000
,  // measure 31
0002
0000
2000
3003
,  // measure 32
0100
0010
0100
0010
,  // measure 33
2002
3003
1000
0000
,  // measure 34
1000
0100
0001
0100
,  // measure 35
1001
0000
0001
0000
,  // measure 36
0001
0100
1000
0100
,  // measure 37
1001
0000
0001
0100
,  // measure 38
1001
0000
1000
0100
,  // measure 39
0020
0000
0200
0330
,  // measure 40
0100
0010
0100
0010
,  // measure 41
1001
0000
0010
0000
,  // measure 42
0001
0010
1000
0010
,  // measure 43
1001
0000
0010
0000
,  // measure 44
1000
0010
0001
0010
,  // measure 45
1001
0000
1000
0010
,  // measure 46
1001
0000
0001
0010
,  // measure 47
0200
0000
0020
0330
,  // measure 48
0001
0100
0010
1000
,  // measure 49
0010
0010
0010
0000
,  // measure 50
1000
0001
1000
0001
,  // measure 51
0010
0010
0010
0000
,  // measure 52
0001
1000
0001
1000
,  // measure 53
0010
0010
0010
0000
,  // measure 54
1000
0100
0010
0001
,  // measure 55
2000
0000
0002
3003
,  // measure 56
0001
0100
1000
0010
,  // measure 57
0001
0000
0000
0000
;

//---------------dance-single - ----------------
#NOTEDATA:;
#CHARTNAME:;
#STEPSTYPE:dance-single;
#DESCRIPTION:;
#CHARTSTYLE:;
#DIFFICULTY:Beginner;
#METER:1;
#RADARVALUES:0.085131,0.130643,0.027504,0.091679,0.000000,65.000000,62.000000,3.000000,10.000000,0.000000,0.000000,0.000000,0.000000,0.000000,0.085131,0.130643,0.027504,0.091679,0.000000,65.000000,62.000000,3.000000,10.000000,0.000000,0.000000,0.000000,0.000000,0.000000;
#CREDIT:;
#NOTES:
// measure 0
0000
0000
0000
0000
,  // measure 1
0000
0000
0000
0000
,  // measure 2
0000
0000
0000
0000
,  // measure 3
0000
0000
0000
0000
,  // measure 4
0000
0000
0000
0000
,  // measure 5
2000
0000
3000
0000
,  // measure 6
0002
0000
0003
0000
,  // measure 7
2000
0000
3000
0000
,  // measure 8
1001
0000
0000
0000
,  // measure 9
1000
0000
0000
0000
,  // measure 10
0100
0000
0000
0000
,  // measure 11
0010
0000
0000
0000
,  // measure 12
0001
0000
0000
0000
,  // measure 13
0100
0000
0000
0000
,  // measure 14
0010
0000
0000
0000
,  // measure 15
1000
0000
0000
0000
,  // measure 16
0001
0000
0000
0000
,  // measure 17
1000
0000
0000
0000
,  // measure 18
0001
0000
0000
0000
,  // measure 19
0010
0000
0010
0000
,  // measure 20
0010
0000
0000
0000
,  // measure 21
0001
0000
0000
0000
,  // measure 22
1000
0000
0000
0000
,  // measure 23
0010
0000
0000
0000
,  // measure 24
0200
0000
0300
0000
,  // measure 25
0010
0000
0000
0000
,  // measure 26
0010
0000
0000
0000
,  // measure 27
1000
0000
0000
0000
,  // measure 28
0001
0000
0000
0000
,  // measure 29
1000
0000
0000
0000
,  // measure 30
0100
0000
0000
0000
,  // measure 31
0020
0000
0030
0000
,  // measure 32
0001
0000
0001
0000
,  // measure 33
0001
0000
0000
0000
,  // measure 34
0100
0000
0100
0000
,  // measure 35
0100
0000
0000
0000
,  // measure 36
0010
0000
0010
0000
,  // measure 37
0010
0000
0000
0000
,  // measure 38
0010
0000
0000
0000
,  // measure 39
2002
0000
3003
0000
,  // measure 40
1000
0000
1000
0000
,  // measure 41
1000
0000
0000
0000
,  // measure 42
0100
0000
0100
0000
,  // measure 43
0100
0000
0000
0000
,  // measure 44
0010
0000
0010
0000
,  // measure 45
0010
0000
0000
0000
,  // measure 46
0010
0000
0000
0000
,  // measure 47
2002
0000
3003
0000
,  // measure 48
0001
0000
0001
0000
,  // measure 49
0001
0000
0000
0000
,  // measure 50
0010
0000
0000
0000
,  // measure 51
1000
0000
0000
0000
,  // measure 52
0100
0000
0000
0000
,  // measure 53
0001
0000
0000
0000
,  // measure 54
0010
0000
0000
0000
,  // measure 55
0200
0000
0300
0000
,  // measure 56
1000
0000
0001
0000
,  // measure 57
1000
0000
0000
0000
;
