#TITLE:MAGICAL SUMMER SMILE;
#SUBTITLE:;
#ARTIST:wac feat. VENUS;
#TITLETRANSLIT:;
#SUBTITLETRANSLIT:;
#ARTISTTRANSLIT:;
#GENRE:Cyber Pop;
#CREDIT:;
#BANNER:MAGICAL SUMMER SMILE.png;
#BACKGROUND:MAGICAL SUMMER SMILE-bg.png;
#LYRICSPATH:;
#CDTITLE:cdtitle.png;
#MUSIC:MAGICAL SUMMER SMILE.ogg;
#OFFSET:0.706900;
#SAMPLESTART:81.296097;
#SAMPLELENGTH:19.692307;
#SELECTABLE:YES;
#BPMS:0.000000=195.000000
;
#STOPS:
;
#BGCHANGES:;
#KEYSOUNDS:;
#ATTACKS:;

//---------------dance-single - ----------------
#NOTES:
     dance-single:
     :
     Challenge:
     14:
     0.671447,0.718601,0.329256,0.592661,0.078198,571.000000,531.000000,40.000000,72.000000,0.000000,0.000000,0.671447,0.718601,0.329256,0.592661,0.078198,571.000000,531.000000,40.000000,72.000000,0.000000,0.000000:
0000
0000
0000
0000
,
0000
0000
0000
0000
,
0000
0000
0000
0000
,
0000
0000
0000
0000
,
0000
0000
0000
0000
,
0000
0000
0000
0000
,
0000
0000
0000
0000
,
0000
0000
0000
0000
,
0000
0000
0000
0000
,
0000
0000
1000
0000
0200
0000
0300
1000
,
0010
1000
0000
0200
0000
0300
1000
0020
,
0000
0030
0100
0001
0000
0010
0000
0002
,
0000
0003
0010
0000
0001
0100
0000
0000
,
0202
0000
0303
0000
1000
0001
0000
2200
,
0000
0000
0000
0000
3300
0000
1000
0100
,
0010
0000
0100
0010
0000
0001
0000
0100
,
0000
0010
0100
0001
0000
0010
0100
1000
,
0001
0000
0000
0000
0000
0100
0010
1000
,
0000
0000
0000
0000
0000
0000
0100
0010
,
0002
0000
0000
0000
,
2003
0000
0000
0000
0010
0000
0000
0000
3001
0000
1000
0001
1000
0000
0000
0000
,
0010
0000
1000
0010
1000
0010
1000
0200
,
0000
0310
0001
0010
0001
0100
0010
2000
,
0000
3100
0010
0001
1000
0100
0010
0001
,
0100
0000
0100
0000
0100
0000
0100
0000
0100
0000
0010
0100
0010
0000
1000
0000
,
0002
0000
0000
0000
0013
0001
0020
0000
0000
0000
0031
0000
1000
0000
0010
0000
,
2000
0000
0000
0000
3010
1000
0020
0000
0000
0000
1030
0000
0001
0000
0010
0000
,
0001
0000
0100
0000
0000
0000
0100
0001
0100
0000
0001
0000
1000
0000
0100
0000
,
0010
0001
0010
0000
0000
0000
1001
0000
0000
0000
1000
0000
0010
0000
0100
0000
,
0002
0000
0000
0000
0103
0001
0200
0000
0000
0000
0301
0000
1000
0000
0100
0000
,
2000
0000
0000
0000
3100
1000
0200
0000
0000
0000
1300
0000
0001
0000
0100
0000
,
0001
0000
0010
0000
0000
0000
0010
0100
0010
0000
0100
0000
1000
0000
0010
0000
,
0110
0000
0000
0000
0001
0000
1000
0001
1000
0000
0100
0000
0010
0000
0001
0000
,
1000
0000
1000
0010
1000
0010
0100
1000
,
0100
0010
0100
1000
0100
0001
1000
0100
,
0010
0000
1100
0000
0011
0000
0001
0010
,
1000
0010
0001
1000
0010
1000
0010
0100
,
0001
0000
0001
0010
0001
0010
0100
0001
,
0100
0010
0100
0001
0100
1000
0001
0100
,
0010
0000
1000
0010
1000
0001
0010
0002
,
0000
1000
2003
0000
3010
0010
1001
0000
,
1000
0000
0010
1000
0010
1000
0100
0010
,
1000
0010
0100
2000
0000
3001
0001
0010
,
0001
0000
0010
0001
0010
0001
0100
0010
,
0001
0010
0100
0002
0000
1000
1003
0010
,
1000
0000
0001
0010
0100
0010
0100
2000
,
0000
3010
0100
0002
0000
0013
0100
1000
,
1001
0000
0101
0001
1000
1000
0000
1100
,
0000
1000
0001
0001
0100
0010
1000
0001
,
2000
0000
0100
3200
0000
0001
0302
0000
,
0103
0001
0100
1000
0001
0010
0100
1000
,
0002
0000
0100
0203
0000
1000
2300
0000
,
3100
1000
0100
0001
1000
0010
0100
0001
,
0020
0000
0100
0230
0000
1000
2300
0000
,
3001
0100
0010
0100
0010
1000
0100
0010
,
0200
0000
0010
0000
0310
0100
0010
0000
,
0001
0000
0011
0000
0000
0000
1010
0000
0000
0000
1000
0010
1000
0000
0010
0000
,
2000
0000
0010
3020
0000
0001
0032
0000
,
0013
0000
0001
0000
0010
0000
1000
0000
0000
0000
0010
0000
1000
0010
1000
0000
,
0002
0000
0010
0023
0000
1000
2030
0000
,
3010
0000
1000
0000
0010
0000
0001
0000
0000
0000
0010
0001
0010
0000
0001
0000
,
1000
0010
0100
0020
0000
0100
0130
0010
,
1000
0100
0010
0002
0000
0010
0013
0000
,
0012
0000
0000
0100
0200
0000
0003
0301
,
0000
0101
0000
0011
0011
0000
1000
0010
,
2010
0000
0000
0100
3100
1000
0010
1010
,
0000
0000
1001
0000
0011
0000
0000
0000
0000
0000
0001
1000
0001
0000
1000
0000
,
0010
0000
0010
1000
0100
1000
0010
0010
,
0000
0000
1001
0000
0000
0000
0010
0001
0010
0000
0001
0000
0100
0000
0010
0000
,
2000
0000
3100
0002
0000
2003
0000
3020
,
0000
0001
0031
0000
0010
0100
1000
0000
,
0002
0100
0103
0010
2000
0010
3010
1000
,
0200
1000
1300
0100
0020
0001
0031
1000
,
0020
0000
1000
0000
0130
0001
0010
1100
,
0000
1010
0000
0101
0000
1000
0010
0100
,
0001
0000
1001
0000
0010
0001
0100
0001
,
0010
0000
0010
0000
0000
0000
1001
0000
0000
0000
0010
1000
0010
0000
2000
0000
,
0000
3001
0100
2000
0000
3002
0000
0023
,
0000
1000
1030
0000
0010
0100
0001
1000
,
0200
0000
0310
0001
1000
0100
0010
0002
,
0000
0100
0103
0010
1000
0001
0100
0010
,
2000
0000
0001
3001
0000
0110
0000
1001
,
0000
1000
0010
1010
0000
1000
0001
0010
,
0012
0000
0100
2003
,
3020
0000
0000
0000
2030
0000
3100
0010
,
0110
0000
0001
1001
0000
0100
0000
0110
,
0000
0000
1000
0000
0001
0000
1000
0001
1000
0000
0000
0000
0110
0000
0000
0000
,
2001
0000
3100
0010
0001
1000
0100
0001
,
0100
0100
0001
0100
1000
0001
0100
0010
,
2000
0000
0010
3020
0000
0130
0001
0010
,
0100
0000
1100
0000
0000
0000
0011
0000
0000
0000
0010
0000
0100
0010
0100
0000
,
1000
0001
0100
0010
1000
0001
0100
1000
,
0100
0100
1000
0100
0001
1000
0100
0010
,
0002
0000
0000
0000
0013
0100
0010
0000
0100
0000
0010
0000
0100
0000
1000
0000
,
0010
0101
0000
1001
0000
1100
0010
0001
,
0200
0000
0000
0000
,
0000
0000
0000
0000
,
0300
0000
0000
0000
;

//---------------dance-single - ----------------
#NOTES:
     dance-single:
     :
     Hard:
     11:
     0.525634,0.638757,0.329256,0.666744,0.000000,447.000000,407.000000,40.000000,81.000000,0.000000,0.000000,0.525634,0.638757,0.329256,0.666744,0.000000,447.000000,407.000000,40.000000,81.000000,0.000000,0.000000:
// measure 0
0000
0000
0000
0000
,  // measure 1
0000
0000
0000
0000
,  // measure 2
0000
0000
0000
0000
,  // measure 3
0000
0000
0000
0000
,  // measure 4
0000
0000
0000
0000
,  // measure 5
0000
0000
0000
0000
,  // measure 6
0000
0000
0000
0000
,  // measure 7
0000
0000
0000
0000
,  // measure 8
0000
0000
0000
0000
,  // measure 9
0000
0000
1000
0000
2000
0000
3000
0010
,  // measure 10
1000
0010
0000
2000
0000
3000
0001
0020
,  // measure 11
0000
0030
0001
0010
0000
0001
0000
0002
,  // measure 12
0000
0003
1000
0000
0001
1000
0000
0000
,  // measure 13
0202
0000
0303
0000
0001
1000
0000
2200
,  // measure 14
0000
0000
0000
0000
3300
0000
1000
0100
,  // measure 15
0010
0000
0100
0010
0000
0001
0000
0001
,  // measure 16
0000
1000
0010
1000
0000
0001
0100
0001
,  // measure 17
1000
0000
0000
0000
0000
0001
0010
0001
,  // measure 18
0000
0000
0000
0000
0000
0000
1000
0010
,  // measure 19
2000
0000
0000
0000
,  // measure 20
3002
0000
1000
0000
1003
0001
1001
0000
,  // measure 21
1000
0100
0000
0010
0000
0001
0000
0001
,  // measure 22
0000
0100
0000
0010
0000
1000
0010
2000
,  // measure 23
0000
0010
0010
0000
3001
0000
2000
0000
,  // measure 24
3200
0000
0000
0302
0000
0103
1000
0000
,  // measure 25
0002
0000
0000
0203
0000
0001
0301
0000
,  // measure 26
2000
0000
0000
3200
0000
1000
1300
0000
,  // measure 27
0001
0001
0000
0100
0001
0000
0100
0010
,  // measure 28
1000
0100
0000
0110
0000
0010
0001
0000
,  // measure 29
2000
0000
0000
3020
0000
1000
1030
0000
,  // measure 30
0002
0000
0000
0023
0000
0001
0031
0000
,  // measure 31
1000
1000
0000
0010
1000
0000
0010
1000
,  // measure 32
0100
0010
0000
0110
0000
1001
0000
0000
,  // measure 33
0001
0000
0010
0001
0010
0000
0001
0100
,  // measure 34
0001
0000
0100
0010
0100
0000
1010
0000
,  // measure 35
0101
0000
1000
0000
1000
0000
0100
0010
,  // measure 36
0100
0010
0001
2000
0000
0010
3010
0000
,  // measure 37
0100
0000
0010
1000
0010
0000
1000
0100
,  // measure 38
1000
0000
0100
0010
0100
0000
0011
0000
,  // measure 39
1100
0000
0001
0100
0001
0100
0010
1000
,  // measure 40
0000
0100
0010
0000
0001
0100
0010
0000
,  // measure 41
1000
0000
0001
0010
0001
0000
0100
0001
,  // measure 42
0100
0000
1000
0200
0000
0001
0301
0000
,  // measure 43
0001
0000
1000
0010
1000
0000
0100
1000
,  // measure 44
0100
0000
0001
0200
0000
1000
1300
0000
,  // measure 45
1000
0000
0001
0010
0001
0000
1000
0020
,  // measure 46
0000
0130
0001
0020
0000
0000
0130
0000
,  // measure 47
0110
0000
1001
0000
0010
0010
0000
1100
,  // measure 48
0000
0010
0010
0000
0101
0000
1000
0001
,  // measure 49
2000
0000
0000
3200
0000
0000
0302
0000
,  // measure 50
0103
1000
0100
2000
0000
0001
3001
0000
,  // measure 51
0002
0000
0000
0203
0000
0000
2300
0000
,  // measure 52
3100
0001
0100
0002
0000
1000
1003
0000
,  // measure 53
2200
0000
3300
0022
0000
0033
1001
0000
,  // measure 54
0001
0100
0000
0110
0000
0010
1000
0000
,  // measure 55
0002
0000
0000
0000
1003
0001
1000
0000
,  // measure 56
0100
0100
0000
1001
0000
1000
0001
0000
,  // measure 57
2000
0000
0000
3020
0000
0000
0032
0000
,  // measure 58
0013
0100
0010
2000
0000
3010
1000
0000
,  // measure 59
0002
0000
0000
0023
0000
0000
2030
0000
,  // measure 60
3010
0100
0010
0002
0000
0013
0001
0000
,  // measure 61
0100
0010
1000
0020
0000
1000
1030
0000
,  // measure 62
0100
0010
0001
0020
0000
0001
0031
0000
,  // measure 63
1001
0000
0000
0001
0100
0000
0000
0101
,  // measure 64
0000
1100
0000
1000
0010
0000
1000
0001
,  // measure 65
1001
0000
0000
1000
0100
0000
0000
1001
,  // measure 66
0000
0001
0020
0000
0030
0000
1001
0000
,  // measure 67
0010
0000
1000
0000
0010
1000
0100
0010
,  // measure 68
0000
0010
0000
0100
0010
0100
0010
0001
,  // measure 69
2000
0000
3010
0002
0000
0023
0000
2030
,  // measure 70
0000
3010
2000
0000
3100
0010
0001
0000
,  // measure 71
2000
0100
3002
0100
,  // measure 72
2003
0010
3002
0010
,  // measure 73
2003
0000
0010
0000
3010
0100
0001
1000
,  // measure 74
0000
1001
0000
1001
0000
0100
0010
0100
,  // measure 75
0000
0000
1001
0000
0110
0000
1000
0010
,  // measure 76
0100
0001
0000
0001
0000
1000
0100
0020
,  // measure 77
0000
0031
0010
2000
0000
3020
0000
0032
,  // measure 78
0000
1000
1003
0000
0001
0100
0010
0000
,  // measure 79
2000
0000
3100
0000
0010
0001
0000
1002
,  // measure 80
0000
0000
0103
0000
0100
0000
0001
1000
,  // measure 81
0200
0000
0010
0310
0000
0110
0000
1001
,  // measure 82
0000
0001
0100
0010
0000
1000
0100
0010
,  // measure 83
0002
0000
1003
0020
,  // measure 84
2030
0000
0000
0000
3200
0000
0310
0001
,  // measure 85
0011
0000
0000
0101
0000
1100
0000
1010
,  // measure 86
0000
1000
0010
0100
0001
0000
0110
0000
,  // measure 87
2001
0000
0100
0000
0001
0000
3010
2000
,  // measure 88
0100
0000
0001
0000
3100
1000
0010
1000
,  // measure 89
0200
0000
0000
0302
0000
0000
0103
0010
,  // measure 90
0100
1000
0000
1001
0000
1000
0010
0100
,  // measure 91
0002
0000
0100
0000
1000
0000
0013
0002
,  // measure 92
0100
0000
1000
0000
0103
0001
0010
0001
,  // measure 93
0200
0000
0000
2300
0000
0000
3100
0001
,  // measure 94
0100
0100
0000
1001
0000
0010
1000
0100
,  // measure 95
0020
0000
0000
0000
,  // measure 96
0000
0000
0000
0000
,  // measure 97
0030
0000
0000
0000
;

//---------------dance-single - ----------------
#NOTES:
     dance-single:
     :
     Medium:
     9:
     0.417450,0.518990,0.279868,0.642049,0.000000,355.000000,321.000000,34.000000,78.000000,0.000000,0.000000,0.417450,0.518990,0.279868,0.642049,0.000000,355.000000,321.000000,34.000000,78.000000,0.000000,0.000000:
0000
0000
0000
0000
,
0000
0000
0000
0000
,
0000
0000
0000
0000
,
0000
0000
0000
0000
,
0000
0000
0000
0000
,
0000
0000
0000
0000
,
0000
0000
0000
0000
,
0000
0000
0000
0000
,
0000
0000
0000
0000
,
0000
1000
0020
0030
,
1000
0000
0000
0020
0000
0030
0000
0200
,
0000
0300
0000
0001
0000
1000
0000
0200
,
0000
0300
0010
0000
0001
0000
0000
0000
,
2002
0000
3003
0000
0010
0000
0000
2002
,
0000
0000
3003
1000
,
0100
0000
0000
1000
0000
0100
0000
0010
,
0000
0001
0000
0100
0000
0010
0000
2000
,
0000
0000
0000
0000
,
0002
0000
0000
0000
3003
0000
0100
0010
,
0200
0000
0000
0000
,
0020
0000
0330
1001
,
1000
0010
1000
0010
,
0100
0001
0010
0001
,
0010
0100
1000
0001
,
0200
0000
0300
0110
,
0002
0000
0000
0203
0000
0000
0301
0100
,
0002
0000
0000
0203
0000
0000
0301
0100
,
0001
0000
0000
0100
0001
0000
0010
0000
,
0001
1000
0000
0010
0000
1000
0001
0000
,
2000
0000
0000
3200
0000
0000
1300
0100
,
2000
0000
0000
3200
0000
0000
1300
0100
,
1000
0000
0000
0100
1000
0000
0010
0000
,
1000
0100
0000
0010
0000
0001
0000
1001
,
0000
0001
0100
0010
,
1000
0000
0010
1000
0010
0000
1010
0000
,
0000
0010
1000
0100
,
0010
0000
0001
0100
0000
0100
0010
0000
,
0000
1000
0100
0010
,
0001
0000
0010
0001
0010
0000
0011
0000
,
0000
0000
0010
0000
0001
0000
0100
0010
,
0000
0010
1000
0000
0110
0000
1001
0000
,
0000
0000
1000
0100
0010
0000
0100
0000
,
0010
0000
0100
1000
0010
0000
1010
0000
,
0000
0000
0001
0100
0010
0000
0100
0000
,
0010
0000
0100
0001
0010
0000
0011
0000
,
0000
0000
0001
1000
0001
0000
0100
0000
,
0001
0000
1000
0001
1000
0000
0100
0000
,
0110
0000
0000
0011
0000
0100
0000
1010
,
0000
0000
0110
0000
0001
1000
0001
0000
,
2000
0000
0000
3200
0000
0000
0302
0000
,
0203
0000
0000
2300
0000
0000
3001
0000
,
0002
0000
0000
0203
0000
0000
2300
0000
,
3200
0000
0000
0302
0000
0000
1003
0000
,
2000
0000
0000
3200
0000
0000
0320
0000
,
0032
0000
0000
0203
0000
0000
0310
0000
,
0220
0000
0330
0000
1000
0001
1000
0000
,
1001
0000
0000
0110
0000
0000
1001
0000
,
2000
0000
0000
3020
0000
0000
0032
0000
,
0023
0000
0000
2030
0000
0000
3001
1000
,
0002
0000
0000
0023
0000
0000
2030
0000
,
3020
0000
0000
0032
0000
0000
1003
0001
,
1000
0000
0000
1010
0000
0000
0001
1000
,
0001
0000
0000
0011
0000
0000
1000
0000
,
1001
0000
0000
0001
0100
0000
0000
0001
,
0000
0001
0000
1000
0100
0000
1000
0000
,
1001
0000
0000
1000
0010
0000
0010
1000
,
0000
0002
0020
0000
0000
0000
0033
0000
,
0001
0000
0010
0000
0100
0000
0010
0001
,
0000
0011
0000
0000
1000
0010
1000
0000
,
0001
0000
0010
0002
0000
0203
0000
0320
,
0000
0000
0130
0000
0001
0100
0001
0000
,
2000
0000
3200
0000
,
0320
0000
0032
0000
,
0203
0000
0000
0000
0310
0100
0010
0100
,
0000
0001
0000
1000
0000
0100
0010
0001
,
0000
0000
1001
0000
1001
0000
0000
0001
,
0010
0001
0000
0011
0000
0000
1000
0010
,
1000
0000
0010
2000
0000
3200
0000
0320
,
0000
0000
0130
0000
1000
0100
1000
0000
,
0002
0000
0100
0000
2003
0000
0000
3200
,
0000
0000
1000
0000
1300
0000
0100
0010
,
0100
0000
0010
0001
0000
0100
0000
0010
,
0000
1000
0010
1000
0000
0001
0010
0002
,
0000
0000
0000
0023
,
0230
0000
0000
0000
2300
0000
3001
0100
,
0010
0000
0000
0101
0000
0010
0000
1100
,
0000
0000
0000
0100
0010
0000
0110
0000
,
2001
0000
0010
0000
3010
0000
1000
0002
,
1000
0000
0010
0000
0013
0000
0001
1000
,
0002
0000
0000
0203
0000
0000
0310
0000
,
1000
0100
0000
0010
0000
0100
1000
0000
,
0002
0000
0100
0000
0103
0000
0001
2000
,
0001
0000
0100
0000
3100
0000
1000
0001
,
2000
0000
0000
3020
0000
0000
0130
0001
,
1000
0100
0000
0110
0000
0011
0000
0000
,
2002
0000
0000
0000
,
0000
0000
0000
0000
,
3003
0000
0000
0000
;

//---------------dance-single - ----------------
#NOTES:
     dance-single:
     :
     Easy:
     6:
     0.290451,0.479068,0.189322,0.312793,0.000000,247.000000,224.000000,23.000000,38.000000,0.000000,0.000000,0.290451,0.479068,0.189322,0.312793,0.000000,247.000000,224.000000,23.000000,38.000000,0.000000,0.000000:
0000
0000
0000
0000
,
0000
0000
0000
0000
,
0000
0000
0000
0000
,
0000
0000
0000
0000
,
0000
0000
0000
0000
,
0000
0000
0000
0000
,
0000
0000
0000
0000
,
0000
0000
0000
0000
,
0000
0000
0000
0000
,
0000
1000
1000
0000
,
0010
0000
1000
0000
,
0001
0000
0010
0010
,
0010
0000
0001
0000
,
0100
0000
0010
0000
,
0200
0000
0300
0010
,
0010
0000
0010
0000
,
1001
0000
0110
0000
,
2002
0000
0000
0000
,
3003
0000
0000
0000
,
0200
0000
0000
0000
,
0020
0000
0000
0330
,
1000
0001
1000
0000
,
0001
0010
0001
0000
,
1000
0010
1000
0000
,
0002
0000
0003
1001
,
2000
0000
3100
0000
,
2000
0000
3100
0000
,
1000
0000
1000
0100
,
0010
0001
1000
0000
,
0002
0000
0103
0000
,
0002
0000
0103
0000
,
0001
0000
0001
0100
,
0010
1000
0001
0000
,
1000
1000
1000
0000
,
1000
0100
1000
0000
,
0010
0010
0010
0000
,
1000
0010
0100
0000
,
0001
0001
0001
0000
,
0001
0100
0001
0000
,
0010
0010
0010
0000
,
0001
0010
0100
0000
,
1000
1000
1000
0000
,
0010
1000
0001
0000
,
0001
0001
0001
0000
,
0010
0001
1000
0000
,
0001
0001
0100
0000
,
1000
1000
0100
0000
,
1001
0000
1001
0000
,
0001
0010
0100
1000
,
0020
0000
1030
0000
,
0010
1000
0100
0000
,
0020
0000
0031
0000
,
0010
0001
0100
0000
,
0002
0000
1003
0000
,
0001
1000
0001
0000
,
2001
0000
0000
3100
,
0010
0000
0100
0010
,
0002
0000
0103
0000
,
1000
0100
0001
0000
,
2000
0000
3100
0000
,
0001
0100
1000
0000
,
1010
0000
0001
0000
,
0101
0000
1000
0000
,
0010
0000
0100
0000
,
0010
0010
0010
0000
,
1000
0000
0000
0000
0001
0000
0000
2002
,
0000
0000
0000
3003
,
0001
0010
0001
0010
,
0100
0000
0010
0000
,
0001
0010
0100
1000
,
0001
0000
0001
0100
,
0020
0000
2030
0000
,
3002
0000
0023
0000
,
0230
0000
1300
0001
,
0100
0000
0110
0110
,
0000
1001
1000
0000
,
0010
0100
0010
0000
,
1000
0010
0100
0001
,
1000
0000
1000
0100
,
0020
0000
0031
0100
,
0020
0000
1030
0000
,
0001
1000
0001
1000
,
0100
0010
0100
0010
,
0002
0000
0000
0203
,
0320
0000
2030
3001
,
1001
0000
0000
1001
0000
0000
0000
1001
,
0000
0000
1001
0110
,
2001
0000
3010
1000
,
0200
0000
0310
0001
,
0200
0000
0320
0000
,
1030
1000
0010
0100
,
0002
0000
0013
0001
,
0200
0000
0310
1000
,
0200
0000
0310
0100
,
1001
0000
0000
1001
0000
1001
0000
0000
,
2002
0000
0000
0000
,
0000
0000
0000
0000
,
3003
0000
0000
0000
;

//---------------dance-single - ----------------
#NOTES:
     dance-single:
     :
     Beginner:
     3:
     0.154045,0.234595,0.065851,0.189322,0.000000,131.000000,123.000000,8.000000,23.000000,0.000000,0.000000,0.154045,0.234595,0.065851,0.189322,0.000000,131.000000,123.000000,8.000000,23.000000,0.000000,0.000000:
0000
0000
0000
0000
,
0000
0000
0000
0000
,
0000
0000
0000
0000
,
0000
0000
0000
0000
,
0000
0000
0000
0000
,
0000
0000
0000
0000
,
0000
0000
0000
0000
,
0000
0000
0000
0000
,
0000
0000
0000
0000
,
0000
0000
1000
0000
,
0000
0000
0001
0000
,
0000
0000
1000
0000
,
0001
0000
1000
0000
,
0002
0000
0003
0000
,
2000
0000
3000
0000
,
0010
0000
0000
0000
,
0100
0000
0000
0000
,
0002
0000
0000
0000
,
0003
0000
0000
0000
,
2000
0000
0000
0000
,
3000
0000
0000
0000
,
0100
0000
0100
0000
,
0010
0000
0010
0000
,
0200
0000
0300
0000
,
1000
0000
0001
0000
,
2000
0000
3000
0000
,
2000
0000
3000
0000
,
1000
0000
1000
0000
,
0010
0000
1000
0000
,
0002
0000
0003
0000
,
0002
0000
0003
0000
,
0001
0000
0001
0000
,
0010
0000
0001
0000
,
0000
0000
1000
0000
,
0010
0000
1000
0000
,
0000
0000
0001
0000
,
0010
0000
0001
0000
,
0000
0000
1000
0000
,
0100
0000
1000
0000
,
0000
0000
0001
0000
,
0100
0000
0001
0000
,
0000
0000
1000
0000
,
0100
0000
0010
0000
,
0000
0000
0001
0000
,
0100
0000
0010
0000
,
0000
0000
0100
0000
,
0100
0000
0100
0000
,
1001
0000
0000
0000
,
0110
0000
0000
0000
,
0001
0000
0010
0000
,
0100
0000
0000
0000
,
0010
0000
0100
0000
,
1000
0000
0000
0000
,
0100
0000
1000
0000
,
0001
0000
0000
0000
,
0200
0000
0300
0000
,
0010
0000
0010
0000
,
1000
0000
0010
0000
,
0100
0000
0000
0000
,
0010
0000
0100
0000
,
0001
0000
0000
0000
,
1001
0000
0000
0000
,
0110
0000
0000
0000
,
0001
0000
0001
0000
,
1000
0000
1000
0000
,
0001
0000
1000
0000
,
1001
0000
0000
0000
,
0001
0000
0001
0000
,
0010
0000
0000
0000
,
0001
0000
0010
0000
,
0100
0000
1000
0000
,
0002
0000
0003
0000
,
0200
0000
0300
0000
,
0020
0000
0030
0000
,
1000
0000
0010
0010
,
0000
1000
1000
0000
,
0010
0000
0000
0000
,
1000
0000
0010
0000
,
0100
0000
0001
0000
,
2000
0000
3000
0000
,
0002
0000
0003
0000
,
1000
0000
1000
0000
,
0001
0000
0001
0000
,
0020
0000
0030
0000
,
0200
0000
0300
0000
,
0110
0000
0000
0000
,
0000
0000
0000
0000
,
0002
0000
0003
0010
,
0020
0000
0030
0001
,
0002
0000
0003
0000
,
0100
0000
0010
0000
,
2000
0000
3000
0010
,
0020
0000
0030
1000
,
2000
0000
3000
0000
,
0110
0000
0000
0000
,
1001
0000
0000
0000
;
