#VERSION:0.83;
#TITLE:Luigi's Mansion;
#SUBTITLE:;
#ARTIST:Pegboard Nerds;
#TITLETRANSLIT:;
#SUBTITLETRANSLIT:;
#ARTISTTRANSLIT:;
#GENRE:Haunted Dubstep;
#ORIGIN:;
#CREDIT:;
#BANNER:Luigi's Mansion.png;
#BACKGROUND:Luigi's Mansion-bg.png;
#PREVIEWVID:;
#JACKET:Luigi's Mansion-jacket.png;
#CDIMAGE:;
#DISCIMAGE:;
#LYRICSPATH:;
#CDTITLE:cdtitle.png;
#MUSIC:Luigi's Mansion.ogg;
#OFFSET:-0.451202;
#SAMPLESTART:73.278793;
#SAMPLELENGTH:13.201378;
#SELECTABLE:YES;
#BPMS:0.000=145.000,
32.000=72.500,
40.000=145.000,
117.000=72.500,
141.000=145.000,
173.000=72.500,
181.000=145.000;
#STOPS:52.000=1.241;
#DELAYS:;
#WARPS:;
#TIMESIGNATURES:0.000=4=4;
#TICKCOUNTS:0.000=4;
#COMBOS:0.000=1;
#SPEEDS:0.000=1.000=0.000=0;
#SCROLLS:0.000=1.000;
#FAKES:;
#LABELS:0.000=Song Start;
#BGCHANGES:;
#KEYSOUNDS:;
#ATTACKS:
;

//---------------dance-single - ----------------
#NOTEDATA:;
#CHARTNAME:;
#STEPSTYPE:dance-single;
#DESCRIPTION:;
#CHARTSTYLE:;
#DIFFICULTY:Challenge;
#METER:12;
#RADARVALUES:0.509842,0.920785,0.603731,0.779501,0.248370,467.000000,388.000000,79.000000,102.000000,55.000000,7.000000,10.000000,0.000000,8.000000,0.509842,0.920785,0.603731,0.779501,0.248370,467.000000,388.000000,79.000000,102.000000,55.000000,7.000000,10.000000,0.000000,8.000000;
#CREDIT:;
#OFFSET:-0.451202;
#BPMS:0.000000=145.000000
,170.000000=73.088997
,170.750000=72.500000
,172.000000=145.000000
,172.125000=72.035004
,173.062500=72.500000
,188.062500=36.250000
,188.125000=72.500000
,205.000000=145.000000
;
#STOPS:;
#DELAYS:;
#WARPS:60.000000=16.000000
,112.000000=16.000000
,188.500000=16.000000
,237.000000=16.000000
,286.000000=16.000000
,331.000000=16.000000
,379.000000=16.000000
;
#TIMESIGNATURES:0.000000=4=4
;
#TICKCOUNTS:0.000000=4
;
#COMBOS:0.000000=1
;
#SPEEDS:0.000000=1.000000=0.000000=0
,60.000000=0.000000=0.000000=0
,76.000000=1.000000=3.000000=0
,331.000000=0.000000=0.000000=0
,347.000000=1.000000=2.000000=0
;
#SCROLLS:0.000000=1.000000
,32.000000=0.500000
,48.000000=1.000000
,76.000000=0.000000
,78.000000=-0.200000
,78.250000=-0.400000
,78.500000=-0.600000
,78.750000=-0.800000
,79.000000=-1.000000
,79.250000=-0.500000
,79.500000=0.000000
,79.750000=3.500000
,80.000000=1.000000
,128.000000=0.500000
,130.000000=1.000000
,160.500000=0.975000
,161.000000=0.950000
,161.500000=0.925000
,162.000000=0.900000
,162.500000=0.875000
,163.000000=0.850000
,163.500000=0.825000
,164.000000=0.800000
,164.500000=0.775000
,165.000000=0.750000
,165.500000=0.725000
,166.000000=0.700000
,166.500000=0.675000
,167.000000=0.650000
,167.500000=0.625000
,168.000000=0.600000
,168.500000=0.575000
,169.000000=0.550000
,169.500000=0.525000
,170.000000=0.991941
,170.750000=1.000000
,172.000000=0.500000
,172.125000=1.006455
,173.062500=1.000000
,188.062500=2.000000
,188.125000=1.000000
,253.000000=0.000000
,254.937500=4.000000
,255.000000=0.000000
,255.937500=4.000000
,256.000000=0.000000
,256.937500=4.000000
,257.000000=0.000000
,257.937500=4.000000
,258.000000=0.000000
,258.937500=4.000000
,259.000000=0.000000
,259.937500=4.000000
,260.000000=0.000000
,260.937500=4.000000
,261.000000=0.000000
,261.937500=4.000000
,262.000000=0.000000
,262.437500=4.000000
,262.500000=0.000000
,262.937500=4.000000
,263.000000=0.000000
,263.937500=4.000000
,264.000000=0.000000
,264.437500=4.000000
,264.500000=0.000000
,264.937500=4.000000
,265.000000=0.000000
,265.937500=4.000000
,266.000000=0.000000
,266.937500=4.000000
,267.000000=1.000000
,302.000000=2.000000
,302.250000=1.000000
,302.500000=0.500000
,303.000000=1.000000
,395.000000=0.250000
;
#FAKES:;
#LABELS:0.000000=Song Start
;
#ATTACKS:TIME=40.158478:LEN=0.200000:MODS=*100 stealth:TIME=25.261929:LEN=0.600000:MODS=*100 stealth:TIME=40.391239:LEN=5.000000:MODS=*1.5 no stealth:TIME=99.770554:LEN=0.400000:MODS=*4 stealth:TIME=100.184349:LEN=5.000000:MODS=*2.5 no stealth:TIME=112.158485:LEN=0.200000:MODS=*100 stealth:TIME=112.391243:LEN=5.000000:MODS=*1.5 no stealth:TIME=125.399864:LEN=0.200000:MODS=*100 stealth:TIME=125.839523:LEN=5.000000:MODS=50% stealth,stealthpastreceptors:TIME=72.667099:LEN=0.200000:MODS=*100 stealth:TIME=72.874001:LEN=5.000000:MODS=*2.5 no stealth;
#NOTES:
// measure 0
0000
0000
0000
0000
,  // measure 1
0000
0000
0000
0000
,  // measure 2
0000
0000
0000
0000
,  // measure 3
0000
0000
0000
0000
,  // measure 4
0001
0010
0010
0010
0021
0000
0031
1000
,  // measure 5
0010
0000
0000
0000
0000
0000
0000
0000
0100
0000
0000
0000
0000
0000
0000
0000
0002
0000
0000
0000
0000
0000
0000
0000
0000
0000
0000
0000
0000
0000
0000
0003
1001
0000
0000
0000
0000
0000
0000
0000
0000
0000
0000
0000
0000
0000
0000
0000
1000
0000
0000
0000
0000
0000
0000
0000
0010
0000
0000
0000
0000
0000
0000
0000
,  // measure 6
1000
0100
0100
0100
1200
0000
0301
0100
,  // measure 7
1000
0010
0001
0010
0220
0000
0330
0000
,  // measure 8
0202
0000
1000
0000
,  // measure 9
0010
0000
1000
0303
,  // measure 10
2200
0000
0000
0000
0001
0000
0000
0010
,  // measure 11
0010
0000
0001
3300
,  // measure 12
0101
1100
0101
1100
,  // measure 13
0011
1010
0011
1010
,  // measure 14
0001
0000
0010
0000
0100
0000
1000
0000
0001
0100
0001
0100
0010
1000
0010
1000
,  // measure 15
0002
0000
0000
0000
,  // measure 16
0003
0000
0000
0000
,  // measure 17
0000
0000
0000
0000
,  // measure 18
0000
0000
0000
0000
,  // measure 19
0002
0000
0000
0000
0000
0003
0000
0000
,  // measure 20
1001
0000
0000
0000
1100
0000
0000
0000
0040
0004
0000
0030
4000
0000
0000
3000
,  // measure 21
0400
0000
0000
0300
4000
0000
0000
3000
0023
0000
0000
0030
MMMM
0000
0010
0000
,  // measure 22
1001
0000
0000
0000
0001
0000
0100
0010
1000
0000
0100
0000
0001
0000
0100
0000
,  // measure 23
1000
0000
0010
0000
0102
0000
0000
0000
1003
0000
0100
0000
0010
0100
0010
0000
,  // measure 24
1001
0000
0000
0000
1000
0000
0040
4000
0000
0000
0000
0030
0004
0000
0000
0003
,  // measure 25
0400
0000
0000
0000
0000
0000
0300
0000
0004
0000
0000
0000
0000
0000
0003
0000
3020
0000
0000
0030
0020
0000
0000
0030
MMMM
0000
0000
0000
0010
0000
0000
0000
,  // measure 26
1000
0100
0100
0100
2MM2
3000
0103
0100
,  // measure 27
0001
0010
0100
1000
0001
0100
1000
0100
,  // measure 28
0202
0303
0000
0000
,  // measure 29
0000
0000
0000
0000
,  // measure 30
0000
0000
0000
0000
,  // measure 31
0000
0000
0000
0000
,  // measure 32
0202
0000
0303
0000
1001
0000
0011
0100
,  // measure 33
1100
0000
0000
0000
1010
0000
0100
0001
0200
0000
0000
0300
MMMM
0000
0100
0000
,  // measure 34
1001
0000
1000
0100
0021
0000
0031
0100
,  // measure 35
0001
0000
0100
0000
1020
0000
0000
0000
1030
0000
0001
0000
0010
0100
0010
0000
,  // measure 36
1001
0000
0110
0000
1001
0000
0101
0010
,  // measure 37
1010
0000
0000
0000
0000
0000
0000
0000
1100
0000
0000
0000
0010
0000
0001
0000
0020
0000
0000
0030
0020
0000
0000
0030
MMMM
0000
0000
0000
0010
0000
0000
0000
,  // measure 38
0001
0100
0100
0100
2002
0003
3100
0100
,  // measure 39
1000
0010
0100
0001
1000
0100
0001
0100
,  // measure 40
M220
0000
000M
0000
0000
0000
M000
000M
,  // measure 41
M000
0000
000M
0000
0000
0000
M000
000M
,  // measure 42
M000
0000
0000
0000
0000
0000
0000
0000
033M
0000
0000
1000
0010
0001
1000
0100
,  // measure 43
0001
0000
0000
0000
0000
0000
0000
0000
0000
0000
0000
0000
0000
0000
0000
0000
0000
1000
0000
0000
0000
0200
0000
0000
0000
0300
0000
0000
0000
0020
0000
0000
0000
0032
0000
0000
0000
0000
0000
0000
0000
0203
0000
0000
0000
2300
0000
0000
0000
3200
0000
0000
0000
0000
0000
0000
0000
0302
0000
0000
0000
0000
0000
0000
,  // measure 44
0000
0013
0000
0000
0000
0000
0000
0000
0000
0000
0000
0000
0000
0000
0000
0000
0000
0100
0000
0000
0000
2000
0000
0000
0000
3000
0000
0000
0000
0002
0000
0000
0000
0203
0000
0000
0000
0300
0000
0000
0000
0020
0000
0000
0000
2030
0000
0000
0000
3200
0000
0000
0000
0300
0000
0000
0000
0000
0000
0000
0000
0010
0000
0000
,  // measure 45
0000
0110
0000
0000
0000
0000
0000
0000
0000
1001
0000
0000
0000
0000
0000
0000
0000
0001
0000
0000
0000
0200
0000
0000
0000
0300
0000
0000
0000
0020
0000
0000
0000
2030
0000
0000
0000
3000
0000
0000
0000
0200
0000
0000
0000
0302
0000
0000
0000
0203
0000
0000
0000
0000
0000
0000
0000
2300
0000
0000
0000
0000
0000
0000
,  // measure 46
0000
3010
0000
0000
0000
0000
0000
0000
0000
0000
0000
0000
0000
0000
0000
0000
0000
0100
0000
0000
0000
0002
0000
0000
0000
0003
0000
0000
0000
2000
0000
0000
0000
3200
0000
0000
0000
0300
0000
0000
0000
0002
0000
0000
0000
0203
0000
0000
0000
2300
0000
0000
0000
3020
0000
0000
0000
0032
0000
0000
0000
0023
0000
0000
,  // measure 47
0000
2030
0000
0000
3000
0000
0000
0000
0000
0000
0000
0000
0000
0000
0000
0000
0000
0000
0000
0000
0000
0000
0000
0000
0000
0000
0000
0000
0000
0000
0000
0000
0000
0000
0000
0000
0000
0000
0000
0000
0000
0000
0000
0000
0000
0000
0000
0000
0000
0000
0000
0000
0000
0000
0000
0000
0000
0000
0000
0000
0000
0000
0000
0000
,  // measure 48
0000
0000
0000
0000
,  // measure 49
0000
0000
0000
0000
,  // measure 50
0000
0000
0000
0000
,  // measure 51
0000
0000
0001
0100
0100
0100
0201
0000
,  // measure 52
0301
0000
0000
0000
0000
0000
0000
0000
1000
0000
0000
0000
0000
0000
0000
0000
0200
0000
0000
0000
0000
0000
0000
0000
0000
0000
0000
0000
0000
0000
0000
0000
0320
0000
0000
0000
0000
0000
0000
0000
0001
0000
0000
0000
0000
0000
0000
0030
0011
0000
0000
0000
0000
0000
0000
0000
0000
0000
0000
0000
0000
0000
0000
0000
,  // measure 53
1000
0100
1000
0010
0010
0010
1020
0000
,  // measure 54
1030
0001
0020
0000
0030
0100
1100
0000
,  // measure 55
0101
0000
1000
0010
0010
0010
1020
0000
,  // measure 56
1030
0000
0000
0000
0000
0000
0000
0000
0001
0000
0000
0000
0000
0000
0000
0000
0010
0000
0000
0000
0000
0000
0000
0000
0100
0000
0000
0000
0000
0000
0000
0000
2000
0000
0000
0000
0000
0000
0000
0000
0000
0000
0000
0000
0000
0000
0000
3000
1001
0000
0000
0000
0000
0000
0000
0000
0000
0000
0000
0000
0000
0000
0000
0000
,  // measure 57
0001
0010
0001
0100
0100
0100
0201
0000
,  // measure 58
1300
0100
0001
0010
1000
0010
0220
0000
,  // measure 59
0330
1001
0000
0000
,  // measure 60
0000
0000
0000
0000
,  // measure 61
0000
0000
0000
0000
,  // measure 62
0000
0000
0000
0000
,  // measure 63
0000
1001
0000
0010
,  // measure 64
0010
0010
0010
2002
,  // measure 65
3003
0000
0110
0000
0001
1000
0001
0000
,  // measure 66
1000
0000
0001
0000
1000
0000
0000
0000
0001
0000
0000
0000
1000
0100
0000
0010
,  // measure 67
0001
0010
0001
0000
1001
0000
0000
0000
0010
0000
0000
0000
1100
0000
1100
0000
,  // measure 68
1100
0000
0000
0000
0000
0000
0000
0000
0101
0000
0000
0000
0101
0000
0000
0000
0101
0000
0000
0000
0000
0000
0000
0000
0200
0000
0000
0300
0200
0000
0000
0300
,  // measure 69
MMMM
0100
0001
0010
0010
0010
2MM2
0003
,  // measure 70
3010
0010
1000
0100
0010
0001
1000
0010
,  // measure 71
0001
0010
2020
0000
3030
0000
0000
0000
,  // measure 72
0000
0000
0000
0000
,  // measure 73
0000
0000
0000
0000
,  // measure 74
0000
0000
0000
0000
,  // measure 75
0000
0000
0000
0101
,  // measure 76
1000
0000
0010
0000
0001
0000
0010
0000
2010
0000
3000
0100
0020
0000
0000
0030
,  // measure 77
MMMM
0010
1001
0000
0001
0100
0120
0000
,  // measure 78
1030
0100
1000
0100
0120
0000
0031
1000
,  // measure 79
0010
0100
0010
0000
1001
0000
0000
0000
0011
0000
0000
0000
1100
0000
0000
0000
,  // measure 80
1010
0000
0000
0000
0100
0000
0000
0000
0101
0000
0000
0000
0000
0000
0000
0000
0011
0000
0000
0000
0100
0000
1000
0000
0200
0000
0000
0300
0200
0000
0000
0300
,  // measure 81
MMMM
0100
1000
0010
0010
0010
2MM2
3000
,  // measure 82
0013
0010
0001
0100
1000
0100
0210
0000
,  // measure 83
0000
0300
0000
0000
,  // measure 84
0000
0000
0000
0000
,  // measure 85
0000
0000
0000
0000
,  // measure 86
0000
0000
0000
0210
,  // measure 87
0000
0301
0110
1000
,  // measure 88
0110
0000
0000
0000
0001
0000
0000
0000
2000
3000
0200
0300
0002
0003
2000
3000
,  // measure 89
0002
0003
0200
0300
1000
0000
0000
0000
0011
0000
0000
0000
0100
0000
0000
0000
,  // measure 90
1010
0000
0000
0000
0100
0000
0000
0000
0002
0003
0020
0030
2000
3000
0002
0003
,  // measure 91
2000
3000
0020
0030
0001
0000
0000
0000
1100
0000
0000
0000
0010
0000
0000
0000
,  // measure 92
0101
0000
0000
0000
1000
0000
0000
0000
0002
0003
0200
0300
2000
3000
0002
0003
,  // measure 93
2000
3000
0200
0300
0001
0000
0000
0000
0110
0000
0000
0000
0001
0000
0000
0000
,  // measure 94
1000
0010
0001
0010
1000
0100
0001
0000
,  // measure 95
0000
0000
0000
0000
,  // measure 96
0000
0000
0000
0000
,  // measure 97
0000
0000
0000
0000
,  // measure 98
0000
0000
0000
0001
,  // measure 99
0000
0000
0000
0000
0000
0000
0000
MMMM
0000
0000
0000
0000
0000
0000
000M
0000
0000
0000
0000
00M0
0000
0000
0000
0000
0M00
0000
0000
0000
0000
M000
0000
0000
,  // measure 100
0000
0000
0000
0000
000M
0000
0000
0000
0000
0000
00M0
0000
0000
M000
0000
0000
0000
0000
0000
0000
0000
0000
0000
0000
0000
0000
0000
0000
0000
0000
0000
0000
;

//---------------dance-single - ----------------
#NOTEDATA:;
#CHARTNAME:;
#STEPSTYPE:dance-single;
#DESCRIPTION:;
#CHARTSTYLE:;
#DIFFICULTY:Hard;
#METER:11;
#RADARVALUES:0.454163,0.607552,0.282760,0.412677,0.087885,416.000000,379.000000,37.000000,54.000000,0.000000,0.000000,0.000000,0.000000,0.000000,0.454163,0.607552,0.282760,0.412677,0.087885,416.000000,379.000000,37.000000,54.000000,0.000000,0.000000,0.000000,0.000000,0.000000;
#CREDIT:;
#OFFSET:-0.451202;
#BPMS:0.000000=145.000000
,32.000000=72.500000
,40.000000=145.000000
,88.000000=72.500000
,89.000000=145.000000
,129.000000=73.088997
,129.750000=72.500000
,131.000000=72.064003
,132.000000=72.500000
,148.000000=145.000000
,180.000000=72.500000
,188.000000=145.000000
,204.000000=72.500000
,205.000000=145.000000
;
#STOPS:;
#DELAYS:;
#WARPS:;
#TIMESIGNATURES:0.000000=4=4
;
#TICKCOUNTS:0.000000=4
;
#COMBOS:0.000000=1
;
#SPEEDS:0.000000=1.000000=0.000000=0
,52.000000=2.000000=3.000000=0
,119.000000=1.000000=10.000000=0
,233.000000=2.000000=2.000000=0
;
#SCROLLS:0.000000=1.000000
,52.000000=0.000000
,55.000000=0.500000
,129.000000=0.991941
,129.750000=1.000000
,131.000000=1.006050
,132.000000=1.000000
,233.000000=0.500000
;
#FAKES:;
#LABELS:0.000000=Song Start
;
#NOTES:
// measure 0
0000
0000
0000
0000
,  // measure 1
0000
0000
0000
0000
,  // measure 2
0000
0000
0000
0000
,  // measure 3
0000
0000
0000
0000
,  // measure 4
0001
0010
0001
0010
0002
0000
0013
0001
,  // measure 5
0100
0010
1000
0000
1010
0000
0000
0000
,  // measure 6
1000
0100
1000
0100
2000
0000
3001
0100
,  // measure 7
0010
1000
0100
0010
0001
0000
0000
0000
,  // measure 8
2002
3000
0200
0300
2000
3000
0020
0030
,  // measure 9
2000
0003
0020
0030
0002
0003
0200
0300
,  // measure 10
3001
0001
0100
0100
,  // measure 11
1000
1000
0010
0010
,  // measure 12
0001
0100
0001
0100
1000
0010
0001
0100
,  // measure 13
0020
0000
0000
0030
,  // measure 14
1001
0000
0100
0000
0001
0100
0001
1000
,  // measure 15
0001
0010
0001
0100
2000
0000
3100
0001
,  // measure 16
1001
0000
0001
1000
0010
1000
0100
0010
,  // measure 17
0001
1000
1001
0000
0001
0100
0001
0100
,  // measure 18
1001
0000
1000
0100
1000
0001
1000
0010
,  // measure 19
1000
0001
1000
0100
0010
0010
0100
0010
,  // measure 20
0001
0100
0010
1000
2010
0000
3001
0100
,  // measure 21
0010
1000
0001
1000
0100
0010
0100
0010
,  // measure 22
0022
0033
0002
0003
0100
0010
2000
3000
,  // measure 23
0100
0010
1002
0000
0103
0010
0110
0000
,  // measure 24
0001
0100
2000
3000
1000
0100
1000
0100
,  // measure 25
0002
0003
0010
0100
0010
0100
1001
0000
,  // measure 26
0010
0000
1001
0000
1000
0010
0100
0000
,  // measure 27
0001
0010
0100
0100
0010
0100
1000
0010
,  // measure 28
0100
0001
0102
0000
1003
0010
0100
0001
,  // measure 29
1000
0001
0010
0100
0010
0100
2002
0000
,  // measure 30
0000
0000
0000
0000
,  // measure 31
0000
0000
0000
3000
,  // measure 32
0000
0000
0000
0000
0003
0000
0000
1000
0010
1000
0001
0010
0001
0000
0000
0000
,  // measure 33
1000
0010
0000
0010
0020
0000
0130
0010
2000
0000
0200
0000
3300
0000
0000
0000
,  // measure 34
0001
0010
0000
0010
0020
0000
0130
0010
0001
0000
0000
0200
0320
0030
2000
3000
,  // measure 35
0001
0100
0000
0100
0200
0000
0310
0100
0002
0000
0020
0000
0033
0000
0000
0000
,  // measure 36
1000
0100
0000
0100
0200
0000
1300
0100
0010
0001
0100
0010
1000
0000
0000
0000
,  // measure 37
0001
0010
0001
0010
0002
0000
0013
0001
,  // measure 38
0200
0310
1010
0000
,  // measure 39
1000
0100
1000
0100
2000
0000
3010
0100
,  // measure 40
0002
0000
0003
1000
1100
0000
0011
0000
,  // measure 41
1000
0010
1000
0010
2000
0000
3010
1000
,  // measure 42
0100
0010
0001
0000
0011
0000
0000
0000
,  // measure 43
0001
0100
0001
0100
0002
0000
1003
0100
,  // measure 44
0010
0001
0100
0010
1000
0000
0000
0000
,  // measure 45
2002
3003
0010
0010
0010
0010
2002
3003
,  // measure 46
0110
0000
0000
0000
1000
0000
0001
0000
1000
0000
0000
0000
0001
0000
1000
0000
0001
0000
0000
0000
1000
0000
0000
0000
0100
0010
0000
0100
0010
0000
0100
0000
,  // measure 47
1001
0000
0100
0000
1000
0010
0001
0000
,  // measure 48
0001
0100
1000
0000
0010
0010
0100
0010
,  // measure 49
1000
0100
0010
0001
0012
0000
1003
0100
,  // measure 50
0010
0001
1000
0001
0100
0010
0100
0010
,  // measure 51
2020
3030
1001
0000
1000
0100
0001
0100
,  // measure 52
2000
3000
2010
0000
3010
0100
0101
0000
,  // measure 53
1000
0100
0002
0003
0001
0100
0001
0100
,  // measure 54
2000
3000
0001
0100
0010
1000
1001
0000
,  // measure 55
0010
0000
1001
0000
1000
0010
0001
0000
,  // measure 56
0001
0010
1000
1000
0010
1000
0001
0010
,  // measure 57
0100
1000
2100
0000
3001
0010
0100
1000
,  // measure 58
0001
1000
0020
0000
0000
0000
1030
0000
,  // measure 59
1100
0001
0101
1000
,  // measure 60
0001
0010
0100
1000
0010
0100
0001
0000
,  // measure 61
0011
1000
1010
0001
,  // measure 62
0010
0001
0100
1000
0100
0001
0010
0000
,  // measure 63
1100
0010
0101
0010
,  // measure 64
1000
0100
0010
0001
0100
0010
1000
0000
,  // measure 65
0110
0000
0001
0000
1000
0100
0010
0100
,  // measure 66
0001
0100
1000
0000
0000
0000
0000
0000
;

//---------------dance-single - ----------------
#NOTEDATA:;
#CHARTNAME:;
#STEPSTYPE:dance-single;
#DESCRIPTION:;
#CHARTSTYLE:;
#DIFFICULTY:Medium;
#METER:7;
#RADARVALUES:0.326430,0.470089,0.259834,0.305687,0.003821,299.000000,265.000000,34.000000,40.000000,0.000000,0.000000,0.000000,0.000000,0.000000,0.326430,0.470089,0.259834,0.305687,0.003821,299.000000,265.000000,34.000000,40.000000,0.000000,0.000000,0.000000,0.000000,0.000000;
#CREDIT:;
#OFFSET:-0.451202;
#BPMS:0.000000=145.000000
,32.000000=72.500000
,40.000000=145.000000
,117.000000=72.500000
,122.000000=73.088997
,122.750000=72.500000
,124.000000=72.064003
,125.000000=72.500000
,141.000000=145.000000
,173.000000=72.500000
,181.000000=145.000000
;
#STOPS:52.000000=1.241379
;
#DELAYS:;
#WARPS:;
#TIMESIGNATURES:0.000000=4=4
;
#TICKCOUNTS:0.000000=4
;
#COMBOS:0.000000=1
;
#SPEEDS:0.000000=1.000000=0.000000=0
;
#SCROLLS:0.000000=1.000000
,122.000000=0.991941
,122.750000=1.000000
,124.000000=1.006050
,125.000000=1.000000
;
#FAKES:;
#LABELS:0.000000=Song Start
;
#NOTES:
// measure 0
0000
0000
0000
0000
,  // measure 1
0000
0000
0000
0000
,  // measure 2
0000
0000
0000
0000
,  // measure 3
0000
0000
0000
0000
,  // measure 4
1000
0010
0010
1000
,  // measure 5
0001
0010
0110
0000
,  // measure 6
1000
0100
0100
0001
,  // measure 7
1000
0010
0011
0000
,  // measure 8
1002
0203
0320
2030
,  // measure 9
3200
0302
0203
2300
,  // measure 10
3001
0100
0001
0100
,  // measure 11
0010
1000
0010
1000
,  // measure 12
0001
0000
0100
0000
0010
1000
0010
1000
,  // measure 13
0001
2002
3003
0001
,  // measure 14
0010
1000
0010
0011
,  // measure 15
0001
0100
0020
0000
0030
1000
0010
0000
,  // measure 16
1000
0000
0100
0000
0010
0000
0100
0010
,  // measure 17
0100
2002
3003
1000
,  // measure 18
0010
0000
0001
0000
0010
0000
1000
0001
,  // measure 19
1000
0000
0100
0000
0010
0001
0200
0000
,  // measure 20
0310
1000
0100
0000
0100
0000
2002
0000
,  // measure 21
3003
0110
0000
0001
,  // measure 22
0100
1000
0100
0101
,  // measure 23
0001
1000
0200
0000
0310
0000
0011
0000
,  // measure 24
0100
0000
0010
0000
1100
0000
0001
0100
,  // measure 25
0010
2002
3003
1010
,  // measure 26
0100
0000
0001
0000
0010
0000
0100
0010
,  // measure 27
0100
0000
1000
0000
0010
1000
0200
0000
,  // measure 28
0310
0001
0100
0000
0010
0000
1001
0000
,  // measure 29
0000
0220
0000
0000
,  // measure 30
0000
0000
0300
0000
0030
0000
0010
1000
,  // measure 31
0100
0000
1200
0000
0010
0000
0001
0010
,  // measure 32
1300
0000
0000
0000
0201
0000
0000
0000
0010
0000
0000
0000
1000
0000
0000
0010
,  // measure 33
0310
0100
0102
0000
0010
0000
1000
1000
,  // measure 34
0103
0000
2100
0000
0001
0000
0010
0001
,  // measure 35
3100
1000
0010
0010
,  // measure 36
1000
0001
0010
0110
,  // measure 37
0000
1000
0100
0100
,  // measure 38
1000
0001
0000
0101
,  // measure 39
1000
0001
0010
0010
,  // measure 40
0001
1000
0010
0110
,  // measure 41
0000
0001
0100
0100
,  // measure 42
1000
0001
0010
1010
,  // measure 43
0000
0000
2002
3003
0010
0010
0010
0010
,  // measure 44
2002
3003
0110
1000
0100
0001
0100
1000
,  // measure 45
0010
0010
2002
0000
3003
0000
1000
0100
,  // measure 46
1000
0000
0001
0100
0001
0000
0010
0100
,  // measure 47
0010
0000
0100
0000
0010
0001
0200
0000
,  // measure 48
0310
1000
0100
0000
0010
0000
2002
0000
,  // measure 49
3003
0110
0000
1000
,  // measure 50
0100
0001
0100
1100
,  // measure 51
0010
0001
0200
0000
0310
0000
1010
0000
,  // measure 52
0100
0000
0010
0000
0101
0000
0001
1000
,  // measure 53
0100
0220
0330
0011
,  // measure 54
0100
0000
1000
0000
0010
0000
0100
0001
,  // measure 55
0100
0000
0001
0000
0010
0001
0200
0000
,  // measure 56
0310
1000
0100
0000
0010
0001
2000
0000
,  // measure 57
0000
3100
0010
0100
,  // measure 58
0010
0000
0001
0000
1000
0010
1000
0000
,  // measure 59
1000
0010
0100
0000
0010
0000
0100
0000
,  // measure 60
0010
0000
1000
0000
0001
0010
0001
0000
,  // measure 61
0001
0010
0100
0000
1000
0000
0100
0000
,  // measure 62
1000
0000
0001
0000
0010
0100
1000
0000
,  // measure 63
1000
0001
0100
0000
0001
0000
0100
0000
,  // measure 64
0010
1000
0100
0000
0010
0001
0100
0000
;

//---------------dance-single - ----------------
#NOTEDATA:;
#CHARTNAME:;
#STEPSTYPE:dance-single;
#DESCRIPTION:;
#CHARTSTYLE:;
#DIFFICULTY:Easy;
#METER:4;
#RADARVALUES:0.207430,0.247415,0.213981,0.259834,0.000000,190.000000,162.000000,28.000000,34.000000,0.000000,0.000000,0.000000,0.000000,0.000000,0.207430,0.247415,0.213981,0.259834,0.000000,190.000000,162.000000,28.000000,34.000000,0.000000,0.000000,0.000000,0.000000,0.000000;
#CREDIT:;
#OFFSET:-0.451202;
#BPMS:0.000000=145.000000
,32.000000=72.500000
,40.000000=145.000000
,117.000000=72.500000
,141.000000=145.000000
,173.000000=72.500000
,181.000000=145.000000
;
#STOPS:52.000000=1.241379
;
#DELAYS:;
#WARPS:;
#TIMESIGNATURES:0.000000=4=4
;
#TICKCOUNTS:0.000000=4
;
#COMBOS:0.000000=1
;
#SPEEDS:0.000000=1.000000=0.000000=0
;
#SCROLLS:0.000000=1.000000
;
#FAKES:;
#LABELS:0.000000=Song Start
;
#NOTES:
// measure 0
0000
0000
0000
0000
,  // measure 1
0000
0000
0000
0000
,  // measure 2
0000
0000
0000
0000
,  // measure 3
0000
0000
0000
0000
,  // measure 4
1000
0000
1000
0000
,  // measure 5
0001
0100
0110
0000
,  // measure 6
0001
0000
0001
0000
,  // measure 7
1000
0100
0110
0000
,  // measure 8
1002
0203
0320
2030
,  // measure 9
3002
0023
0230
2300
,  // measure 10
3001
0000
1000
0000
,  // measure 11
0001
0000
1000
0000
,  // measure 12
0001
1000
0001
1000
,  // measure 13
0001
1001
0000
1000
,  // measure 14
0000
0010
0000
1010
,  // measure 15
1000
0001
0000
0010
,  // measure 16
0000
0100
0000
0110
,  // measure 17
1000
0001
0000
0100
,  // measure 18
0000
0001
0000
1001
,  // measure 19
1000
0100
0100
0200
,  // measure 20
0300
0100
0100
1001
,  // measure 21
0000
0110
0000
1000
,  // measure 22
1000
0001
0001
2000
,  // measure 23
3000
0110
0000
0001
,  // measure 24
1000
1000
0001
0010
,  // measure 25
0000
1001
0000
0100
,  // measure 26
0000
0100
0000
1001
,  // measure 27
1000
0010
0010
0020
,  // measure 28
0030
0010
0010
1001
,  // measure 29
0000
0220
0000
0000
,  // measure 30
0000
0030
0300
0000
,  // measure 31
0000
0002
2003
0200
,  // measure 32
3300
2000
3200
0320
,  // measure 33
0032
2003
3002
0200
,  // measure 34
0303
0002
0023
0230
,  // measure 35
2300
3001
0000
0001
,  // measure 36
0000
0010
0100
1100
,  // measure 37
0000
1000
0000
1000
,  // measure 38
0000
0010
0100
0101
,  // measure 39
0000
0001
0000
0001
,  // measure 40
0000
1000
0100
0110
,  // measure 41
0000
1000
0000
1000
,  // measure 42
0000
0001
0100
0110
,  // measure 43
0000
2002
3003
0000
,  // measure 44
0000
0220
0330
0000
,  // measure 45
0000
1001
0000
0010
,  // measure 46
0000
0010
0000
1001
,  // measure 47
0001
0100
0100
0200
,  // measure 48
0300
0100
0100
1001
,  // measure 49
0000
0110
0000
0001
,  // measure 50
0001
1000
1000
0002
,  // measure 51
0003
0110
0000
1000
,  // measure 52
0001
0001
1000
0010
,  // measure 53
0000
1001
0000
0100
,  // measure 54
0000
0100
0000
1001
,  // measure 55
0001
0010
0010
0020
,  // measure 56
0030
0010
0010
1001
,  // measure 57
0000
0001
0000
0001
,  // measure 58
0000
0010
0001
0100
,  // measure 59
0000
0001
0000
0001
,  // measure 60
0000
0001
1000
0100
,  // measure 61
0000
1000
0000
1000
,  // measure 62
0000
0010
1000
0100
,  // measure 63
0000
1000
0000
1000
,  // measure 64
0000
0010
0001
0100
;

//---------------dance-single - ----------------
#NOTEDATA:;
#CHARTNAME:;
#STEPSTYPE:dance-single;
#DESCRIPTION:;
#CHARTSTYLE:;
#DIFFICULTY:Beginner;
#METER:1;
#RADARVALUES:0.085156,0.143291,0.076422,0.038211,0.000000,78.000000,68.000000,10.000000,5.000000,0.000000,0.000000,0.000000,0.000000,0.000000,0.085156,0.143291,0.076422,0.038211,0.000000,78.000000,68.000000,10.000000,5.000000,0.000000,0.000000,0.000000,0.000000,0.000000;
#CREDIT:;
#OFFSET:-0.451202;
#BPMS:0.000000=145.000000
;
#STOPS:;
#DELAYS:;
#WARPS:;
#TIMESIGNATURES:0.000000=4=4
;
#TICKCOUNTS:0.000000=4
;
#COMBOS:0.000000=1
;
#SPEEDS:0.000000=1.000000=0.000000=0
;
#SCROLLS:0.000000=1.000000
;
#FAKES:;
#LABELS:0.000000=Song Start
;
#NOTES:
// measure 0
0000
0000
0000
0000
,  // measure 1
0000
0000
0000
0000
,  // measure 2
0000
0000
0000
0000
,  // measure 3
0000
0000
0000
0000
,  // measure 4
1000
0000
0000
0000
,  // measure 5
0010
0000
0000
0000
,  // measure 6
0100
0000
0000
0000
,  // measure 7
0001
0000
0000
0000
,  // measure 8
2002
0000
0000
0000
,  // measure 9
0000
0000
3003
0000
,  // measure 10
0020
0000
0000
0000
,  // measure 11
0000
0000
0030
0000
,  // measure 12
1000
0000
0000
0000
,  // measure 13
0001
0000
0000
0000
,  // measure 14
1000
0000
0001
0000
,  // measure 15
1000
0000
0000
0000
,  // measure 16
1001
0000
0000
0000
,  // measure 17
0010
0000
0000
0000
,  // measure 18
1001
0000
0000
0000
,  // measure 19
0100
0000
0000
0000
,  // measure 20
1001
0000
0000
0000
,  // measure 21
0010
0000
0000
0000
,  // measure 22
1001
0000
0000
0000
,  // measure 23
1000
0000
0001
0000
,  // measure 24
1000
0000
0000
0000
,  // measure 25
0100
0000
0000
0000
,  // measure 26
0001
0000
0000
0000
,  // measure 27
0010
0000
0000
0000
,  // measure 28
1000
0000
0000
0000
,  // measure 29
0100
0000
0000
0000
,  // measure 30
0010
0000
0000
0000
,  // measure 31
0010
0000
0000
0000
,  // measure 32
2002
0000
0000
0000
,  // measure 33
0000
0000
0000
0000
,  // measure 34
3003
0000
0000
0000
,  // measure 35
0000
0000
0000
0000
,  // measure 36
0001
0000
0000
0000
,  // measure 37
0100
0000
0000
0000
,  // measure 38
0100
0000
0000
0000
,  // measure 39
1000
0000
0000
0000
,  // measure 40
0001
0000
0000
0000
,  // measure 41
0001
0000
0000
0000
,  // measure 42
0010
0000
0000
0000
,  // measure 43
1000
0000
0000
0000
,  // measure 44
0001
0000
0000
0000
,  // measure 45
0010
0000
0000
0000
,  // measure 46
0100
0000
0000
0000
,  // measure 47
1000
0000
0000
0000
,  // measure 48
0001
0000
0000
0000
,  // measure 49
0100
0000
0000
0000
,  // measure 50
0010
0000
0000
0000
,  // measure 51
1000
0000
0000
0000
,  // measure 52
1001
0000
0000
0000
,  // measure 53
0000
0000
0000
0000
,  // measure 54
0110
0000
0000
0000
,  // measure 55
0000
0000
0000
0000
,  // measure 56
1001
0000
0000
0000
,  // measure 57
0010
0000
0000
0000
,  // measure 58
1001
0000
0000
0000
,  // measure 59
0001
0000
1000
0000
,  // measure 60
0001
0000
0000
0000
,  // measure 61
0100
0000
0000
0000
,  // measure 62
1000
0000
0000
0000
,  // measure 63
0010
0000
0000
0000
,  // measure 64
0001
0000
0000
0000
,  // measure 65
0100
0000
0000
0000
,  // measure 66
0010
0000
0000
0000
,  // measure 67
0010
0000
0000
0000
,  // measure 68
1000
0000
0000
0000
,  // measure 69
0100
0000
0000
0000
,  // measure 70
0010
0000
0000
0000
,  // measure 71
0001
0000
0000
0000
,  // measure 72
1000
0000
0000
0000
,  // measure 73
0001
0000
0000
0000
,  // measure 74
0100
0000
0000
0000
,  // measure 75
1000
0000
0000
0000
;
