#TITLE:恋愛裁判;
#SUBTITLE:;
#ARTIST:40mP feat. 初音ミク;
#TITLETRANSLIT:Love Trial;
#SUBTITLETRANSLIT:;
#ARTISTTRANSLIT:40mP feat. Hatsune Miku;
#GENRE:Vocaloid Pop;
#CREDIT:;
#BANNER:Love Trial.png;
#BACKGROUND:Love Trial-bg.png;
#LYRICSPATH:;
#CDTITLE:cdtitle.png;
#MUSIC:Love Trial.ogg;
#OFFSET:-1.134108;
#SAMPLESTART:81.721123;
#SAMPLELENGTH:14.328354;
#SELECTABLE:YES;
#BPMS:0.000000=134.000000
;
#STOPS:
;
#BGCHANGES:;
#KEYSOUNDS:;
#ATTACKS:;

//---------------dance-single - ----------------
#NOTES:
     dance-single:
     :
     Hard:
     10:
     0.367307,0.431886,0.184854,0.420122,0.222665,306.000000,284.000000,22.000000,50.000000,0.000000,0.000000,0.367307,0.431886,0.184854,0.420122,0.222665,306.000000,284.000000,22.000000,50.000000,0.000000,0.000000:
0000
0000
0000
0000
,
0000
0000
0000
0000
,
0000
0000
0000
0000
,
0000
0000
0000
0000
,
0001
0000
0000
0001
0000
0000
0100
0000
0000
0000
0001
0000
0010
0000
0100
0000
,
1000
0000
0000
1000
0000
0000
0100
0000
0000
0000
1000
0000
0010
0000
0100
0000
,
0001
0000
0000
0001
0000
0000
2000
0000
0000
0000
3200
0000
0000
0000
0310
0000
,
0001
0000
0000
0100
0000
0000
0010
0000
0000
0000
0110
0000
0000
0000
0000
0000
,
1000
0000
0000
1000
0000
0000
0010
0000
0000
0000
1000
0000
0100
0000
0010
0000
,
0001
0000
0000
0001
0000
0000
0010
0000
0000
0000
0001
0000
0100
0000
0010
0000
,
2000
0000
0000
0001
0000
0000
3001
0000
0002
0000
0000
1000
0000
0000
1003
0000
,
0001
0000
0000
1000
0000
0000
2002
0000
0000
0000
3003
0000
0000
0000
0000
0000
,
0020
0000
0000
0000
0030
0000
1000
0000
1000
0000
0000
1000
0000
0000
0000
0000
,
0010
0000
0100
0000
0010
0000
0000
0000
1000
0000
0000
0100
0000
0000
0100
0000
,
0020
0000
0000
0000
0030
0000
0001
0000
0001
0000
0000
0001
0000
0000
0000
0000
,
0010
0000
0100
0000
0010
0000
0000
0001
0000
0000
1000
0000
0001
0000
0000
0000
,
0200
0000
0000
0000
0300
0000
0000
0000
0010
0000
0000
0010
0000
0000
0000
0000
,
1000
0000
0001
0000
1000
0000
0000
0000
0100
0000
0000
0100
0000
0000
0010
0000
,
0000
0000
0010
0000
0001
0000
0000
1000
0000
0000
0001
0000
0100
0000
0010
0000
,
1000
0000
0000
0000
0100
0000
0000
0020
0000
0000
0100
0000
0130
0000
0000
0000
,
0220
0000
0000
0000
0330
0000
0000
0000
1001
0000
0000
1001
0000
0000
0000
0000
,
0001
0000
1000
0000
0100
0000
0000
0000
0010
0000
0000
0100
0000
0000
1000
0000
,
2020
0000
0000
0000
3030
0000
0100
0000
0100
0000
0000
0001
0000
0000
0000
0000
,
0001
0000
0100
0000
0010
0000
0000
1000
0000
0000
0100
0000
0010
0000
0000
0000
,
0022
0000
0000
0000
0033
0000
0100
0000
0100
0000
0000
1000
0000
0000
0000
0000
,
0001
0000
0100
0000
0001
0000
0000
0000
0010
0000
0000
0010
0000
0000
0001
0000
,
0000
0000
0100
0000
0010
0000
0000
1000
0000
0000
0100
0000
0100
0000
0010
0000
,
0001
0000
0000
0000
1000
0000
0000
1000
0000
0000
1000
0000
0001
0000
0100
0000
,
0020
0000
0000
2030
0000
0000
3001
1000
,
0200
0000
0000
0320
0000
0001
0031
0000
,
0200
0000
0000
2300
0000
0000
3100
0001
,
0010
0100
0010
0100
1000
0000
1000
0001
,
0020
0000
0000
0032
0000
0000
1003
0001
,
0200
0000
0000
0320
0000
0000
1030
0000
,
0001
0000
0000
0010
0000
0000
1000
0000
0000
0000
0010
0000
0001
0000
0000
0000
,
1001
0000
0000
1001
0000
0000
1001
0000
0000
0000
0000
0000
1000
0000
0000
0000
,
0200
0000
0000
0000
,
0320
0000
0000
0000
,
0032
0000
2003
0000
,
3020
0000
0230
0000
,
0302
1000
0000
1003
,
2000
0001
0000
3001
,
1000
0100
0010
0001
,
0011
0000
0000
0011
0000
0000
0000
0000
1010
0000
0000
1010
0000
0000
0000
0000
,
0001
0000
0100
0000
0010
0000
1000
0000
0001
0000
0000
1001
0000
0000
0000
0000
,
1000
0000
0000
0100
0000
0000
0020
0000
0000
0000
0130
0000
0000
0000
0001
0000
,
0001
0000
0000
0100
0000
0000
0020
0000
0000
0000
0130
0000
0000
0000
0100
0000
,
2000
0000
0000
3010
0000
0000
0100
0000
0002
0000
0000
0013
0000
0000
0100
0000
,
1000
0000
0000
1000
0000
0000
0001
0000
0100
0000
0000
0000
0010
0000
1000
0000
,
0001
0000
0000
0100
0000
0000
0020
0000
0000
0000
0130
0000
0000
0000
1000
0000
,
1000
0000
0000
0100
0000
0000
0010
0000
0010
0000
0000
0100
0000
0000
0001
0000
,
0001
0000
0000
1000
0000
0000
0100
0000
0000
0000
0010
0000
0001
0000
1000
0000
,
0010
0000
0000
0100
0000
0000
0001
0000
0010
0000
0000
0010
0000
0000
0010
0000
,
0001
0000
0000
0100
0000
0000
2000
0000
0000
0000
3100
0000
0000
0000
0001
0000
,
0001
0000
0000
0010
0000
0000
2000
0000
0000
0000
3010
0000
0000
0000
0010
0000
,
0002
0000
0000
0013
0000
0000
0100
0000
2000
0000
0000
3010
0000
0000
0100
0000
,
0001
0000
0000
0001
0000
0000
1000
0000
0100
0000
0000
0000
0010
0000
0001
0000
,
1000
0000
0000
0100
0000
0000
0002
0000
0000
0000
0103
0000
0000
0000
1000
0000
,
1000
0000
0000
0010
0000
0000
0001
0000
0001
0000
0000
0010
0000
0000
1000
0000
,
1000
0000
0000
0001
0000
0000
0100
0000
0000
0000
0001
0000
1000
0000
0100
0000
,
1100
0000
0000
0120
0000
0000
0031
0000
0001
0000
0000
0000
0100
0000
0000
0000
,
0101
0000
0000
0120
0000
0000
0030
0000
1000
0000
0001
0000
1000
0000
0000
0000
,
2002
0000
0000
3003
,
0001
0000
0000
0010
0000
0000
1000
0000
0000
0000
0110
0000
0000
0000
2002
0000
,
0000
3003
0000
0000
;

//---------------dance-single - ----------------
#NOTES:
     dance-single:
     :
     Medium:
     6:
     0.252073,0.296921,0.176451,0.546159,0.000000,210.000000,189.000000,21.000000,65.000000,0.000000,0.000000,0.252073,0.296921,0.176451,0.546159,0.000000,210.000000,189.000000,21.000000,65.000000,0.000000,0.000000:
0000
0000
0000
0000
,
0000
0000
0000
0000
,
0000
0000
0000
0000
,
0000
0000
0000
0000
,
0001
0010
0002
0003
,
1000
0010
2000
3000
,
0100
0000
0010
0200
0000
0320
0000
0000
,
0031
0000
1000
0001
0000
1001
0000
0000
,
0001
0100
0002
0003
,
1000
0100
2000
3000
,
0001
0100
0010
1000
,
2002
0000
0000
3003
0000
0000
0000
0000
,
0002
0000
0003
0100
0200
0000
0300
0000
,
0010
0010
1000
0001
,
2000
0000
3000
0100
0200
0000
0300
0000
,
0010
0001
0100
0010
,
2000
3000
0002
0003
,
0010
0010
0001
1000
,
0000
0001
1000
0000
0001
0000
0100
0000
,
0010
0100
0010
0000
,
2002
3003
0220
0330
,
1000
0100
0001
0100
,
2002
0000
3003
0200
0020
0000
0330
0000
,
1000
0010
0001
0010
,
2002
0000
3003
0020
0200
0000
0330
0000
,
0001
0001
1000
0100
,
0000
0010
0100
0000
1000
0000
0001
0000
,
0200
0010
0310
0100
,
0002
0000
0000
0003
0000
0000
0011
0000
,
2000
0000
0000
3000
0000
0000
1010
0000
,
0002
0000
0000
0003
0000
0000
1001
0000
,
0001
0100
0010
1000
,
0200
0000
0000
0300
0000
0000
1001
0000
,
0020
0000
0000
0030
0000
0000
1001
0000
,
0001
0100
1000
0010
,
0002
0000
0000
0003
0000
0000
0001
0000
,
0200
0000
0000
0000
,
0320
0000
0000
0000
,
2030
0000
3002
0000
,
0023
0000
0230
0000
,
2300
0001
0000
3001
,
0002
1000
0000
1003
,
0001
0100
0010
1000
,
2200
0000
0000
3300
0000
0000
0000
0000
0022
0000
0000
0033
0000
0000
0000
0000
,
1000
0000
0000
0000
0001
0000
0000
0000
0220
0000
0000
0330
0000
0000
0000
0000
,
1000
0000
0100
2000
0000
3001
0000
0000
,
0001
0000
0100
0002
0000
1003
0000
0000
,
1000
0010
0100
0001
,
0010
0100
1000
0000
,
0001
0000
0010
0002
0000
1003
0000
0000
,
1000
0010
0010
1000
,
0001
0010
0100
1000
,
2200
0000
0000
3300
0000
0000
0000
0000
0022
0000
0000
0033
0000
0000
0000
0000
,
1000
0000
0010
2000
0000
3100
0000
0000
,
0100
0000
0010
0002
0000
0103
0000
0000
,
0001
0100
0010
1000
,
0100
0010
0001
0000
,
0001
0000
0100
0002
0000
0013
0000
0000
,
0001
1000
1000
0010
,
1000
0100
0010
0001
,
0202
0000
0000
0303
0000
0000
0000
0000
0001
0000
0000
0000
0010
0000
0000
0000
,
2200
0000
0000
3300
0000
0000
0000
0000
1000
0000
0001
0000
1000
0000
0000
0000
,
2002
0000
0000
3003
,
0100
0000
0000
0010
0000
0110
0000
2002
,
0000
3003
0000
0000
;

//---------------dance-single - ----------------
#NOTES:
     dance-single:
     :
     Easy:
     4:
     0.190856,0.264677,0.142842,0.310890,0.000000,159.000000,142.000000,17.000000,37.000000,0.000000,0.000000,0.190856,0.264677,0.142842,0.310890,0.000000,159.000000,142.000000,17.000000,37.000000,0.000000,0.000000:
0000
0000
0000
0000
,
0000
0000
0000
0000
,
0000
0000
0000
0000
,
0000
0000
0000
0000
,
0001
0001
0020
0030
,
0001
0001
0200
0300
,
0001
0001
2000
3000
,
0100
0010
0100
0000
,
1000
1000
0020
0030
,
1000
1000
0200
0300
,
2000
3000
0002
0003
,
2002
0000
0000
3003
0000
0000
0000
0000
,
0001
0000
0001
0000
,
0100
0100
0001
0000
,
1000
0000
1000
0000
,
0100
0010
0001
0000
,
1000
0000
0001
0000
,
1000
0001
0100
0100
,
0000
0001
1000
0100
,
0100
0000
0010
0000
,
1001
0000
1001
0000
,
0010
0001
0100
0000
,
1001
0000
1001
0000
,
0010
1000
0100
0000
,
0110
0000
1001
0000
,
0001
1000
0100
0100
,
0000
0100
1000
0001
,
0200
0000
0300
0000
,
0002
0000
0000
0013
,
0020
0000
0000
0130
,
0200
0000
0000
1300
,
1000
0000
1000
0001
,
2000
0000
0000
3010
,
0020
0000
0000
1030
,
0001
0001
0010
0000
,
0220
0000
0000
0330
0000
0000
0000
0000
,
0002
0000
0003
0000
,
0200
0000
0300
0000
,
0020
0030
2000
3000
,
0002
0003
0020
0030
,
0200
0000
0300
0000
,
0020
0000
0030
0000
,
0001
0000
1000
0000
,
1001
0000
0110
0000
,
0010
0010
2002
3003
,
1000
1000
0200
0300
,
0010
0010
0002
0003
,
1000
0000
0010
0000
,
1000
0100
0010
0000
,
0001
0001
0200
0300
,
0010
0010
2000
3000
,
0100
0000
0010
0000
,
0110
0000
1001
0000
,
0001
0001
0200
0300
,
1000
1000
0020
0030
,
0001
0000
0010
0000
,
0001
0100
0010
0000
,
1000
1000
0200
0300
,
0001
0001
0020
0030
,
1000
0000
0001
0000
,
1001
0000
1000
0010
,
1010
0000
0001
0010
,
0022
0000
0000
0033
,
1001
0000
0000
0000
;

//---------------dance-single - ----------------
#NOTES:
     dance-single:
     :
     Beginner:
     1:
     0.096028,0.158806,0.092427,0.075622,0.000000,80.000000,69.000000,11.000000,9.000000,0.000000,0.000000,0.096028,0.158806,0.092427,0.075622,0.000000,80.000000,69.000000,11.000000,9.000000,0.000000,0.000000:
0000
0000
0000
0000
,
0000
0000
0000
0000
,
0000
0000
0000
0000
,
0000
0000
0000
0000
,
1000
0000
0000
0000
,
0100
0000
0000
0000
,
0010
0000
0000
0000
,
0001
0000
0000
0000
,
0100
0000
0000
0000
,
0010
0000
0000
0000
,
1000
0000
1000
0000
,
1000
0000
0000
0000
,
0001
0000
0000
0000
,
1000
0000
1000
0000
,
1000
0000
0000
0000
,
0001
0000
0001
0000
,
0001
0000
0000
0000
,
0010
0000
0010
0000
,
0000
0000
0100
0000
,
0100
0000
0000
0000
,
1001
0000
0000
0000
,
1000
0000
1000
0000
,
1001
0000
0000
0000
,
0001
0000
0001
0000
,
1001
0000
0000
0000
,
0100
0000
0100
0000
,
0000
0000
0010
0000
,
0010
0000
0000
0000
,
2000
0000
3000
0000
,
0200
0000
0300
0000
,
0020
0000
0030
0000
,
0001
0000
0001
0000
,
0002
0000
0003
0000
,
0200
0000
0300
0000
,
0020
0000
0030
0000
,
1001
0000
0000
0000
,
0010
0000
0000
0000
,
0000
0000
0000
0000
,
0000
0000
0000
0000
,
0000
0000
0000
0000
,
1000
0000
0000
0000
,
0001
0000
0000
0000
,
1000
0000
0000
0000
,
1001
0000
1001
0000
,
0020
0000
0030
0000
,
1000
0000
0000
0000
,
0100
0000
0000
0000
,
0010
0000
0010
0000
,
0010
0000
0000
0000
,
0001
0000
0000
0000
,
0100
0000
0000
0000
,
0010
0000
0000
0000
,
1001
0000
1001
0000
,
0001
0000
0000
0000
,
0100
0000
0000
0000
,
0010
0000
0010
0000
,
0010
0000
0000
0000
,
1000
0000
0000
0000
,
0100
0000
0000
0000
,
0010
0000
0000
0000
,
0110
0000
0000
0000
,
0110
0000
0000
0000
,
2002
0000
3003
0000
,
0010
0000
0000
0000
;

//---------------dance-single - ----------------
#NOTES:
     dance-single:
     :
     Challenge:
     11:
     0.495744,0.566850,0.436927,0.453732,0.323494,413.000000,361.000000,52.000000,54.000000,0.000000,0.000000,0.495744,0.566850,0.436927,0.453732,0.323494,413.000000,361.000000,52.000000,54.000000,0.000000,0.000000:
0000
0000
0000
0000
,
0000
0000
0000
0000
,
0000
0000
0000
0000
,
0000
0000
0000
0000
,
0001
0000
0000
0010
0000
0000
0021
0000
0000
0000
0130
0000
0010
0000
0001
0000
,
1000
0000
0000
0010
0000
0000
1020
0000
0000
0000
0130
0010
0100
0000
0001
0000
,
1000
0000
0000
0100
0000
0000
0002
0000
0000
0000
0203
0000
0000
0000
1300
0000
,
0010
0100
0000
0010
0000
0100
0001
0000
0000
0000
2002
0000
0000
0000
3003
0000
,
1000
0000
0000
0010
0000
0000
1020
0000
0000
0000
0130
0000
0010
0000
1000
0000
,
0001
0000
0000
0010
0000
0000
0021
0000
0000
0000
0130
0010
0100
0000
1000
0000
,
0001
0000
0000
0100
0000
0000
0010
0000
1000
0000
0000
0100
0000
0000
0010
0000
,
0110
0000
0000
0110
0000
0000
0220
0000
0000
0000
0300
0030
0000
0000
0000
0000
,
0002
0000
0000
0000
0013
0000
0001
0000
0100
0000
0000
0100
0000
0000
0100
0000
,
0001
0000
1000
0000
0100
0000
1000
0000
0001
0000
0000
0100
0000
0000
0001
0000
,
2000
0000
0000
0000
3010
0000
1000
0000
0100
0000
0000
0100
0000
0000
0100
0000
,
1000
0000
0001
0000
1000
0000
0010
0002
0000
0000
0013
0000
1000
0000
0100
0000
,
0020
0000
0000
0000
0130
0000
0000
0000
1000
0000
0000
0001
0000
0000
1000
0000
,
0001
0000
0100
0000
0010
0000
0100
0000
1000
0000
0000
0100
0000
0000
0001
0000
,
0000
0000
0100
0000
0001
0000
0010
0200
0000
0000
1300
0000
0010
0000
0100
0000
,
0001
0000
1000
0000
0100
0010
0000
0002
0000
0000
0103
0000
0010
0000
1000
0000
,
2001
0000
0000
0000
3100
0000
0000
0000
1100
0000
0000
0011
0000
0000
1100
0000
,
1000
0000
0001
0000
0100
0000
0001
0000
1000
0000
0000
0100
0000
0000
1000
0000
,
1002
0000
0000
0000
0013
0000
0001
0000
0101
0000
0000
1010
0000
0000
0101
0000
,
0001
0000
1000
0000
0001
0000
0010
2000
0000
0000
3010
0000
0001
0000
0100
0000
,
0210
0000
0000
0000
0310
0000
1000
0000
1001
0000
0000
0110
0000
0000
1001
0000
,
1000
0000
0100
0000
0010
0000
0100
0000
0001
0000
0000
0100
0000
0000
1000
0000
,
0000
0000
0100
0000
1000
0000
0010
0200
0000
0000
0310
0000
0100
0000
0001
0000
,
1000
0000
0001
0000
0010
1000
0000
0020
0000
0000
1030
0000
0010
0000
0001
0000
,
0100
0000
0000
0010
0000
0000
0210
0000
0000
0000
0301
0000
0000
0000
1000
0000
,
0100
0000
0000
0010
0000
0000
0210
0000
0000
0000
0310
0000
0001
1000
0001
0000
,
0100
0000
0000
0010
0000
0000
1020
0000
0000
0000
1030
0000
0010
0000
0001
0000
,
0010
0000
1000
0000
0100
0000
0010
0000
0001
0000
1000
0100
0000
0100
0010
0000
,
0001
0000
0000
0100
0000
0000
1002
0000
0000
0000
0103
0000
0000
0000
0001
0000
,
1000
0000
0100
0000
0100
0000
2001
0000
0000
0000
3010
1000
0010
0000
1000
0000
,
0100
0000
0010
0001
0000
0001
1000
0000
0001
0000
0100
0000
0010
0000
1000
0000
,
1001
0000
0000
0110
0000
0000
1001
0000
0000
0000
0001
0000
0010
0000
0100
0000
,
2000
0000
0000
0000
,
3002
0000
0000
0000
,
0203
0000
0320
0000
,
2030
0000
3002
0000
,
1003
1100
0100
0101
,
0001
0011
0010
1010
,
1000
0000
0000
0100
0000
0000
0020
0000
0000
0000
0031
0000
0100
0000
0010
0000
,
1010
0000
0000
1100
0000
0000
0010
0000
0011
0000
0000
0101
0000
0000
0001
1000
,
0001
0000
0010
0000
1000
0000
0010
0000
0001
0000
0000
1001
0000
0000
0000
0000
,
1000
0000
0000
0100
0010
0000
0200
0000
0000
0000
0301
0000
0100
0000
0010
0000
,
0001
0000
0000
0100
0010
0000
0200
0000
0000
0000
1300
0000
0100
0000
0010
0000
,
2000
0000
0000
0100
0000
0000
0001
0000
3002
0000
0000
0100
0000
0000
1000
0000
,
2003
0000
0000
0010
0000
0000
3001
0000
1000
0100
0000
0010
0000
0010
0000
0000
,
0001
0000
0000
0100
0010
0000
0200
0000
0000
0000
1300
0000
0100
0000
0001
0000
,
0010
0000
0000
1000
0000
0000
0010
0000
0001
0000
0100
0010
0000
0000
1000
0000
,
0100
0000
0000
0010
0000
0000
0002
0000
0000
0000
0103
0000
0010
0000
1000
0000
,
1010
0000
0000
0101
0000
0000
0001
0000
0011
0000
0000
1100
0000
0000
1001
0000
,
0001
0000
0000
0100
0010
0000
0002
0000
0000
0000
0013
0000
0100
0000
0001
0000
,
1000
0000
0000
0100
0010
0000
2000
0000
0000
0000
3010
0000
0100
0000
0010
0000
,
0002
0000
0000
0100
0000
0000
1000
0000
2003
0000
0000
0100
0000
0000
0001
0000
,
3002
0000
0000
0010
0000
0000
1003
0000
0001
0100
0000
0010
0000
0010
0000
0000
,
1000
0000
0000
0100
0010
0000
2000
0000
0000
0000
3010
0000
0100
0000
1000
0000
,
0010
0000
0000
0001
0000
0000
0010
0000
1000
0000
0100
0001
0000
0000
0001
0000
,
0100
0000
0000
1000
0000
0000
0002
0000
0000
0000
1003
0000
0010
0000
0100
0000
,
0101
0000
0000
1002
0000
0000
0010
0000
0013
0000
0000
0000
0010
0000
0100
0000
,
1100
0000
0000
2001
0000
0000
3001
0000
1000
0000
0001
0000
1000
0001
0000
0000
,
2002
0000
0000
3003
,
1100
0000
0000
0011
0000
0000
0101
0000
0000
0000
1010
0000
0000
0000
2002
0000
,
0000
3003
0000
0000
;
