#VERSION:0.83;
#TITLE:Linkager;
#SUBTITLE:;
#ARTIST:Aliesrite* (Ym1024 feat. lamie*);
#TITLETRANSLIT:;
#SUBTITLETRANSLIT:;
#ARTISTTRANSLIT:;
#GENRE:J-Rock;
#ORIGIN:;
#CREDIT:;
#BANNER:Linkager.png;
#BACKGROUND:Linkager-bg.png;
#PREVIEWVID:;
#JACKET:Linkager-jacket.png;
#CDIMAGE:;
#DISCIMAGE:;
#LYRICSPATH:;
#CDTITLE:cdtitle.png;
#MUSIC:Linkager.ogg;
#OFFSET:-0.324309;
#SAMPLESTART:58.346291;
#SAMPLELENGTH:10.549446;
#SELECTABLE:YES;
#BPMS:0.000=182.000;
#STOPS:;
#DELAYS:;
#WARPS:;
#TIMESIGNATURES:0.000=4=4;
#TICKCOUNTS:0.000=4;
#COMBOS:0.000=1;
#SPEEDS:0.000=1.000=0.000=0;
#SCROLLS:0.000=1.000;
#FAKES:;
#LABELS:0.000=Song Start;
#BGCHANGES:;
#KEYSOUNDS:;
#ATTACKS:
;

//---------------dance-single - ----------------
#NOTEDATA:;
#CHARTNAME:;
#STEPSTYPE:dance-single;
#DESCRIPTION:;
#CHARTSTYLE:;
#DIFFICULTY:Challenge;
#METER:13;
#RADARVALUES:0.610518,0.735287,0.213197,0.969077,0.038763,441.000000,419.000000,22.000000,100.000000,4.000000,0.000000,0.000000,0.000000,0.000000,0.610518,0.735287,0.213197,0.969077,0.038763,441.000000,419.000000,22.000000,100.000000,4.000000,0.000000,0.000000,0.000000,0.000000;
#CREDIT:;
#NOTES:
0000
0000
0000
0000
,
0000
0000
0000
0000
,
0000
0000
0000
0000
,
0000
0000
0000
0000
,
1000
0010
0100
0002
0000
0013
0100
0010
,
0100
0010
0100
0010
0100
0010
0100
1000
,
0001
0100
0010
2000
0000
3100
0010
0100
,
1000
0010
0001
1000
0100
0002
0000
0000
,
0013
0001
1000
0010
0200
0000
0310
2000
,
0000
3001
1000
0100
0001
0100
1000
0010
,
0200
0000
0310
1000
0002
0000
0013
0200
,
0000
1300
0010
0001
0010
1000
0100
0010
,
0001
1000
0010
0100
0002
0000
0013
0200
,
0000
1300
0010
0100
1000
0100
0001
0010
,
0200
0000
0310
0001
0200
0000
0310
2000
,
0000
3001
0010
1000
0010
0012
0000
0000
,
1003
0001
1000
0001
2000
0000
3010
0002
,
0000
0023
0000
2030
0000
3001
1000
0002
,
0000
0013
0100
0010
0200
0000
2300
0000
,
3001
0200
0000
0320
0000
1030
1001
0000
,
1000
0001
1000
0001
2000
0000
3001
0100
,
0001
0020
0000
2030
0000
3010
0001
2000
,
0000
3001
0200
0000
0320
0000
1030
0010
,
1000
0200
0000
0301
0000
0110
0000
1001
,
0001
0100
1000
0200
0000
0301
0100
0100
,
0010
0010
0100
0100
0010
0010
0100
0001
,
1000
0100
0001
0200
0000
1300
0100
0100
,
0010
0010
0100
0100
0010
2002
0000
3003
,
0001
0010
0001
0010
0002
0000
0103
2000
,
0000
3002
0000
0023
0000
1030
0010
2000
,
0000
3100
0010
0100
2000
0000
3001
0200
,
0000
0302
0000
0023
0000
0031
1001
0000
,
1000
0000
0010
1000
0010
1000
0100
0002
,
0000
2003
0000
3020
0000
0031
0010
0002
,
0000
0103
0010
1000
0200
0000
0310
0002
,
0000
0203
0000
1300
0000
0110
0000
1001
,
0001
0010
1000
0020
0000
0031
0010
0010
,
0100
0100
0010
0010
0001
0001
0100
0001
,
1000
0010
0001
0020
0000
1030
0010
0010
,
0100
0100
0010
0010
1000
1000
0100
0001
,
0100
1000
0010
0200
0000
0301
0010
0100
,
0100
0010
0001
0001
1000
0001
0100
0010
,
1010
0000
1000
0100
0010
0001
0100
0010
,
1000
0001
1000
0001
1000
0001
1000
0001
0000
0000
MMMM
0000
0000
0000
0000
0000
,
1020
0000
0032
0000
0023
0000
1030
0200
,
0000
0302
0000
0203
0000
1300
1100
0000
,
0001
0010
0001
0010
0001
0100
1000
0200
,
0000
0302
0000
0023
0000
0130
1100
0000
,
0001
0100
0010
1000
0002
0000
0013
2000
,
0000
3200
0000
0302
0000
0000
0013
0000
,
2100
0000
0000
0100
3001
0000
1001
0000
,
0102
0000
0000
0100
1003
0000
1001
0000
,
0001
0010
1000
0010
0002
0000
1003
0020
,
0000
0032
0000
0023
0000
0130
0101
0000
,
2000
0000
3010
1000
0200
0000
0301
0200
,
0000
0320
0000
0032
0000
1003
1001
0000
,
1000
0010
0100
0001
2000
0000
3010
0002
,
0000
0203
0000
2300
0000
0000
3010
0000
,
0102
0000
1000
0000
0103
0001
0001
2000
,
0100
0000
0001
0000
3100
1000
1001
0000
,
0102
0000
1000
2003
0000
0100
3100
0020
,
0000
0130
0100
1000
0001
0100
0001
0010
,
1000
0000
0010
0000
0001
0000
0100
0000
0010
0100
0010
0100
0010
0100
0010
0200
,
0020
0000
0000
0330
,
0010
1000
0001
0010
0200
0000
0310
0002
,
0000
1003
0001
0100
1000
0100
0001
0010
,
0200
0000
0310
0001
2000
0000
3010
0200
,
0000
0301
0010
1000
0010
0001
0100
0010
,
1000
0001
0010
0100
2000
0000
3010
0200
,
0000
0301
0010
0100
0001
0100
1000
0010
,
0200
0000
0310
1000
0200
0000
0310
0002
,
0000
1003
0010
0001
1000
0100
0001
0010
,
0220
0000
0000
0000
,
0000
0000
0000
0000
,
0000
0000
0000
0000
,
0000
0000
0000
0000
0000
0000
0000
0330
;

//---------------dance-single - ----------------
#NOTEDATA:;
#CHARTNAME:;
#STEPSTYPE:dance-single;
#DESCRIPTION:;
#CHARTSTYLE:;
#DIFFICULTY:Hard;
#METER:10;
#RADARVALUES:0.477616,0.588230,0.290723,0.726808,0.000000,345.000000,315.000000,30.000000,75.000000,4.000000,0.000000,0.000000,0.000000,0.000000,0.477616,0.588230,0.290723,0.726808,0.000000,345.000000,315.000000,30.000000,75.000000,4.000000,0.000000,0.000000,0.000000,0.000000;
#CREDIT:;
#NOTES:
0000
0000
0000
0000
,
0000
0000
0000
0000
,
0000
0000
0000
0000
,
0000
0000
0000
0000
,
0001
0010
0001
0020
0000
0000
0130
0000
,
0100
0100
0100
0100
,
1000
0010
1000
0020
0000
0000
0100
0000
,
0100
0000
0130
0000
0002
2000
0003
3000
,
0001
0000
0010
0000
0200
0000
0310
2000
,
0000
3010
0200
0000
0310
0001
0010
0001
,
1000
0000
0001
0000
0200
0000
1300
0200
,
0000
0310
0200
0000
0301
1000
0001
1000
,
0100
0000
0010
0000
0002
0000
0103
0020
,
0000
0031
0020
0000
0130
0001
0100
0001
,
1000
0000
0100
0000
0002
0000
0103
0020
,
0000
0130
2000
0000
3002
0200
0003
0300
,
0001
0000
0010
0000
0100
0000
0010
0002
,
0000
0203
0000
2300
0000
3000
0000
1200
,
0000
0301
0010
0100
,
0010
0002
0000
1003
0000
2002
3000
0003
,
1000
0010
0100
0010
,
1000
0200
0000
0302
0000
0003
0000
0201
,
0000
1300
0010
0100
,
0001
0010
0000
1100
0000
0011
0000
1000
,
0010
1000
0010
0200
0000
0000
0001
0000
,
0001
0000
0001
0000
0301
0000
0100
0001
,
0010
0001
0010
0200
0000
0000
1000
0000
,
1000
0000
1300
0000
0002
2000
0003
3000
,
0001
0000
0100
0000
0010
0000
0100
0002
,
0000
0023
0000
2030
0000
3000
0000
1020
,
0000
0000
0031
0000
1000
0000
0010
0200
,
0000
0301
0000
2001
0000
0000
3001
0000
,
1000
0000
0100
0000
0010
0000
0100
2000
,
0000
3020
0000
0032
0000
0003
0000
0021
,
0000
0000
1030
0000
0100
0000
0010
0002
,
0000
0103
0000
0101
0000
1010
0000
1000
,
0100
1000
0100
0020
0000
0000
0001
0000
,
0001
0000
0001
0000
0031
0000
0010
0001
,
0100
0001
0100
0020
0000
0000
1000
0000
,
1000
1000
1030
0110
,
1001
0000
1000
0100
0000
0100
0010
0000
,
0001
0100
0000
0100
0010
0000
1000
0001
,
0010
0100
0100
0100
,
1000
0001
1000
0001
0000
MMMM
0000
0000
,
1010
0000
0011
0000
1010
0000
1000
0100
,
0000
0101
0000
2100
0000
0000
3001
0000
,
1000
0010
1000
0010
1000
0000
0001
0010
,
0000
1100
0000
0012
0000
0000
1003
0000
,
0001
0100
0001
0100
0001
0000
1000
0200
,
0000
0302
0000
0203
0000
0000
1300
0000
,
1200
0000
0000
0310
0001
0000
0100
0000
,
0201
0000
0000
0310
1000
0000
0100
0000
,
0010
0001
0010
0001
0010
0000
0001
0100
,
0000
1100
0000
0102
0000
0000
1003
0000
,
1001
0000
0001
0100
0010
0000
1000
0010
,
0000
0101
0000
2001
0000
0000
3001
0000
,
0010
0100
0010
0100
0010
0000
0001
0200
,
0000
2300
0000
3200
0000
0000
0301
0000
,
0020
0000
0100
0000
0130
0000
1000
0010
,
0200
0010
0310
0100
,
0001
0000
1000
0100
0000
0100
0010
0000
,
0001
0100
0001
0100
0010
0000
0101
0000
,
1010
0000
0101
0000
1000
0100
0010
0002
,
2000
0000
0000
3003
,
1000
0000
0010
0000
0200
0000
0310
0002
,
0000
0013
0200
0000
0310
1000
0010
1000
,
0001
0000
1000
0000
0200
0000
0301
0200
,
0000
0310
0200
0000
1300
0001
1000
0001
,
0100
0000
0010
0000
2000
0000
3100
0020
,
0000
1030
0020
0000
0130
1000
0100
1000
,
0001
0000
0100
0000
2000
0000
3100
0020
,
0000
0130
0002
0000
0013
0100
0010
0000
,
2002
0000
0000
0000
,
0000
0000
0000
0000
,
0000
0000
0000
0000
,
0000
0000
0000
0000
0000
0000
0000
3003
;

//---------------dance-single - ----------------
#NOTEDATA:;
#CHARTNAME:;
#STEPSTYPE:dance-single;
#DESCRIPTION:;
#CHARTSTYLE:;
#DIFFICULTY:Medium;
#METER:7;
#RADARVALUES:0.326717,0.404408,0.203506,0.503920,0.000000,236.000000,215.000000,21.000000,52.000000,4.000000,0.000000,0.000000,0.000000,0.000000,0.326717,0.404408,0.203506,0.503920,0.000000,236.000000,215.000000,21.000000,52.000000,4.000000,0.000000,0.000000,0.000000,0.000000;
#CREDIT:;
#NOTES:
0000
0000
0000
0000
,
0000
0000
0000
0000
,
0000
0000
0000
0000
,
0000
0000
0000
0000
,
0000
0100
0000
0100
,
0000
0100
0000
0100
,
0000
0100
0000
0100
,
0010
0100
2002
3003
,
0001
0000
0100
0000
0020
0000
0030
2000
,
0000
3000
0001
0000
0010
0000
0100
0000
,
1000
0000
0010
0000
0200
0000
0300
0002
,
0000
0003
0010
0000
1000
0000
0010
0000
,
0001
0000
1000
0000
0020
0000
0030
0200
,
0000
0300
0001
0000
0010
0000
0100
0000
,
1000
0000
0010
0000
0200
0000
0300
0002
,
0000
0003
1000
0000
2002
0000
3003
0000
,
0001
0000
0010
0000
0100
0000
0000
0100
,
0000
0010
0000
0002
0000
0003
0000
2000
,
0000
3000
0010
0000
0100
0000
0001
0000
,
1000
0000
0000
0200
0000
0000
0300
0000
,
1000
0010
0100
0100
,
0010
0000
0000
2000
0000
3000
0000
0002
,
0000
0003
0010
0000
0100
0000
1000
0000
,
0001
0000
0001
0100
,
2010
0001
0000
0100
,
0000
0100
0000
3100
,
0012
1000
0000
0100
,
0000
0103
2002
3003
,
1000
0000
0100
0000
0001
0000
0000
0001
,
0000
0100
0000
2000
0000
3000
0000
0020
,
0000
0030
0100
0000
0001
0000
1000
0000
,
0100
0000
0000
0020
0000
0030
0000
0000
,
0001
0000
0100
0000
1000
0000
0000
1000
,
0000
0100
0000
0002
0000
0003
0000
0020
,
0000
0030
0100
0000
1000
0000
0001
0000
,
0100
0000
0001
0010
,
2100
0001
0000
0010
,
0000
0010
0000
3010
,
0102
1000
0000
0010
,
0000
0013
0100
0010
,
0001
0101
0000
0101
,
1000
1100
0000
1100
,
0001
0001
1000
1000
,
0010
0000
0010
0000
0000
MMMM
0000
0000
,
1000
0010
1000
0001
,
0010
0100
0220
0330
,
0010
0001
0100
1000
,
0100
0001
0202
0303
,
0100
0001
0010
0100
,
1000
0010
0100
0001
,
2001
0000
3100
0000
,
1002
0000
0103
0000
,
0001
0010
0001
1000
,
0010
0100
0220
0330
,
0010
1000
0100
0001
,
0100
1000
2200
3300
,
0100
1000
0010
0100
,
0001
0010
0001
1000
,
1020
0000
0130
0001
,
0201
0000
0301
1000
,
0100
0100
0010
0010
,
0100
0100
1000
0001
,
0100
0010
0100
0010
,
2002
0000
0000
3003
,
1000
0000
0100
0000
0020
0000
0030
0002
,
0000
0003
1000
0000
0010
0000
0100
0000
,
0001
0000
0010
0000
0200
0000
0300
2000
,
0000
3000
0010
0000
0001
0000
0010
0000
,
1000
0000
0001
0000
0020
0000
0030
0200
,
0000
0300
1000
0000
0010
0000
0100
0000
,
0001
0000
0010
0000
0200
0000
0300
2000
,
0000
3000
0001
0000
0100
0000
0010
0000
,
2002
0000
0000
0000
,
0000
0000
0000
0000
,
0000
0000
0000
0000
,
0000
0000
0000
0000
0000
0000
0000
3003
;

//---------------dance-single - ----------------
#NOTEDATA:;
#CHARTNAME:;
#STEPSTYPE:dance-single;
#DESCRIPTION:;
#CHARTSTYLE:;
#DIFFICULTY:Easy;
#METER:5;
#RADARVALUES:0.274110,0.294115,0.048454,0.164743,0.000000,198.000000,193.000000,5.000000,17.000000,0.000000,0.000000,0.000000,0.000000,0.000000,0.274110,0.294115,0.048454,0.164743,0.000000,198.000000,193.000000,5.000000,17.000000,0.000000,0.000000,0.000000,0.000000,0.000000;
#CREDIT:;
#NOTES:
0000
0000
0000
0000
,
0000
0000
0000
0000
,
0000
0000
0000
0000
,
0000
0000
0000
0000
,
0000
0010
0000
0010
,
0000
0010
0000
0010
,
0000
0010
0000
0010
,
0010
0010
2002
3003
,
0001
0100
0010
0000
,
0010
0000
0100
0001
,
1000
0100
0010
0000
,
0010
0000
0001
1000
,
0010
0100
0001
0000
,
0001
0000
1000
0001
,
0010
0100
1000
0000
,
1000
0000
0010
0100
,
0001
0001
0001
0000
,
0010
0001
0100
0000
,
0010
0010
0010
0000
,
0100
0001
1000
0000
,
1000
1000
1000
0000
,
0010
1000
0100
0000
,
0010
0010
0010
0000
,
0100
1000
0001
0000
,
2000
0010
0000
0010
,
0000
0010
0000
0010
,
3002
0010
0000
0010
,
0000
0013
2002
3003
,
1000
1000
1000
0000
,
0100
1000
0010
0000
,
1000
1000
1000
0000
,
0100
0010
0001
0000
,
0001
0001
0001
0000
,
0100
0001
0010
0000
,
0001
0001
0001
0000
,
0100
0010
1000
0000
,
0002
0010
0000
0010
,
0000
0010
0000
0010
,
2003
0010
0000
0010
,
0000
3010
1000
1000
,
0100
0010
0000
0010
,
0000
0010
0000
0010
,
0001
0100
0000
0100
,
0220
0000
0000
0000
0000
0000
0000
0330
0000
0000
0000
0000
0000
0000
0000
0000
,
1000
0010
1000
0000
,
0001
0010
0001
0000
,
1000
0100
1000
0000
,
0001
0100
0001
0000
,
0010
0100
0010
0000
,
0100
1000
0001
0100
,
0002
0000
0013
0000
,
2000
0000
3010
0000
,
0001
0010
0001
0000
,
1000
0010
1000
0000
,
0001
0100
0001
0000
,
1000
0100
1000
0000
,
0010
0100
0010
0000
,
0100
0001
1000
0100
,
0020
0000
0130
1000
,
0002
0000
0103
0010
,
1000
0000
0001
0000
,
1000
0000
1001
0000
,
0001
0100
0010
1000
,
0200
0000
0000
0300
,
1000
0100
0010
0000
,
0010
0000
0100
1000
,
0001
0100
0010
0000
,
0010
0000
1000
0001
,
0010
0100
1000
0000
,
1000
0000
0001
1000
,
0010
0100
0001
0000
,
0001
0000
0010
0100
,
0220
0000
0000
0000
,
0000
0000
0000
0000
,
0000
0000
0000
0000
,
0000
0000
0000
0000
0000
0000
0000
0330
;

//---------------dance-single - ----------------
#NOTEDATA:;
#CHARTNAME:;
#STEPSTYPE:dance-single;
#DESCRIPTION:;
#CHARTSTYLE:;
#DIFFICULTY:Beginner;
#METER:3;
#RADARVALUES:0.186893,0.220586,0.029072,0.155052,0.000000,135.000000,132.000000,3.000000,16.000000,0.000000,0.000000,0.000000,0.000000,0.000000,0.186893,0.220586,0.029072,0.155052,0.000000,135.000000,132.000000,3.000000,16.000000,0.000000,0.000000,0.000000,0.000000,0.000000;
#CREDIT:;
#NOTES:
// measure 0
0000
0000
0000
0000
,  // measure 1
0000
0000
0000
0000
,  // measure 2
0000
0000
0000
0000
,  // measure 3
0000
0000
0000
0000
,  // measure 4
0000
0010
0000
0010
,  // measure 5
0000
0010
0000
0010
,  // measure 6
0000
0010
0000
0010
,  // measure 7
0010
0010
0010
0000
,  // measure 8
1000
0000
1000
0000
,  // measure 9
0100
0000
0100
0000
,  // measure 10
0010
0000
0010
0000
,  // measure 11
0001
0000
0001
0000
,  // measure 12
0100
0000
0100
0000
,  // measure 13
0010
0000
0010
0000
,  // measure 14
1000
0000
1000
0000
,  // measure 15
0001
0000
0001
0000
,  // measure 16
0010
0010
0010
0000
,  // measure 17
0100
0000
0010
0000
,  // measure 18
0100
0100
0100
0000
,  // measure 19
1000
0000
0001
0000
,  // measure 20
0100
0100
0100
0000
,  // measure 21
0010
0000
0100
0000
,  // measure 22
0010
0010
0010
0000
,  // measure 23
1000
0000
0001
0000
,  // measure 24
0020
0000
0000
0000
,  // measure 25
0000
0000
0030
0000
,  // measure 26
0200
0000
0000
0000
,  // measure 27
0000
0000
0300
0000
,  // measure 28
0010
0010
0010
0000
,  // measure 29
0001
0000
1000
0000
,  // measure 30
0010
0010
0010
0000
,  // measure 31
1000
0000
0001
0000
,  // measure 32
0100
0100
0100
0000
,  // measure 33
0001
0000
1000
0000
,  // measure 34
0100
0100
0100
0000
,  // measure 35
1000
0000
0001
0000
,  // measure 36
0200
0000
0000
0000
,  // measure 37
0000
0000
0300
0000
,  // measure 38
0020
0000
0000
0000
,  // measure 39
0000
0000
0030
0000
,  // measure 40
2000
0000
3000
0000
,  // measure 41
0002
0000
0003
0000
,  // measure 42
0010
0000
0010
0000
,  // measure 43
2002
0000
0000
0000
0000
0000
0000
3003
0000
0000
0000
0000
0000
0000
0000
0000
,  // measure 44
1000
0000
1000
0000
,  // measure 45
0010
0010
0010
0000
,  // measure 46
1000
0000
1000
0000
,  // measure 47
0100
0100
0100
0000
,  // measure 48
1000
0000
1000
0000
,  // measure 49
0010
0010
0010
0000
,  // measure 50
0200
0000
0300
0000
,  // measure 51
0200
0000
0300
0000
,  // measure 52
0001
0000
0001
0000
,  // measure 53
0010
0010
0010
0000
,  // measure 54
0001
0000
0001
0000
,  // measure 55
0100
0100
0100
0000
,  // measure 56
0001
0000
0001
0000
,  // measure 57
0010
0010
0010
0000
,  // measure 58
0002
0000
0003
0000
,  // measure 59
2000
0000
3000
0000
,  // measure 60
0010
0000
0010
0000
,  // measure 61
0100
0000
0100
0000
,  // measure 62
0001
0000
1000
0000
,  // measure 63
2002
0000
3003
0000
,  // measure 64
0001
0000
0001
0000
,  // measure 65
0100
0000
0100
0000
,  // measure 66
0010
0000
0010
0000
,  // measure 67
1000
0000
1000
0000
,  // measure 68
0100
0000
0100
0000
,  // measure 69
0010
0000
0010
0000
,  // measure 70
0001
0000
0001
0000
,  // measure 71
1000
0000
1000
0000
,  // measure 72
0220
0000
0000
0000
,  // measure 73
0000
0000
0000
0000
,  // measure 74
0000
0000
0000
0000
,  // measure 75
0000
0000
0000
0000
0000
0000
0000
0330
;
