#VERSION:0.83;
#TITLE:Latino Virus;
#SUBTITLE:;
#ARTIST:Warak;
#TITLETRANSLIT:;
#SUBTITLETRANSLIT:;
#ARTISTTRANSLIT:;
#GENRE:Fiesta Classical;
#ORIGIN:;
#CREDIT:;
#BANNER:Latino Virus.png;
#BACKGROUND:Latino Virus-bg.png;
#PREVIEWVID:;
#JACKET:Latino Virus-jacket.png;
#CDIMAGE:;
#DISCIMAGE:;
#LYRICSPATH:;
#CDTITLE:cdtitle.png;
#MUSIC:Latino Virus.ogg;
#OFFSET:0.965755;
#SAMPLESTART:19.680304;
#SAMPLELENGTH:11.294119;
#SELECTABLE:YES;
#BPMS:0.000=170.000,
217.000=85.000,
219.000=170.000;
#STOPS:122.000=0.353,
217.000=0.706;
#DELAYS:;
#WARPS:;
#TIMESIGNATURES:0.000=4=4;
#TICKCOUNTS:0.000=4;
#COMBOS:0.000=1;
#SPEEDS:0.000=1.000=0.000=0;
#SCROLLS:0.000=1.000;
#FAKES:;
#LABELS:0.000=Song Start;
#BGCHANGES:2.625=Latino Virus.avi=1.000=1=0=0=StretchNoLoop==CrossFade==,
99999=-nosongbg-=1.000=0=0=0 // don't automatically add -songbackground-
;
#KEYSOUNDS:;
#ATTACKS:
;

//---------------dance-single - ----------------
#NOTEDATA:;
#CHARTNAME:;
#STEPSTYPE:dance-single;
#DESCRIPTION:;
#CHARTSTYLE:;
#DIFFICULTY:Challenge;
#METER:15;
#RADARVALUES:0.788659,0.922951,0.521296,0.615300,0.555480,646.000000,585.000000,61.000000,72.000000,0.000000,0.000000,0.000000,0.000000,0.000000,0.788659,0.922951,0.521296,0.615300,0.555480,646.000000,585.000000,61.000000,72.000000,0.000000,0.000000,0.000000,0.000000,0.000000;
#CREDIT:;
#OFFSET:0.965755;
#BPMS:0.000000=170.000000
,217.000000=85.000000
,219.000000=170.000000
;
#STOPS:122.000000=0.353000
,217.000000=0.706000
;
#DELAYS:;
#WARPS:;
#TIMESIGNATURES:0.000000=4=4
;
#TICKCOUNTS:0.000000=4
;
#COMBOS:0.000000=1
;
#SPEEDS:0.000000=1.000000=0.000000=0
;
#SCROLLS:0.000000=1.000000
;
#FAKES:;
#LABELS:0.000000=Song Start
;
#NOTES:
0000
0000
0000
0000
,
0000
0000
0000
0000
,
0000
0000
0000
0000
,
0000
0000
0000
0000
,
0000
0000
0000
0000
,
0001
0200
0000
0301
0100
0010
0100
0001
,
1000
0200
0000
1300
0100
0010
0100
1000
,
1010
0101
0011
1100
,
1001
0101
2002
3003
,
1000
0001
0011
0000
0001
1000
1010
0000
,
0010
1000
0010
1000
0001
1000
0001
1000
0100
1000
0100
1000
0100
1000
0100
1000
,
0001
1000
1010
0000
1000
0001
0011
0000
,
0010
0001
0010
0001
1000
0001
1000
0001
0100
0001
0100
0001
0100
0001
0100
0001
,
1000
0100
0010
0001
1000
0100
0001
1000
,
0010
0001
0100
0010
2000
0000
0000
0000
0000
0000
3001
0000
0100
0000
0010
0000
,
2001
0000
3100
1000
0102
0000
0103
0001
,
2100
0000
0000
0000
3001
0000
0100
0001
1000
0000
0100
0000
0001
0000
0100
0000
,
0010
0001
0100
0010
1010
0000
0011
0000
,
2010
0000
0000
0000
3001
0000
0010
0000
0000
0000
0010
0000
0001
0100
0010
1000
,
0002
0000
0000
0000
0013
0000
0000
0000
1100
0000
0000
0000
1000
0100
0010
0001
,
2000
0000
3010
0000
0101
0000
0001
0010
,
2000
0000
3010
1000
0200
0000
1300
0100
,
0002
0000
0000
0000
0013
0000
0001
0000
1000
0010
0100
0000
0001
0000
1000
0000
,
1002
0000
0103
0001
2100
0000
3100
1000
,
0102
0000
0000
0000
1003
0000
0100
0000
0010
0000
0001
0100
0001
0100
0010
1000
,
0001
1010
0011
1010
,
0012
0000
0000
0000
1003
0000
0010
0000
0000
0000
0010
0000
1000
0100
0010
0001
,
2000
0000
0000
0000
3010
0000
0000
0000
0101
0000
0000
0000
0001
0100
0010
1000
,
0002
0000
0013
0000
1100
0000
1000
0010
,
0002
0000
0013
0001
0200
0000
0301
0100
,
2000
0000
3010
1000
1001
0000
1000
0100
,
0010
0000
0100
0000
1000
0000
0010
0000
0100
0000
0010
0000
1000
0010
1000
0000
,
0001
1000
0001
0000
1000
0100
1000
0000
0010
0000
1000
0000
0001
0000
0100
0000
,
0010
0000
0100
0000
0001
0000
0010
0000
0100
0000
0010
0000
0001
0010
0001
0000
,
1000
0001
1000
0000
0001
0100
0001
0000
0010
0000
0001
0000
1000
0000
0010
0100
,
0001
0100
0001
0100
0010
0000
1000
0001
0010
0000
0001
0000
1000
0010
1000
0010
,
1000
0010
1000
0000
0001
0000
1000
0100
1000
0100
1000
0100
0010
0000
0100
1000
,
0010
0000
0002
0000
0000
0000
0023
0000
0000
0000
1030
0000
0100
0000
0010
0001
,
1000
0001
1000
0001
0200
0000
0000
0000
0300
0000
0000
0000
2001
0000
0000
0000
,
0000
0000
3001
0010
0001
0000
1000
0000
0010
0000
1000
0000
0001
0010
0001
0010
,
0001
0100
0001
0100
0010
0000
0100
0000
1000
0000
0100
0000
0120
0000
0000
0000
,
0000
0000
1030
0100
0010
0000
0001
0000
0100
0000
0010
0000
1000
0010
1000
0010
,
1000
0100
1000
0100
0010
0000
0001
0100
0010
0000
1000
0000
2010
0000
0000
0000
,
0000
0000
3001
0010
0100
0010
0100
0010
0001
1000
0001
1000
0010
0000
1000
0001
,
1000
0100
0001
0100
1000
0100
0210
0000
,
0000
0000
0310
0001
1000
0000
0010
0000
0001
0000
0010
0000
1000
0010
1000
0010
,
1000
0001
1000
0001
0010
0001
0010
0001
1000
0001
1000
0001
0200
0000
0000
0000
,
0000
0000
0000
0000
0000
0000
0301
0000
0000
0100
0000
0000
0010
0000
0000
0000
1000
0000
0000
0000
0010
0000
0000
0000
1000
0000
0000
0010
0000
0000
1000
0000
0000
0010
0000
0000
0100
0000
0000
0000
0000
0000
0001
0000
0000
1000
0000
0000
,
0001
1000
0001
0010
0100
0010
0002
0000
0000
0000
0003
1000
0010
0000
0100
0000
,
0001
0010
0001
0010
0100
1000
0100
1000
0001
1000
0100
0010
0001
0100
0001
0100
,
0010
0000
2000
0000
0000
0000
3001
0000
0000
0000
0001
0100
0020
0000
0000
0000
,
0000
0000
1030
0001
0010
0100
0010
0100
0010
0100
0010
0100
1000
0000
0001
0000
,
1000
0010
0100
0010
0100
0010
2000
0000
0000
0000
3001
0010
0100
0010
0100
0010
,
0001
0000
0200
0000
0000
0000
2300
0000
0000
0000
3100
0000
0001
0000
1000
0100
,
0010
0001
0100
0010
1000
0000
0000
0000
0000
0001
0100
0010
2001
0000
0000
0000
,
3010
1000
0102
0000
0013
0001
1200
0000
,
0310
0000
0001
0100
0010
0000
0100
0000
1000
0000
0100
0000
0001
0000
0010
0000
,
1000
0010
0011
0000
1010
0000
0012
0000
,
1003
0000
0010
0000
0000
0000
0010
0000
0100
0001
1000
0100
0020
0000
0000
0000
,
0031
0000
0000
0000
1100
0000
0000
0000
0100
1000
0001
0100
0020
0000
0000
0000
,
1030
0000
0101
0000
0001
0010
2000
0000
,
3010
1000
0200
0000
1300
0100
0002
0000
,
1003
0000
0100
0000
0010
0001
0100
0000
0010
0000
1000
0000
1002
0000
0000
0000
,
0013
0001
2100
0000
3010
1000
0201
0000
,
0310
0000
1000
0000
0100
0000
0010
0001
0100
0001
0100
0010
1000
0000
0000
0000
,
0011
1010
0011
2010
,
3001
0000
0010
0000
0000
0000
0010
0000
0100
1000
0001
0100
0020
0000
0000
0000
,
1030
0000
0000
0000
0101
0000
0000
0000
0100
0001
1000
0100
0020
0000
0000
0000
,
0031
0000
1100
0000
1000
0010
0002
0000
,
0013
0001
0200
0000
0301
0100
2000
0000
,
3001
0000
0100
0000
0010
1000
0100
0000
0010
0001
1000
0010
0200
0000
0000
0000
,
0301
0000
0000
0000
1010
0000
0000
0000
0010
1000
0001
0010
0200
0000
0000
0000
,
1300
0000
0011
0000
0001
0100
2000
0000
,
3100
1000
0020
0000
1030
0010
0002
0000
,
0000
0000
0000
1000
1003
0000
0001
0200
,
0000
0301
0100
1000
0100
0010
1000
0200
,
0000
1300
0100
0001
0100
1000
1010
0000
,
0101
0011
1100
2020
,
3030
0202
0303
2002
,
3003
2200
3300
0220
,
0330
0000
0000
0000
;

//---------------dance-single - ----------------
#NOTEDATA:;
#CHARTNAME:;
#STEPSTYPE:dance-single;
#DESCRIPTION:;
#CHARTSTYLE:;
#DIFFICULTY:Hard;
#METER:11;
#RADARVALUES:0.522517,0.615300,0.410200,0.666575,0.017092,428.000000,380.000000,48.000000,78.000000,0.000000,0.000000,4.000000,0.000000,0.000000,0.522517,0.615300,0.410200,0.666575,0.017092,428.000000,380.000000,48.000000,78.000000,0.000000,0.000000,4.000000,0.000000,0.000000;
#CREDIT:;
#OFFSET:0.965755;
#BPMS:0.000000=170.000000
,217.000000=85.000000
,219.000000=170.000000
;
#STOPS:122.000000=0.353000
,217.000000=0.706000
;
#DELAYS:;
#WARPS:;
#TIMESIGNATURES:0.000000=4=4
;
#TICKCOUNTS:0.000000=4
;
#COMBOS:0.000000=1
;
#SPEEDS:0.000000=1.000000=0.000000=0
;
#SCROLLS:0.000000=1.000000
;
#FAKES:;
#LABELS:0.000000=Song Start
;
#NOTES:
0000
0000
0000
0000
,
0000
0000
0000
0000
,
0000
0000
0000
0000
,
0000
0000
0000
0000
,
0000
0000
0000
0000
,
1000
0200
0000
1300
0100
0010
0100
1000
,
0001
0200
0000
0301
0100
0010
0100
0001
,
1001
0011
1001
1010
,
1001
1100
0220
0330
,
0001
0100
1000
0000
0001
0100
1000
0000
,
0004
0400
0000
0000
0000
0000
0000
0000
0000
0000
0000
0000
0303
0000
0000
0000
,
1000
0100
0001
0000
1000
0100
0001
0000
,
4000
0400
0000
0000
0000
0000
0000
0000
0000
0000
0000
0000
3300
0000
0000
0000
,
0001
0100
0010
1000
0001
0100
1000
0100
,
0001
0010
0200
0000
0000
0310
0001
0100
,
0020
0000
0000
1030
0002
0000
0000
1003
,
0200
0000
0000
0310
0100
0010
0001
1000
,
0001
0100
0010
1000
0001
0000
0101
0000
,
2020
0000
3030
0000
0001
1000
0100
0010
,
0002
0000
0003
0000
0101
0000
0100
0010
,
2000
0000
3000
0000
1100
0000
0100
0001
,
0100
0000
0001
0010
0001
0000
0010
1000
,
0020
0000
0000
0030
1000
0001
0100
0001
,
0020
0000
0000
0031
2000
0000
0000
3001
,
0200
0000
0000
0000
0310
1000
0100
0010
,
0001
1100
0011
1100
,
0022
0000
0033
0000
1000
0001
0100
0010
,
2000
0000
3000
0000
1100
0000
0100
0010
,
0002
0000
0003
0000
0101
0000
0100
1000
,
0100
0000
1000
0010
1000
0000
0010
0001
,
0020
0000
0031
0000
1001
0000
1000
0100
,
1000
0001
1000
0010
1000
0000
1010
0000
,
0110
0000
0101
0000
1001
0000
0001
0100
,
0001
1000
0001
0010
0001
0000
0011
0000
,
0110
0000
1100
0000
1001
0000
1000
0010
,
0100
0001
0010
0001
0100
0000
0010
1000
,
0100
1000
0010
0100
0001
0000
1000
0100
,
0010
0200
0000
0302
0000
0103
0010
0100
,
1000
0001
0200
0000
0300
0000
2001
0000
,
0000
3010
1000
1000
0100
0000
0001
0100
,
0001
0100
1000
0100
1000
0100
0002
0000
,
0000
0013
0001
0001
0100
0000
1000
0100
,
1000
0100
0001
0100
0001
0100
2000
0000
,
0000
3001
0100
0010
1000
0000
0001
0010
,
0100
1000
0010
0100
0001
1000
0200
0000
,
0000
0301
0100
1000
0100
0000
1000
0010
,
1000
0010
0001
0010
0001
0010
2000
0000
,
0000
3010
2000
0000
3200
0000
0320
0000
,
0032
0000
0013
0200
0000
1300
0002
0000
,
0203
2300
3200
0302
,
0013
2000
0000
0000
3000
0010
0002
0000
,
0000
1003
0020
0000
0230
0000
0301
0010
,
0200
0000
1300
0002
0000
0000
1003
0001
,
0100
0020
0000
0230
0000
0310
1000
0001
,
1000
0000
0001
0000
0010
0000
0000
0000
0000
0001
0100
0010
2000
0000
0000
0000
,
0000
3010
0002
0000
0000
0013
2000
0000
,
0000
3010
0100
0001
1000
0001
1000
0100
,
0001
0100
1000
0000
1100
0000
0022
0000
,
0033
0000
1000
0010
0001
0010
2000
0000
,
3000
0000
1010
0000
0100
0001
0020
0000
,
0030
0000
0011
0000
0010
1000
0010
0000
,
1000
0100
1000
0000
0100
0001
0200
0000
,
0000
0300
0001
0100
0010
1000
0002
0000
,
0000
0013
2000
0000
0000
3010
0002
0000
,
0000
0000
0013
0001
0100
0010
1000
0000
,
0101
1010
0101
2020
,
3030
0000
0001
0010
1000
0010
0002
0000
,
0003
0000
0011
0000
0100
1000
0020
0000
,
0030
0000
1010
0000
0010
0001
0010
0000
,
0001
0100
0001
0000
0100
1000
0200
0000
,
0000
0000
1300
0010
0001
0010
2000
0000
,
3000
0000
1100
0000
0010
0001
0200
0000
,
0300
0000
0101
0000
0100
1000
0100
0000
,
1000
0010
1000
0000
0010
0001
0020
0000
,
0000
0000
0030
0000
0000
0000
0001
0200
,
0000
0301
0100
0010
0100
0001
1000
0200
,
0000
1300
0100
0010
0100
1000
1001
0000
,
0101
1001
1100
0022
,
0033
0202
0303
2020
,
3030
2200
3300
2002
,
3003
0000
0000
0000
;

//---------------dance-single - ----------------
#NOTEDATA:;
#CHARTNAME:;
#STEPSTYPE:dance-single;
#DESCRIPTION:;
#CHARTSTYLE:;
#DIFFICULTY:Medium;
#METER:8;
#RADARVALUES:0.391888,0.442995,0.239284,0.452930,0.000000,321.000000,293.000000,28.000000,53.000000,0.000000,0.000000,0.000000,0.000000,0.000000,0.391888,0.442995,0.239284,0.452930,0.000000,321.000000,293.000000,28.000000,53.000000,0.000000,0.000000,0.000000,0.000000,0.000000;
#CREDIT:;
#OFFSET:0.965755;
#BPMS:0.000000=170.000000
,217.000000=85.000000
,219.000000=170.000000
;
#STOPS:122.000000=0.353000
,217.000000=0.706000
;
#DELAYS:;
#WARPS:;
#TIMESIGNATURES:0.000000=4=4
;
#TICKCOUNTS:0.000000=4
;
#COMBOS:0.000000=1
;
#SPEEDS:0.000000=1.000000=0.000000=0
;
#SCROLLS:0.000000=1.000000
;
#FAKES:;
#LABELS:0.000000=Song Start
;
#NOTES:
0000
0000
0000
0000
,
0000
0000
0000
0000
,
0000
0000
0000
0000
,
0000
0000
0000
0000
,
0000
0000
0000
0000
,
1000
0000
1000
0100
,
0001
0000
0001
0010
,
1000
1000
0100
0100
,
0010
0010
0002
0003
,
1000
0010
1000
0000
0010
1000
0010
0000
,
1000
1000
0100
0010
,
0001
0010
0001
0000
0010
0001
0010
0000
,
0001
0001
0100
0010
,
1000
0100
0001
0010
,
1000
0200
0000
0310
,
1002
0000
0003
1000
0020
0000
0030
1000
,
0002
0000
0003
1000
0100
0000
0010
0000
,
0001
1000
0001
0000
1001
0000
0110
0000
,
2002
0000
3003
0000
0000
1000
0100
1000
,
0200
0000
0000
0000
1300
0000
0001
0100
,
0002
0000
0000
0000
0103
0000
0010
1000
,
0010
0000
1000
0001
1000
0000
0100
1000
,
0200
0000
0300
0010
,
2001
0000
3000
0001
0020
0000
0030
0001
,
2000
0000
0000
0000
3000
0001
0100
0001
,
0100
1010
1001
0011
,
2002
0000
3003
0000
0000
0001
0100
0001
,
0200
0000
0000
0000
0301
0000
1000
0100
,
2000
0000
0000
0000
3100
0000
0010
0001
,
0010
0000
0001
1000
0001
0000
0100
0001
,
0200
0000
0300
0001
,
0100
0010
1000
0001
,
0001
1000
1000
0001
,
0010
0100
1000
0010
,
0010
0100
0100
0001
,
0010
1000
0010
0001
,
0001
0100
0100
0010
,
1000
0002
0000
2003
0000
0000
3100
0000
,
0010
0002
0003
2002
,
3003
0000
0001
0000
0100
0000
0010
1000
,
0010
1000
0010
0000
1000
0000
0202
0000
,
0303
0000
1000
0000
0100
0000
0010
0001
,
0010
0001
0010
0000
0001
0000
0202
0000
,
0303
0000
1000
0010
1000
0000
0010
0000
,
0001
0010
1000
2200
,
3300
0000
0001
0010
0001
0000
1000
0000
,
0010
0100
0001
2000
,
3000
0001
0010
1000
,
0100
0002
0003
1000
,
0100
0010
0001
0100
,
1000
0200
0300
0002
,
0003
0010
0100
1000
,
0010
0200
0300
0001
,
1000
0100
0010
0001
,
0100
0000
0110
0000
0000
0100
2001
0000
,
3000
0001
0020
0000
0030
0100
2000
0000
,
3000
0001
0100
0000
0010
0000
1000
0001
,
1000
1100
0011
2200
,
3300
0000
0000
0001
0010
0001
0020
0000
,
0000
0000
0031
0000
1000
0010
2000
0000
,
0000
0000
3010
0000
0100
0001
0100
0000
,
0001
1000
0001
0000
0010
0001
0020
0000
,
0000
0030
0100
1002
,
0003
1000
0020
0000
0030
0100
0002
0000
,
0000
0000
0003
1000
0100
0010
0001
0000
,
0101
1010
0101
2020
,
3030
0000
0000
1000
0010
1000
0020
0000
,
0000
0000
1030
0000
0001
0010
0002
0000
,
0000
0000
0013
0000
0100
1000
0100
0000
,
1000
0001
1000
0000
0010
1000
0020
0000
,
0000
0000
0030
0100
0001
0100
0002
0000
,
0000
0000
0013
0000
0100
1000
0200
0000
,
0000
0000
1300
0000
0010
1000
0010
0000
,
1000
0001
1000
0000
0100
1000
0200
0000
,
0000
0000
0300
1000
,
0000
1000
0010
0001
,
0000
0001
0100
1000
,
1000
0001
0001
0101
,
0000
1010
0000
1100
,
0000
0011
0000
1001
;

//---------------dance-single - ----------------
#NOTEDATA:;
#CHARTNAME:;
#STEPSTYPE:dance-single;
#DESCRIPTION:;
#CHARTSTYLE:;
#DIFFICULTY:Easy;
#METER:5;
#RADARVALUES:0.300325,0.340765,0.273467,0.615300,0.000000,246.000000,214.000000,32.000000,72.000000,0.000000,0.000000,0.000000,0.000000,0.000000,0.300325,0.340765,0.273467,0.615300,0.000000,246.000000,214.000000,32.000000,72.000000,0.000000,0.000000,0.000000,0.000000,0.000000;
#CREDIT:;
#OFFSET:0.965755;
#BPMS:0.000000=170.000000
,217.000000=85.000000
,219.000000=170.000000
;
#STOPS:122.000000=0.353000
,217.000000=0.706000
;
#DELAYS:;
#WARPS:;
#TIMESIGNATURES:0.000000=4=4
;
#TICKCOUNTS:0.000000=4
;
#COMBOS:0.000000=1
;
#SPEEDS:0.000000=1.000000=0.000000=0
;
#SCROLLS:0.000000=1.000000
;
#FAKES:;
#LABELS:0.000000=Song Start
;
#NOTES:
0000
0000
0000
0000
,
0000
0000
0000
0000
,
0000
0000
0000
0000
,
0000
0000
0000
0000
,
0000
0000
0000
0000
,
1000
0000
1000
1000
,
0001
0000
0001
0001
,
0100
0100
0010
0010
,
0100
0010
2000
3000
,
0001
0000
0001
0000
,
0010
0001
0100
0010
,
1000
0000
1000
0000
,
0010
1000
0100
0010
,
0001
0001
1000
1000
,
0020
0000
0000
0030
,
0202
0303
2200
3300
,
0202
0303
0001
0100
,
0010
1000
0001
0001
,
0002
0000
0003
0001
,
0022
0033
0001
1000
,
2020
3030
1000
0010
,
0100
0100
0001
0001
,
2000
0000
3000
0100
,
2200
3300
0202
0303
,
2200
3300
0000
1000
,
0001
0001
0100
0100
,
0020
0000
0030
1000
,
2020
3030
1000
0001
,
0022
0033
0001
0010
,
0100
0100
1000
1000
,
0002
0000
0003
1000
,
0000
1000
0000
0010
,
0100
0010
0100
0001
,
0000
0001
0000
0010
,
0100
0010
0100
1000
,
0000
0010
0000
1000
,
0001
1000
0001
0010
,
0000
0100
0000
0010
,
0001
1000
0000
2002
,
3003
0001
0000
0001
,
0100
0010
1000
2002
,
3003
1000
0000
0010
,
1000
0100
0010
0022
,
0033
0001
0000
0010
,
0001
0100
0010
2020
,
3030
1000
0000
0100
,
1000
0010
0100
0002
,
0003
2000
3000
0100
,
0010
0002
0003
0100
,
0010
0200
0300
0001
,
1000
0200
0300
0020
,
0030
0100
1000
0001
,
1000
0002
0003
0200
,
0300
0020
0030
0100
,
0001
1001
0000
2020
,
3030
0022
0033
2020
,
3030
1000
0100
0001
,
0100
1000
1000
2000
,
0000
3000
1000
2020
,
3030
0100
0001
0022
,
0033
0100
1000
0010
,
0010
1000
1000
0200
,
0000
0300
0010
0022
,
0033
2020
3030
0022
,
0033
0000
0001
0100
,
0100
1000
1000
0200
,
0000
0300
0001
0022
,
0033
0100
1000
2020
,
3030
0100
0001
0010
,
0010
0001
0001
0200
,
0000
0300
0010
2020
,
3030
0100
0001
0022
,
0033
0100
1000
0010
,
0010
1000
1000
0200
,
0000
0000
0300
0010
,
0000
0010
0010
0100
,
0000
0100
0100
1000
,
0001
1000
0001
1001
,
0000
0101
0000
1001
,
0000
1100
0000
1001
;

//---------------dance-single - ----------------
#NOTEDATA:;
#CHARTNAME:;
#STEPSTYPE:dance-single;
#DESCRIPTION:;
#CHARTSTYLE:;
#DIFFICULTY:Beginner;
#METER:2;
#RADARVALUES:0.173358,0.276885,0.128188,0.299104,0.000000,142.000000,127.000000,15.000000,35.000000,0.000000,0.000000,0.000000,0.000000,0.000000,0.173358,0.276885,0.128188,0.299104,0.000000,142.000000,127.000000,15.000000,35.000000,0.000000,0.000000,0.000000,0.000000,0.000000;
#CREDIT:;
#OFFSET:0.965755;
#BPMS:0.000000=170.000000
;
#STOPS:;
#DELAYS:;
#WARPS:;
#TIMESIGNATURES:0.000000=4=4
;
#TICKCOUNTS:0.000000=4
;
#COMBOS:0.000000=1
;
#SPEEDS:0.000000=1.000000=0.000000=0
;
#SCROLLS:0.000000=1.000000
;
#FAKES:;
#LABELS:0.000000=Song Start
;
#NOTES:
0000
0000
0000
0000
,
0000
0000
0000
0000
,
0000
0000
0000
0000
,
0000
0000
0000
0000
,
0000
0000
0000
0000
,
1000
0000
0000
0000
,
0001
0000
0000
0000
,
1000
0000
0000
0000
,
0001
0000
0000
0000
,
0010
0000
0010
0000
,
0200
0000
0300
0000
,
0010
0000
0010
0000
,
0200
0000
0300
0000
,
1000
0000
0001
0000
,
0200
0000
0300
0000
,
1001
0000
0110
0000
,
1001
0000
1000
0000
,
0100
0000
0010
0010
,
0020
0000
0030
0000
,
0002
0003
1000
0000
,
2000
3000
0001
0000
,
0100
0000
0100
0000
,
0200
0000
0300
0000
,
1001
0000
0110
0000
,
1001
0000
0000
0000
,
0010
0010
0010
0010
,
0020
0000
0030
0000
,
2000
3000
0001
0000
,
0002
0003
1000
0000
,
0100
0000
0100
0000
,
0200
0000
0300
0000
,
1000
0000
0000
0000
,
0010
0000
0010
0000
,
1000
0000
0000
0000
,
0001
0000
0001
0000
,
1000
0000
0000
0000
,
0100
0000
0100
0000
,
2000
0000
3000
0000
,
0002
0000
0003
0000
,
0200
0300
0010
0000
,
0100
0100
0100
0000
,
0002
0003
1000
0000
,
0001
0001
0001
0000
,
0020
0030
0100
0000
,
0010
0010
0010
0000
,
0002
0003
0100
0000
,
0010
0010
0010
0000
,
2000
0000
3000
0000
,
0002
0000
0003
0000
,
0020
0000
0030
0000
,
0200
0000
0300
0000
,
0020
0000
0030
0000
,
0002
0000
0003
0000
,
2000
0000
3000
0000
,
0010
0000
0010
0000
,
0000
0000
0000
0000
,
1001
0000
0110
0000
,
1001
0000
0001
0000
,
0010
0000
0100
0100
,
0200
0000
0300
0000
,
2000
3000
0001
0000
,
0002
0003
1000
0000
,
0010
0000
0010
0000
,
0020
0000
0030
0000
,
1001
0000
0110
0000
,
1001
0000
0000
0000
,
0100
0100
0100
0100
,
0200
0000
0300
0000
,
0002
0003
1000
0000
,
2000
3000
0001
0000
,
0010
0000
0010
0000
,
0020
0000
0030
0000
,
0002
0003
1000
0000
,
2000
3000
0001
0000
,
0100
0000
0100
0000
,
0200
0000
0300
0000
,
0001
0000
0000
0000
,
1000
0000
0000
0000
,
0100
0000
0100
0000
,
1001
0000
0000
0000
,
0110
0000
0000
0000
,
1001
0000
0000
0000
;
