#VERSION:0.83;
#TITLE:夏の日のラビリンス (nyankobrq remix);
#SUBTITLE:;
#ARTIST:ハッピーくるくる;
#TITLETRANSLIT:Labyrinth of a Summer Day (nyankobrq remix);
#SUBTITLETRANSLIT:;
#ARTISTTRANSLIT:Happy Kuru Kuru;
#GENRE:Downtempo Pop;
#ORIGIN:;
#CREDIT:;
#BANNER:Labyrinth of a Summer Day (nyankobrq remix).png;
#BACKGROUND:Labyrinth of a Summer Day (nyankobrq remix)-bg.png;
#PREVIEWVID:;
#JACKET:Labyrinth of a Summer Day (nyankobrq remix)-jacket.png;
#CDIMAGE:;
#DISCIMAGE:;
#LYRICSPATH:;
#CDTITLE:cdtitle.png;
#MUSIC:Labyrinth of a Summer Day (nyankobrq remix).ogg;
#OFFSET:-0.033360;
#SAMPLESTART:59.424362;
#SAMPLELENGTH:19.199997;
#SELECTABLE:YES;
#BPMS:0.000=100.000;
#STOPS:;
#DELAYS:;
#WARPS:;
#TIMESIGNATURES:0.000=4=4;
#TICKCOUNTS:0.000=4;
#COMBOS:0.000=1;
#SPEEDS:0.000=1.000=0.000=0;
#SCROLLS:0.000=1.000;
#FAKES:;
#LABELS:0.000=Song Start;
#BGCHANGES:;
#KEYSOUNDS:;
#ATTACKS:
;

//---------------dance-single - ----------------
#NOTEDATA:;
#CHARTNAME:;
#STEPSTYPE:dance-single;
#DESCRIPTION:;
#CHARTSTYLE:;
#DIFFICULTY:Challenge;
#METER:12;
#RADARVALUES:0.510981,0.541260,0.018019,0.846916,0.675730,397.000000,395.000000,2.000000,94.000000,0.000000,0.000000,0.000000,0.000000,0.000000,0.510981,0.541260,0.018019,0.846916,0.675730,397.000000,395.000000,2.000000,94.000000,0.000000,0.000000,0.000000,0.000000,0.000000;
#CREDIT:;
#NOTES:
0000
0000
0000
0000
,
0000
0000
0000
0000
,
0000
0000
0000
0000
,
0000
0000
0000
0000
,
0000
0000
0000
0000
0000
0000
0000
0000
0000
0000
0000
0000
0000
0000
0001
1000
0001
0000
0000
0000
0001
0000
0000
0000
1000
0000
0100
0000
0010
0000
0001
0000
,
0200
0000
0000
0000
0000
0000
0310
1000
0010
0000
0000
0000
1000
0000
0000
0000
0200
0000
0000
0000
0000
0000
0310
0001
0010
0000
0000
0000
0001
0000
0000
0000
,
2000
0000
0000
0000
0000
0000
3010
0100
0010
0000
0000
0000
1000
0000
0000
0000
0002
0000
0000
0000
0000
0000
0000
0000
0013
0000
0000
0000
0100
0000
1000
0000
,
0002
0000
0000
0000
0000
0000
1003
0010
1000
0000
0000
0000
0001
0000
0000
0000
2000
0000
0000
0000
0000
0000
3001
0010
0001
0000
0000
0000
1000
0000
0000
0000
,
0020
0000
0000
0230
0000
0000
2300
0000
3100
0010
1000
0100
0020
0000
0130
1000
,
0020
0000
0000
0000
0000
0000
0130
0001
0100
0000
0000
0000
0001
0000
0000
0000
0020
0000
0000
0000
0000
0000
0130
1000
0100
0000
0000
0000
1000
0000
0000
0000
,
0002
0000
0000
0000
0000
0000
0103
0010
0100
0000
0000
0000
0001
0000
0000
0000
2000
0000
0000
0000
0000
0000
0000
0000
3001
0000
0000
0000
0010
0000
0100
0000
,
2000
0000
0000
0000
0000
0000
3001
0100
0001
0000
0000
0000
1000
0000
0000
0000
0002
0000
0000
0000
0000
0000
1003
0100
1000
0000
0000
0000
0001
0000
0000
0000
,
0200
0000
0000
0000
0310
0000
1000
0010
0100
0001
0010
0100
1000
0000
0001
0000
,
0020
0000
0030
0001
2000
0000
3000
0001
0100
0000
0100
0001
0100
0001
1000
0200
,
0000
0000
0300
0010
0002
0000
0003
0000
0000
0000
0001
0010
0001
0010
0100
1000
,
0020
0000
0030
1000
0002
0000
0003
1000
0100
0010
0100
0010
0100
1000
0001
0100
,
0020
0000
0000
0000
0000
0000
0000
0000
0030
0000
0000
0000
0000
0000
0000
0010
2000
0000
0000
0000
3020
0000
0000
0000
0032
0000
0000
0000
0023
0000
0000
0000
,
2030
0000
3100
1000
0002
0000
0103
0001
2000
0000
3100
0010
0100
0010
0001
1000
,
0020
0000
0130
0010
2000
0000
3001
0000
0001
0000
1000
0100
0010
0001
1000
0001
,
0200
0000
0301
1000
0200
0000
0310
0001
1000
0001
1000
0001
0100
0010
1000
0001
,
0020
0000
0000
0000
0000
0000
0000
0000
0000
0000
0000
0000
0030
0000
0100
0000
0010
0000
0000
0000
0000
0000
0000
0000
0001
0000
0000
0000
0000
0000
0000
0000
0200
0000
0000
0000
0000
0000
0000
0000
2300
0000
0000
0000
0000
0000
0000
0000
3200
0000
0000
0000
0000
0000
0000
0000
0302
0000
0000
0000
0000
0000
0000
0003
,
0012
0000
0000
0000
0203
0000
0000
0000
2300
0000
0000
3100
0010
0100
0001
1000
,
0100
0000
0010
0001
1000
0000
0001
0200
0000
0301
0100
0010
1000
0000
0000
0010
,
2010
0000
0000
0000
3200
0000
0000
0000
0302
0000
0000
0103
0010
0100
1000
0001
,
0100
0000
0000
0000
0010
0000
1000
0000
0001
0000
0000
0000
1000
0000
0001
1000
0001
0000
0000
0000
1000
0000
0000
0000
0001
0000
0100
0000
0010
0000
1000
0000
,
0200
0000
0300
0001
0200
0000
0300
1000
0100
0000
0010
0100
1000
0010
0100
0001
,
2000
0000
3000
0001
0020
0000
0030
0001
0200
0000
2300
0000
3200
0000
0302
0000
,
0023
0000
0030
1000
0020
0000
0030
0001
0010
0100
0010
0100
1000
0010
0100
0001
,
2000
0000
0100
0000
3100
0000
0000
0002
0000
0103
0010
0100
1000
0000
1000
0001
,
0200
0000
0300
1000
0200
0000
0300
0001
0100
0000
0010
0100
0001
0010
0100
1000
,
0002
0000
0003
1000
0020
0000
0030
1000
0200
0000
0301
0001
0200
0000
2300
0000
,
3020
0000
0030
0001
0020
0000
0030
1000
0010
0100
0010
0100
0001
0010
0100
1000
,
0002
0000
0100
0000
0103
0000
0000
2000
0000
3100
0010
0100
0001
0100
0010
1000
,
0200
0000
0000
0000
0000
0000
0310
0001
0010
0000
0000
0000
0001
0000
0000
0000
0200
0000
0000
0000
0000
0000
0310
1000
0010
0000
0000
0000
1000
0000
0000
0000
,
0002
0000
0000
0000
0000
0000
0013
0100
0010
0000
0000
0000
0001
0000
0000
0000
2000
0000
0000
0000
0000
0000
0000
0000
3010
0000
0000
0000
0100
0000
0001
0000
,
2000
0000
0000
0000
0000
0000
3001
0010
0001
0000
0000
0000
1000
0000
0000
0000
0002
0000
0000
0000
0000
0000
1003
0010
1000
0000
0000
0000
0001
0000
0000
0000
,
0020
0000
0000
0230
0000
0000
0302
0000
0103
0010
0001
0100
0020
0000
0130
0001
,
0020
0000
0000
0000
0000
0000
0130
1000
0100
0000
0000
0000
1000
0000
0000
0000
0020
0000
0000
0000
0000
0000
0130
0001
0100
0000
0000
0000
0001
0000
0000
0000
,
2000
0000
0000
0000
0000
0000
3100
0010
0100
0000
0000
0000
1000
0000
0000
0000
0002
0000
0000
0000
0000
0000
0000
0000
1003
0000
0000
0000
0010
0000
0100
0000
,
0002
0000
0000
0000
0000
0000
1003
0100
1000
0000
0000
0000
0001
0000
0000
0000
2000
0000
0000
0000
0000
0000
3001
0100
0001
0000
0000
0000
1000
0000
0000
0000
,
0200
0000
0000
0000
0000
0000
0000
0000
0301
0000
0000
0000
0100
0000
0010
0100
0010
0000
0000
0000
0010
0000
0000
0000
0100
0000
1000
0000
0001
0000
0100
0000
,
0020
0000
1030
0100
0020
0000
0031
0100
,
2000
0000
0000
3100
0010
0000
0100
0000
0002
0000
0000
0000
1003
0100
0010
0001
,
0200
0000
0310
1000
0200
0000
1300
0100
,
0002
0000
0003
0000
;

//---------------dance-single - ----------------
#NOTEDATA:;
#CHARTNAME:;
#STEPSTYPE:dance-single;
#DESCRIPTION:;
#CHARTSTYLE:;
#DIFFICULTY:Hard;
#METER:10;
#RADARVALUES:0.419596,0.400933,0.063068,0.540584,0.378409,326.000000,319.000000,7.000000,60.000000,0.000000,0.000000,0.000000,0.000000,0.000000,0.419596,0.400933,0.063068,0.540584,0.378409,326.000000,319.000000,7.000000,60.000000,0.000000,0.000000,0.000000,0.000000,0.000000;
#CREDIT:;
#NOTES:
0000
0000
0000
0000
,
0000
0000
0000
0000
,
0000
0000
0000
0000
,
0000
0000
0000
0000
,
0000
0000
0000
0000
0000
0000
0000
0000
0001
0000
0001
0000
0100
0010
0100
0010
,
2000
0000
0000
3001
0100
0000
0010
0000
2000
0000
0000
3001
0100
0000
0010
0000
,
0200
0000
0000
1300
0100
0000
0001
0000
0020
0000
0000
0000
0130
0000
0100
0010
,
0002
0000
0000
1003
0100
0000
0010
0000
0002
0000
0000
1003
0100
0000
0010
0000
,
0200
0000
0000
0302
0000
0000
0203
0000
0310
0001
0010
0001
1000
0000
1000
0001
,
0200
0000
0000
0310
1000
0000
0001
0000
0200
0000
0000
0310
1000
0000
0100
0000
,
0020
0000
0000
1030
0010
0000
0001
0000
0200
0000
0000
0000
0310
0000
0010
1000
,
0200
0000
0000
0310
0001
0000
1000
0000
0200
0000
0000
0310
0100
0000
1000
0000
,
0020
0000
0000
0000
1030
0000
0010
0000
0100
0001
0100
0001
0100
0000
0000
0000
,
0001
0000
0000
0001
1000
0000
0000
1000
0001
0000
1000
0000
0100
0000
0010
0001
,
0000
0000
0000
0001
0100
0000
0000
0000
0000
0000
1000
0000
1000
0000
0010
0000
,
1000
0000
0000
1000
0001
0000
0000
0001
1000
0000
0100
0000
0010
0000
0001
1000
,
0100
0000
0000
0000
0001
0001
0010
0001
,
1000
0000
0000
0001
0100
0000
0000
1000
0100
0000
0001
0000
0100
0001
0100
0000
,
0001
0000
0000
0010
0100
0000
0000
0000
1000
0000
0010
0000
0100
0010
0100
0000
,
0001
0000
0000
1000
0100
0000
0001
0000
0100
0000
1000
0000
0001
1000
0001
0000
,
0020
0000
0030
0000
0100
1000
0010
0100
,
0201
0000
0000
0000
0010
0000
0000
0000
1300
0000
0000
0100
0010
0000
0100
0000
,
0001
0000
1000
0000
0100
0000
0010
0001
0000
0100
0010
0000
1000
0000
0000
0000
,
1200
0000
0000
0000
0010
0000
0000
0000
0001
0000
0300
0100
0010
0000
0100
0000
,
2000
0000
0001
0000
3001
0000
0000
0000
1000
0000
1000
0000
0010
0100
0010
0100
,
0002
0000
0003
0010
2000
0000
3000
0010
0001
0000
0001
0000
1000
0001
0100
0000
,
0020
0000
0030
0100
2000
0000
3000
0100
0010
0000
0100
0000
0001
0000
1000
0000
,
0200
0000
0300
0010
0002
0000
0003
1000
0001
0000
0001
0000
1000
0010
0100
0000
,
0002
0000
0010
0000
0013
0000
0000
0120
0000
0031
0100
0001
0200
0000
0300
0010
,
2000
0000
3000
0010
0002
0000
0003
0010
1000
0000
1000
0000
0001
1000
0100
0000
,
0020
0000
0030
0100
0002
0000
0003
0100
0010
0000
0100
1000
0001
0000
0001
0000
,
0200
0000
0300
0010
2000
0000
3000
0001
1000
0000
1000
0000
0100
0010
0001
0000
,
2000
0000
0010
0000
3010
0000
0000
0120
0000
1030
0100
1000
0100
0000
0010
0000
,
0002
0000
0000
1003
0100
0000
0010
0000
0002
0000
0000
1003
0100
0000
0010
0000
,
0200
0000
0000
0301
0100
0000
1000
0000
0020
0000
0000
0000
0130
0000
0100
0010
,
2000
0000
0000
3001
0100
0000
0010
0000
2000
0000
0000
3001
0100
0000
0010
0000
,
0200
0000
0000
2300
0000
0000
3200
0000
0310
1000
0010
1000
0001
0000
0001
1000
,
0200
0000
0000
0310
0001
0000
1000
0000
0200
0000
0000
0310
0001
0000
0100
0000
,
0020
0000
0000
0031
0010
0000
1000
0000
0200
0000
0000
0000
0310
0000
0010
0001
,
0200
0000
0000
0310
1000
0000
0001
0000
0200
0000
0000
0310
0100
0000
0001
0000
,
0020
0000
0000
0000
0130
0000
1000
0000
1001
0000
1001
0000
0100
0010
0100
0000
,
2001
0000
3100
1000
0002
0000
0103
0010
,
2000
0000
0000
3001
0010
0000
0100
0000
2000
0000
0000
0000
3010
0100
0010
0100
,
0002
0000
0103
0010
2000
0000
3100
0010
,
0200
0000
0300
0000
;

//---------------dance-single - ----------------
#NOTEDATA:;
#CHARTNAME:;
#STEPSTYPE:dance-single;
#DESCRIPTION:;
#CHARTSTYLE:;
#DIFFICULTY:Medium;
#METER:6;
#RADARVALUES:0.275441,0.280653,0.000000,0.459497,0.000000,214.000000,214.000000,0.000000,51.000000,0.000000,0.000000,0.000000,0.000000,0.000000,0.275441,0.280653,0.000000,0.459497,0.000000,214.000000,214.000000,0.000000,51.000000,0.000000,0.000000,0.000000,0.000000,0.000000;
#CREDIT:;
#NOTES:
0000
0000
0000
0000
,
0000
0000
0000
0000
,
0000
0000
0000
0000
,
0000
0000
0000
0000
,
0000
0000
0000
0000
0000
0000
1000
0100
,
0020
0000
0130
1000
0020
0000
1030
0100
,
0020
0000
0031
0100
2000
0000
3000
0100
,
0020
0000
1030
0001
0020
0000
0130
1000
,
0002
0000
0203
0000
1300
0100
0001
0010
,
0200
0000
0310
0001
0200
0000
0310
1000
,
0200
0000
1300
0100
0002
0000
0003
0100
,
0020
0000
0130
1000
0002
0000
0103
0001
,
2000
0000
3001
0000
0010
0010
0010
0000
,
0002
0100
0100
0100
,
2003
0010
0000
3001
,
2000
0100
0100
0100
,
3002
0000
0000
0000
1003
0010
0100
0001
,
1000
0000
0010
0000
1000
0010
1000
0001
,
0010
0000
0010
0000
0001
0100
0001
0100
,
0001
0000
0010
0000
0001
0010
0001
1000
,
0020
0000
0000
0000
1030
0010
0100
0001
,
2000
0000
3200
0000
0302
0000
0103
0010
,
0100
0010
0100
0000
1000
0001
1000
0000
,
0002
0000
0203
0000
2300
0000
3100
0010
,
0200
0000
0000
0000
0310
0000
1000
0001
,
0010
0000
0010
0000
0010
0001
0010
0100
,
1000
0000
1000
0000
1000
0010
0001
0010
,
1000
0000
1000
0000
1000
0001
1000
0100
,
0020
0000
0031
0000
1000
1000
1000
0000
,
0010
0000
0010
0000
0010
1000
0010
0100
,
0001
0000
0001
0000
0001
0010
1000
0010
,
0001
0000
0001
0000
0001
1000
0001
0100
,
0020
0000
1030
0000
0001
0001
0001
0100
,
0020
0000
0130
0001
0020
0000
0031
0100
,
0020
0000
1030
0100
0002
0000
0003
0100
,
0020
0000
0031
1000
0020
0000
0130
0001
,
2000
0000
3200
0000
0301
0100
1000
0010
,
0200
0000
0310
1000
0200
0000
0310
0001
,
0200
0000
0301
0100
2000
0000
3000
0100
,
0020
0000
0130
0001
2000
0000
3100
1000
,
0002
0000
1003
0000
0010
1000
0001
1000
,
0200
0310
0200
0310
,
0002
0000
0103
0010
2000
0000
3001
0000
,
0020
0000
0031
0000
0020
0000
0130
1000
,
0002
0000
0003
0000
;

//---------------dance-single - ----------------
#NOTEDATA:;
#CHARTNAME:;
#STEPSTYPE:dance-single;
#DESCRIPTION:;
#CHARTSTYLE:;
#DIFFICULTY:Easy;
#METER:3;
#RADARVALUES:0.171185,0.180420,0.000000,0.450487,0.000000,133.000000,133.000000,0.000000,50.000000,0.000000,0.000000,0.000000,0.000000,0.000000,0.171185,0.180420,0.000000,0.450487,0.000000,133.000000,133.000000,0.000000,50.000000,0.000000,0.000000,0.000000,0.000000,0.000000;
#CREDIT:;
#NOTES:
0000
0000
0000
0000
,
0000
0000
0000
0000
,
0000
0000
0000
0000
,
0000
0000
0000
0000
,
0000
0000
0000
1000
,
0200
1300
0200
0310
,
0002
1003
2000
3000
,
0002
0103
0002
0103
,
0020
2030
3001
0001
,
0020
0130
0020
0130
,
2000
3001
0002
0003
,
0200
0310
0200
0310
,
2000
3000
0001
0001
,
2000
0000
0000
3000
,
0200
0000
0000
0300
,
0020
0000
0000
0030
,
0002
0000
1000
1003
,
0001
0001
0100
0010
,
1000
1000
0001
1000
,
0100
0100
1000
0001
,
0200
0000
0310
1000
,
0002
0023
0032
1003
,
0001
0001
0100
0001
,
2000
3020
2030
3001
,
0020
0000
0130
0010
,
0001
0001
0001
0100
,
1000
1000
0100
0001
,
1000
1000
1000
0100
,
0020
0030
0010
0001
,
1000
1000
1000
0100
,
0001
0001
0100
1000
,
0001
0001
0100
0010
,
2000
3000
1000
0001
,
0200
0301
0200
0310
,
2000
3001
0002
0003
,
2000
3100
2000
3100
,
0020
0032
1003
1000
,
0020
0130
0020
0130
,
0002
1003
2000
3000
,
0200
0310
0200
0310
,
0002
0003
0100
0010
,
2000
3000
0002
0003
,
1000
0100
0020
0030
,
0002
0003
2000
3000
,
0002
0000
0003
0000
;

//---------------dance-single - ----------------
#NOTEDATA:;
#CHARTNAME:;
#STEPSTYPE:dance-single;
#DESCRIPTION:;
#CHARTSTYLE:;
#DIFFICULTY:Beginner;
#METER:1;
#RADARVALUES:0.091385,0.100233,0.000000,0.081088,0.000000,71.000000,71.000000,0.000000,9.000000,0.000000,0.000000,0.000000,0.000000,0.000000,0.091385,0.100233,0.000000,0.081088,0.000000,71.000000,71.000000,0.000000,9.000000,0.000000,0.000000,0.000000,0.000000,0.000000;
#CREDIT:;
#NOTES:
0000
0000
0000
0000
,
0000
0000
0000
0000
,
0000
0000
0000
0000
,
0000
0000
0000
0000
,
0000
0000
0000
0000
,
0001
0000
0001
0000
,
0010
0000
0010
0000
,
0001
0000
0001
0000
,
1000
0000
0001
0000
,
1000
0000
1000
0000
,
0010
0000
0010
0000
,
1000
0000
1000
0000
,
0002
0000
0003
0000
,
2000
0000
0000
3000
,
0200
0000
0000
0300
,
0020
0000
0000
0030
,
0002
0000
0000
0003
,
1000
0000
1000
0000
,
0001
0000
0001
0000
,
1000
0000
1000
0000
,
0002
0000
0003
0000
,
0100
0000
0100
0000
,
0010
0000
0010
0000
,
0100
0000
0100
0000
,
0020
0000
0030
0000
,
1000
0000
1000
0000
,
0100
0000
0100
0000
,
0010
0000
0010
0000
,
0001
0000
1000
0000
,
0001
0000
0001
0000
,
0100
0000
0100
0000
,
0010
0000
0010
0000
,
1000
0000
0001
0000
,
1000
0000
1000
0000
,
0010
0000
0010
0000
,
1000
0000
1000
0000
,
0001
0000
1000
0000
,
0001
0000
0001
0000
,
0010
0000
0010
0000
,
0001
0000
0001
0000
,
2000
0000
3000
0000
,
0010
0000
0010
0000
,
1000
0000
0001
0000
,
0010
0000
0010
0000
,
0200
0000
0300
0000
;
