#VERSION:0.83;
#TITLE:Labyrinth in Kowloon\: Walled World;
#SUBTITLE:;
#ARTIST:かめりあ;
#TITLETRANSLIT:;
#SUBTITLETRANSLIT:;
#ARTISTTRANSLIT:Camellia;
#GENRE:Far East Hardcore;
#ORIGIN:;
#CREDIT:;
#BANNER:Labyrinth in Kowloon - Walled World.png;
#BACKGROUND:Labyrinth in Kowloon - Walled World-bg.png;
#PREVIEWVID:;
#JACKET:Labyrinth in Kowloon - Walled World-jacket.png;
#CDIMAGE:;
#DISCIMAGE:;
#LYRICSPATH:;
#CDTITLE:cdtitle.png;
#MUSIC:Labyrinth in Kowloon - Walled World.ogg;
#OFFSET:-0.631945;
#SAMPLESTART:97.895073;
#SAMPLELENGTH:10.105263;
#SELECTABLE:YES;
#DISPLAYBPM:95.000000:190.000000;
#BPMS:0.000=190.000,
48.000=95.000,
56.000=190.000,
126.000=95.000,
127.000=190.000,
141.000=95.000,
142.000=190.000,
172.000=95.000,
173.000=190.000,
191.000=47.500,
192.000=95.000,
196.000=190.000,
248.000=95.000,
256.000=190.000;
#STOPS:74.500=0.316,
77.500=0.316,
80.500=0.316,
87.500=0.316,
90.500=0.316,
93.500=0.316,
100.500=0.158,
104.000=0.158,
107.500=0.158,
115.000=0.158,
118.500=0.158,
119.500=0.158,
120.500=0.158,
121.500=0.158;
#DELAYS:;
#WARPS:;
#TIMESIGNATURES:0.000=4=4;
#TICKCOUNTS:0.000=4;
#COMBOS:0.000=1;
#SPEEDS:0.000=1.000=0.000=0;
#SCROLLS:0.000=1.000;
#FAKES:;
#LABELS:0.000=Song Start;
#BGCHANGES:;
#KEYSOUNDS:;
#ATTACKS:
;

//---------------dance-single - ----------------
#NOTEDATA:;
#CHARTNAME:;
#STEPSTYPE:dance-single;
#DESCRIPTION:;
#CHARTSTYLE:;
#DIFFICULTY:Challenge;
#METER:17;
#RADARVALUES:0.826536,1.067458,0.706966,1.072639,0.658210,712.000000,625.000000,87.000000,132.000000,12.000000,0.000000,1.000000,0.000000,0.000000,0.826536,1.067458,0.706966,1.072639,0.658210,712.000000,625.000000,87.000000,132.000000,12.000000,0.000000,1.000000,0.000000,0.000000;
#CREDIT:;
#OFFSET:-0.631945;
#BPMS:0.000000=190.000000
,48.000000=95.000000
,56.000000=190.000000
,126.000000=95.000000
,127.000000=190.000000
,141.000000=95.000000
,142.000000=190.000000
,172.000000=95.000000
,173.000000=190.000000
,191.000000=47.500000
,192.000000=95.000000
,196.000000=190.000000
,248.000000=95.000000
,256.000000=190.000000
;
#STOPS:74.500000=0.315791
,77.500000=0.315791
,80.500000=0.315789
,87.500000=0.315789
,90.500000=0.315789
,93.500000=0.315789
,100.500000=0.157895
,104.000000=0.157895
,107.500000=0.157895
,115.000000=0.157898
,118.500000=0.157895
,119.500000=0.157895
,120.500000=0.157895
,121.500000=0.157895
;
#DELAYS:;
#WARPS:;
#TIMESIGNATURES:0.000000=4=4
;
#TICKCOUNTS:0.000000=4
;
#COMBOS:0.000000=1
;
#SPEEDS:0.000000=1.000000=0.000000=0
;
#SCROLLS:0.000000=1.000000
;
#FAKES:;
#LABELS:0.000000=Song Start
;
#DISPLAYBPM:95.000000:190.000000;
#NOTES:
// measure 0
0000
0000
0000
0000
,  // measure 1
0000
0000
0000
0000
,  // measure 2
0000
0000
0000
0000
,  // measure 3
0000
0000
0000
0000
,  // measure 4
0022
0000
0033
2002
0000
3003
2020
0000
,  // measure 5
0000
0000
3030
0000
0000
0000
0000
1000
,  // measure 6
2200
0000
3300
2002
0000
3003
0202
0000
,  // measure 7
0000
0000
0000
0000
0303
0000
0001
0010
0100
1000
0100
1000
0001
0100
0001
0100
,  // measure 8
0020
0000
0030
0220
0000
0330
2002
0000
,  // measure 9
0000
0000
3003
0000
0000
1000
0100
0001
,  // measure 10
0100
0000
0220
0330
2100
3010
0202
0000
,  // measure 11
0000
0000
0000
0000
0000
0000
0300
0000
1000
0000
0003
1000
0010
0100
0010
0100
,  // measure 12
0002
0000
0000
0000
0000
0000
0000
0000
0100
0000
0000
0000
0000
0000
0013
0100
2000
0000
0000
0000
0000
0000
0000
0000
0100
0000
0000
0000
0000
0000
3010
0000
,  // measure 13
0100
0000
0002
0000
0000
0000
0013
0000
0000
0000
0010
0000
0001
0000
0010
0000
0100
0000
2000
0000
0000
0000
3010
0100
0001
1000
0001
1000
0100
0010
0100
0010
,  // measure 14
0001
0100
0001
0100
1000
0100
1000
0100
,  // measure 15
0001
0010
0001
0010
1000
0010
1000
0010
,  // measure 16
0001
0010
0001
0010
0100
1000
0100
1000
0001
0100
0010
1000
0010
0100
0001
0010
,  // measure 17
0200
0040
0000
0000
0000
0000
0330
0000
,  // measure 18
0012
0000
0013
1002
0000
0103
2010
0000
,  // measure 19
3010
2001
0000
3100
2100
0000
3001
0102
,  // measure 20
0000
1003
0100
2001
3000
1002
0000
1003
,  // measure 21
0010
1000
0100
0010
0002
0000
0000
0000
0103
0000
2010
0000
0000
0000
3100
0000
,  // measure 22
2100
0000
3010
0102
0000
0013
0012
0000
,  // measure 23
1003
2010
0000
3001
0010
0210
0300
2001
,  // measure 24
0000
0000
3001
0010
0100
1000
0010
0100
0002
0000
0000
0000
0103
0000
2001
0000
,  // measure 25
0000
0000
3010
0000
0010
1000
0200
0000
0000
0000
0310
0000
1002
0000
0000
0000
,  // measure 26
0013
0010
2100
0000
3010
0102
0000
1003
,  // measure 27
1000
0001
0010
0000
0120
0000
0030
0000
1002
0000
0000
0000
0103
0000
0010
1000
,  // measure 28
0001
1000
0200
0000
0000
0000
0301
0000
0201
0000
0000
0000
0310
0000
0010
0001
,  // measure 29
0200
0000
1300
1200
0000
0310
0010
2010
,  // measure 30
3100
1200
0310
0012
0103
0201
0000
0310
,  // measure 31
0010
0000
1000
0010
0100
0001
0010
0100
2000
0000
0000
0000
301M
0000
MM01
0010
,  // measure 32
0001
0000
0010
0100
1000
0010
1000
0010
1000
0000
0010
0100
0001
0010
0001
0010
,  // measure 33
0001
0010
0100
0000
1000
0000
1000
0000
0010
MM0M
0010
0000
0001
0000
0100
1000
,  // measure 34
0200
0000
0301
0010
0100
0001
0100
0010
,  // measure 35
0001
0100
0010
0100
0002
0000
0000
0000
M013
0000
1M0M
0010
1000
0000
0100
0010
,  // measure 36
0001
0100
0001
0100
0001
0000
0100
0010
1000
0100
1000
0100
1000
0100
0020
0030
,  // measure 37
0001
0020
0030
0000
0120
0030
0000
0020
1030
0000
0010
0100
0020
0000
0000
0000
,  // measure 38
0001
0000
0000
0001
0000
0000
0230
0000
0000
1300
0020
0000
1000
0000
0000
1000
,  // measure 39
0000
0000
0130
0001
1000
0100
0010
0001
1000
0010
1000
0000
0020
0000
0130
0010
,  // measure 40
0001
0000
0020
0000
0031
0010
0100
0000
0002
0000
0013
0100
0001
0000
0100
0010
,  // measure 41
0001
0000
0001
0000
0010
MM0M
0010
0000
1000
0000
0100
0001
0200
0000
0000
0000
,  // measure 42
1300
0000
0010
0000
0100
0000
1000
0000
0100
0000
0010
0000
1000
0100
0010
0100
,  // measure 43
2000
0000
0000
0000
3010
0000
0100
0001
0020
0000
0130
0010
1000
0000
0020
0000
,  // measure 44
1030
0010
0100
0000
2000
0000
3010
0100
1000
0000
0100
0010
2000
0000
0010
0000
,  // measure 45
3010
1000
0002
0010
0013
0001
2000
0010
,  // measure 46
0010
0000
0010
0000
3002
0000
0010
0000
0010
0000
0010
0000
1003
0010
1000
0010
,  // measure 47
1000
0100
1000
0100
0010
0001
1000
0010
1000
0001
0010
0001
0100
0000
0000
0000
,  // measure 48
2000
0000
0000
0000
3002
0000
0000
0000
2003
0000
0000
0000
3002
0000
0000
0000
2003
0000
0000
0000
3001
1000
0100
0010
0100
1000
0001
1000
0100
0010
0100
1000
,  // measure 49
0001
0000
0000
1010
0000
0000
0101
0000
0000
1010
0000
0000
1001
0000
0001
0010
,  // measure 50
2000
0000
0000
0000
3010
0000
1000
0010
0002
0000
0000
0000
0013
0000
0001
0000
,  // measure 51
0100
0000
1000
0000
0100
0000
1000
0100
0002
0000
0100
0000
0103
0000
0010
1000
,  // measure 52
0200
0000
0000
0000
0301
0000
0100
1000
0010
0000
0100
0000
1000
0000
0100
0000
,  // measure 53
0210
0000
0300
0000
2001
0000
3100
0000
0010
0001
0100
0000
0010
0000
1000
0010
,  // measure 54
0002
0000
0000
0000
0013
0000
0001
0010
2000
0000
0000
0000
3010
0000
1000
0000
,  // measure 55
0100
0000
0001
0000
1000
0000
0010
0100
0020
0000
0001
0000
0031
0000
0010
0100
,  // measure 56
2000
0000
0000
0000
3010
0000
0010
0100
0001
0000
0010
0000
0100
0000
1000
0000
,  // measure 57
0001
0000
0001
0100
1000
0000
1000
0100
0001
0000
0100
0000
0010
0000
0010
0000
,  // measure 58
1000
0000
1010
0000
0101
0000
0000
0000
0011
0000
0000
1010
0000
0000
1100
0000
,  // measure 59
0000
0101
0000
0000
1100
0000
0000
1010
0000
0000
0011
0000
0000
1001
0000
0000
,  // measure 60
0000
0000
1100
0000
0011
0000
0000
0000
1010
0000
0000
0011
0000
0000
0101
0000
,  // measure 61
0000
1100
0000
0000
1010
0000
0000
0101
0000
0000
0011
0000
0000
1100
0000
0000
,  // measure 62
1001
0000
0000
0100
0000
0000
0002
0000
0000
0000
0003
0000
0000
0000
0000
0001
,  // measure 63
1001
0000
0000
0000
0000
0000
0100
0000
0000
0000
0000
0000
2000
0000
0000
0000
0000
0000
0000
0000
3000
0000
0001
0010
0100
1000
0100
1000
0001
0100
0001
0100
,  // measure 64
0020
0000
0030
0220
0000
0330
2002
0000
,  // measure 65
0000
0000
3003
0000
0000
0001
0100
1000
,  // measure 66
0100
0000
0220
0330
0102
0013
2200
0000
,  // measure 67
0000
0000
0000
0000
0000
0000
0000
0000
3300
0000
0000
0000
0001
1000
0010
0100
,  // measure 68
0002
0013
1000
0002
1003
0010
0002
0000
,  // measure 69
0013
0000
0001
0000
0011
0000
0010
0001
0100
0000
0010
0000
0110
0000
0010
0000
,  // measure 70
2000
3010
0001
2000
3001
0010
2000
0000
,  // measure 71
3010
0000
1000
0000
1010
0000
0010
0100
0001
1000
0100
0010
0001
0010
0100
1000
,  // measure 72
0002
0103
1000
0002
1003
0100
0002
0000
,  // measure 73
0013
0000
0100
0000
0110
0000
1000
0001
0100
0000
0010
0000
0110
0000
1000
0010
,  // measure 74
1000
0000
0001
0010
0002
0000
0003
0000
0220
0000
0330
0000
2002
0000
0000
0000
,  // measure 75
3003
0000
0001
0000
1000
0000
0200
0000
0000
0000
0310
0000
0100
0010
0100
0000
,  // measure 76
2000
3010
0001
2000
3100
0010
0120
0000
,  // measure 77
0031
0000
0010
0000
1010
0000
1000
0100
0010
0000
0100
0000
0110
0000
0010
0000
,  // measure 78
0002
0013
1000
0002
0103
0010
0120
0000
,  // measure 79
1030
0000
0010
0000
0011
0000
0010
0100
1000
0001
0100
0010
1000
0010
0100
0001
,  // measure 80
1000
0000
0000
0001
0010
0000
1000
0000
0010
0000
0001
0100
2000
0000
0000
0000
,  // measure 81
3100
0000
0001
0000
1001
0000
0001
0010
0001
0000
1000
0000
0010
0000
0100
0000
,  // measure 82
0010
1000
0100
0000
0011
0000
0000
0100
1000
0000
0010
0000
0202
0000
0000
0000
,  // measure 83
0000
0000
0000
0000
,  // measure 84
0000
0000
0000
0303
;

//---------------dance-single - ----------------
#NOTEDATA:;
#CHARTNAME:;
#STEPSTYPE:dance-single;
#DESCRIPTION:;
#CHARTSTYLE:;
#DIFFICULTY:Hard;
#METER:15;
#RADARVALUES:0.693036,0.826419,0.617580,1.007630,0.365672,597.000000,521.000000,76.000000,124.000000,8.000000,0.000000,1.000000,0.000000,0.000000,0.693036,0.826419,0.617580,1.007630,0.365672,597.000000,521.000000,76.000000,124.000000,8.000000,0.000000,1.000000,0.000000,0.000000;
#CREDIT:;
#OFFSET:-0.631945;
#BPMS:0.000000=190.000000
,48.000000=95.000000
,56.000000=190.000000
,126.000000=95.000000
,127.000000=190.000000
,141.000000=95.000000
,142.000000=190.000000
,172.000000=95.000000
,173.000000=190.000000
,191.000000=47.500000
,192.000000=95.000000
,196.000000=190.000000
,248.000000=95.000000
,256.000000=190.000000
;
#STOPS:74.500000=0.315791
,77.500000=0.315791
,80.500000=0.315789
,87.500000=0.315789
,90.500000=0.315789
,93.500000=0.315789
,100.500000=0.157895
,104.000000=0.157895
,107.500000=0.157895
,115.000000=0.157898
,118.500000=0.157895
,119.500000=0.157895
,120.500000=0.157895
,121.500000=0.157895
;
#DELAYS:;
#WARPS:;
#TIMESIGNATURES:0.000000=4=4
;
#TICKCOUNTS:0.000000=4
;
#COMBOS:0.000000=1
;
#SPEEDS:0.000000=1.000000=0.000000=0
;
#SCROLLS:0.000000=1.000000
;
#FAKES:;
#LABELS:0.000000=Song Start
;
#DISPLAYBPM:95.000000:190.000000;
#NOTES:
0000
0000
0000
0000
,
0000
0000
0000
0000
,
0000
0000
0000
0000
,
0000
0000
0000
0000
,
2020
0000
3030
2002
0000
3003
0022
0000
,
0000
0000
0033
0000
0000
0000
0000
0001
,
0202
0000
0303
2002
0000
3003
2200
0000
,
0000
0000
0000
0000
3300
0000
1000
0010
1000
0000
0010
0100
0010
0000
0100
0001
,
0200
0000
0300
2020
0000
3030
0022
0000
,
0000
0000
0033
0000
0000
1000
0100
0001
,
0100
0000
0220
0330
1100
1000
2002
0000
,
0000
0000
0000
0000
0000
0000
0003
0000
0001
0000
3000
0001
0100
0000
0010
0000
,
2010
0000
0000
0000
3100
0000
0000
0010
0002
0000
0000
0000
0103
0000
0000
0010
,
1000
0000
0020
0000
0000
0000
0100
0000
0000
0000
0130
0000
0000
0000
0010
0000
0001
0000
0020
0000
0000
0000
1030
0010
1000
0000
0001
1000
0001
0000
1000
0100
,
1000
0100
1000
0100
0001
0100
0001
0100
,
1000
0010
1000
0010
0001
0010
0001
0010
,
1000
0010
1000
0000
0001
0010
0001
0000
1000
0010
0100
0000
0001
0010
0100
0000
,
0020
0400
0000
0000
0000
0000
0330
0000
,
2001
0000
3010
2010
0000
3001
1002
0000
,
0013
0012
0000
1003
0102
0000
1003
2100
,
0000
3001
0100
2001
3000
1002
0000
0013
,
0001
1000
0001
1000
0002
0000
0000
0000
0013
0000
1002
0000
0000
0000
0103
0000
,
2001
0000
3010
2001
0000
3100
0012
0000
,
1003
2010
0000
3001
0010
1002
0003
2001
,
0000
3100
1000
0010
0120
0000
1030
2010
,
0000
0000
3100
0000
0010
0100
0020
0000
0000
0000
0031
0000
0012
0000
0000
0000
,
0103
0010
2010
0000
3100
0012
0000
0103
,
0001
1000
0001
0000
0012
0000
0003
0000
2100
0000
0000
0000
3001
0000
1000
0001
,
1000
0001
2000
0000
0000
0000
3010
0000
0102
0000
0000
0000
0013
0000
0001
1000
,
0002
0000
0013
2100
0000
3010
0010
2010
,
3100
1200
0310
0012
0103
0201
0000
0310
,
1000
0000
0100
0010
0100
0000
0010
0000
0012
0000
0000
0000
0103
0000
0M00
0000
,
1000
0010
0001
0010
1000
0100
0001
0100
,
0001
0000
0100
0000
1000
0000
1000
0000
0010
MM0M
0010
0000
0001
0000
0100
0010
,
0200
0000
1300
0100
1000
0100
0001
0010
,
0001
1000
2010
0000
3100
0M00
0001
0010
,
1000
0000
0010
0000
0001
0000
0100
0000
1000
0000
0100
0000
0001
0000
2000
3000
,
0001
2000
3000
0000
2000
3000
0000
2000
3001
0000
0010
0100
0020
0000
0000
0000
,
0001
0000
0000
0001
0000
0000
0230
0000
0000
0000
0000
0000
1000
0000
0000
1000
,
0000
0000
0310
0000
0001
0000
0100
0000
0010
0000
1000
0000
0002
0000
1003
0010
,
1000
0000
0200
0000
1300
0010
1000
0000
0002
0000
1003
0010
1000
0000
0100
0010
,
0001
0000
0001
0000
0010
MM0M
0010
0000
1000
0000
0100
0010
0200
0000
0000
0000
,
0301
0100
0001
0100
1000
0010
1000
0001
,
0012
0000
0000
0000
0103
0000
0010
0000
2000
0000
3001
0010
0001
0000
0200
0000
,
0301
0010
0001
0000
2000
0000
3001
0010
0001
0000
0100
0010
2000
0000
0000
0000
,
0010
3002
0010
0203
,
0010
0000
0010
0000
0010
0000
0301
0100
,
1000
0100
0001
0010
1000
0010
0001
0000
,
2000
0000
3002
0000
2003
0000
3002
0000
2003
0000
3100
0010
0001
0100
0010
1000
,
1010
0000
0000
0101
0000
0000
0011
0000
0000
1100
0000
0000
0001
0000
0010
0001
,
0020
0000
0000
0000
0031
0000
0010
1000
0020
0000
0000
0000
1030
0000
0010
0000
,
0001
0000
0010
0000
0001
0000
0100
0000
2000
0000
0000
0000
3100
0000
0001
0100
,
0002
0000
0000
0000
1003
0000
0100
0010
0100
0000
0010
0000
0100
0000
1000
0000
,
0100
0000
0001
0000
0100
0000
1000
0000
0002
0000
0000
0000
1003
0000
0010
1000
,
0020
0000
0000
0000
0031
0000
0010
0001
0020
0000
0000
0000
0031
0000
0010
0000
,
1000
0000
0100
0000
0001
0000
1000
0000
0020
0000
0000
0000
0031
0000
1000
0001
,
2000
0000
0000
0000
3001
0000
0100
0010
0100
0000
0010
0000
1000
0000
0100
0000
,
0001
0100
0001
0100
1000
0010
0100
0001
,
0000
0000
0011
0000
0012
0000
0000
0000
0010
0000
0000
0010
0000
0000
1000
0000
,
0000
1000
0000
0000
0100
0000
0000
0103
0000
0000
0101
0000
0000
0110
0000
0000
,
0000
0000
1010
0000
2010
0000
0000
0000
0010
0000
0000
0010
0000
0000
0001
0000
,
0000
0001
0000
0000
0100
0000
0000
3100
0000
0000
0011
0000
0000
1100
0000
0000
,
1001
0000
0000
1000
0000
0000
0020
0000
0000
0000
0030
0000
0000
0000
0000
1000
,
0001
0000
0000
0000
0000
0000
0001
0000
0000
0000
0000
0000
0020
0000
0000
0000
0000
0000
0000
0000
0030
0000
0001
0010
0001
0000
0010
0100
0010
0000
0100
1000
,
0200
0000
0300
0022
0000
0033
2020
0000
,
0000
0000
3030
0000
0000
0001
0100
1000
,
0100
0000
0220
0330
0101
0001
2002
0000
,
0000
0000
0000
0000
0000
0000
0000
0000
3003
0000
0000
0000
1000
0001
1000
0001
,
0020
0000
0130
0010
0100
0000
0021
0000
,
0100
0000
0000
0000
0031
0000
0010
0001
0010
0000
0001
0000
0100
0000
0010
0000
,
1020
0000
0130
0010
0100
0000
1020
0000
,
0100
0000
0000
0000
1030
0000
0010
0100
0001
0000
0010
0100
1000
0000
0001
0000
,
1002
0000
0103
0001
0010
0000
2001
0000
,
0100
0000
0000
0000
3010
0000
1000
0010
1000
0000
0100
0000
0010
0000
0001
0000
,
0100
0000
0010
0100
0020
0000
0030
0000
0220
0000
0330
0000
2002
0000
0000
0000
,
3003
0000
1000
0000
0100
0000
0002
0000
0000
0000
0103
0000
1000
0001
1000
0000
,
1020
0000
1030
0010
0001
0000
0021
0000
,
0100
0000
0000
0000
1030
0000
0001
0100
0001
0000
1000
0000
0100
0000
0010
0000
,
0021
0000
0031
0010
1000
0000
1020
0000
,
0100
0000
0000
0000
0031
0000
1000
0100
0010
0000
0001
0100
0010
0000
1000
0000
,
1001
0000
0000
1000
0100
0000
0001
0000
0100
0000
1000
0000
1002
0000
0000
0000
,
0010
0000
0000
0000
0103
0000
0010
0100
0010
0000
1000
0000
0010
0000
0001
0000
,
0010
0000
0000
0000
0110
0000
0000
0010
1000
0000
0100
0000
0220
0000
0000
0000
,
0000
0000
0000
0000
,
0000
0000
0000
0330
;

//---------------dance-single - ----------------
#NOTEDATA:;
#CHARTNAME:;
#STEPSTYPE:dance-single;
#DESCRIPTION:;
#CHARTSTYLE:;
#DIFFICULTY:Medium;
#METER:12;
#RADARVALUES:0.482920,0.552571,0.455059,1.032009,0.052819,416.000000,360.000000,56.000000,127.000000,0.000000,0.000000,1.000000,0.000000,0.000000,0.482920,0.552571,0.455059,1.032009,0.052819,416.000000,360.000000,56.000000,127.000000,0.000000,0.000000,1.000000,0.000000,0.000000;
#CREDIT:;
#OFFSET:-0.631945;
#BPMS:0.000000=190.000000
,48.000000=95.000000
,56.000000=190.000000
,126.000000=95.000000
,127.000000=190.000000
,141.000000=95.000000
,142.000000=190.000000
,172.000000=95.000000
,173.000000=190.000000
,191.000000=95.000000
,197.000000=190.000000
,249.000000=95.000000
,257.000000=190.000000
;
#STOPS:74.500000=0.315791
,77.500000=0.315791
,80.500000=0.315789
,87.500000=0.315789
,90.500000=0.315789
,93.500000=0.315789
,100.500000=0.157895
,104.000000=0.157895
,107.500000=0.157895
,115.000000=0.157898
,118.500000=0.157895
,119.500000=0.157895
,120.500000=0.157895
,121.500000=0.157895
;
#DELAYS:;
#WARPS:;
#TIMESIGNATURES:0.000000=4=4
;
#TICKCOUNTS:0.000000=4
;
#COMBOS:0.000000=1
;
#SPEEDS:0.000000=1.000000=0.000000=0
;
#SCROLLS:0.000000=1.000000
;
#FAKES:;
#LABELS:0.000000=Song Start
;
#DISPLAYBPM:95.000000:190.000000;
#NOTES:
0000
0000
0000
0000
,
0000
0000
0000
0000
,
0000
0000
0000
0000
,
0000
0000
0000
0000
,
2001
0000
0000
3020
0000
0000
2000
0000
,
0000
0000
3030
0000
0000
0000
0000
1000
,
1002
0000
0000
0023
0000
0000
0002
0000
,
0000
0033
0001
0100
,
0220
0000
0330
2002
0000
3003
0220
0000
,
0000
0000
0330
0000
0000
1000
0010
0100
,
0001
0011
0110
2200
,
0000
0000
0000
0000
3300
0000
0001
0100
,
0210
0000
0001
0000
1000
0000
0310
0100
,
0001
0001
0010
0000
1000
1000
0010
0000
,
0001
0010
0001
0000
0010
0000
0100
0000
,
1000
0010
1000
0000
0010
0000
0100
0000
,
0002
0023
0230
2300
,
0002
0000
0000
3003
,
0202
0000
0303
0202
0000
0303
2020
0000
,
3030
2020
0000
3030
2002
0000
3003
2002
,
0000
3003
1000
0100
0000
0210
0000
0000
,
0301
0100
2000
0000
3000
2020
0000
3030
,
0202
0000
0303
0022
0000
0033
0220
0000
,
0330
2002
0000
3003
0001
0010
0000
0210
,
0000
0310
0100
0010
2001
0000
0100
3200
,
0000
0310
0010
0002
0000
0100
0203
0000
,
0310
0010
2000
0000
0001
3002
0000
1003
,
1000
0001
0100
0000
0210
0000
0000
1300
,
0100
0002
0000
0013
0200
0000
0310
0001
,
2000
0000
3010
0200
0000
0310
1000
0200
,
0010
0320
0001
0032
1000
2003
0000
3010
,
0100
0001
1000
0100
0020
0000
0130
0000
,
0011
0000
0100
1000
0010
0000
2020
0000
,
3030
0000
1000
1000
0010
0001
0010
1000
,
1000
0000
0100
0010
0100
0010
0001
0100
,
0010
0120
0130
1010
,
0100
0001
0010
0000
0022
0000
0033
0000
,
0100
0000
0100
0000
1001
0100
0010
0000
,
1002
0000
0000
0003
0000
0000
2001
0000
,
0000
3000
0000
0000
0100
0000
1002
0000
,
0103
2000
0000
3100
0002
0000
0013
0000
,
0001
0001
0010
1000
0010
0001
0001
0000
,
0100
0010
0100
0010
1000
0100
0010
0000
,
0120
0000
0130
0000
2001
0000
3010
0002
,
0000
0013
2000
0000
3100
0010
0002
0000
,
0000
0203
0000
0320
,
0000
0100
0100
0400
,
0000
0000
0000
0330
,
0000
0000
2000
3002
2003
3002
2003
3020
,
0230
0000
0302
0000
1003
0000
0000
1000
0000
0000
1000
0000
0000
1000
0000
0000
,
0010
1000
0200
0000
0300
0100
0002
0000
,
0003
0001
0100
0010
0100
0010
0002
0000
,
0103
0010
2000
0000
3000
1000
0010
1000
,
0010
0001
0010
0001
0010
1000
0200
0000
,
0310
0001
0200
0000
0300
0100
2000
0000
,
3000
1000
0100
0010
0100
0010
2000
0000
,
3100
0010
0002
0000
0003
0010
0100
1000
,
0001
0100
0020
0000
1000
0000
0001
0000
,
0100
0000
0030
0000
0000
0000
0010
0000
0020
0000
0000
0000
0100
0000
0000
0100
,
0000
0000
0100
0000
0000
0100
0000
0000
0100
0000
0000
0100
0000
0000
0100
0000
,
0000
0130
0000
0000
0000
0000
0110
0000
1001
0000
0000
0000
1000
0000
0000
0001
,
0000
0000
1000
0000
0000
0001
0000
0000
1000
0000
0000
0001
0000
0000
1000
0000
,
0000
0001
0000
0000
2001
0000
0000
3200
0000
0000
0320
0000
0000
0000
0030
0000
,
0000
0000
0000
0010
0002
0000
0000
0203
0000
0000
0320
0000
0000
0000
0030
0000
,
1000
0100
0220
0000
0330
2002
0000
3003
,
0220
0000
0000
0000
0330
0000
0000
0001
,
0010
0100
1000
0000
1010
0000
0110
0000
,
0202
0000
0000
0303
,
1000
0001
2000
0000
3100
1000
0100
0000
,
2010
0000
0100
0000
3010
0000
0010
1000
,
0010
0100
0002
0000
0103
0001
0100
0000
,
0012
0000
0100
0000
0013
0000
0010
0001
,
0010
0100
2000
0000
3010
0100
0010
0000
,
1002
0000
0010
0000
0013
0000
0100
1000
,
0001
0100
0010
0000
1010
0000
0110
0000
,
0202
0300
2003
0000
,
3001
1000
0002
0000
0013
0100
0010
0000
,
1020
0000
0100
0000
0031
0000
0010
1000
,
0010
0100
2000
0000
3010
0100
0010
0000
,
0021
0000
0100
0000
1030
0000
0010
0001
,
0010
0100
0001
0000
0010
0100
0010
0000
,
2001
0000
0010
0000
3010
0000
1000
0100
,
0001
0100
1000
0000
1100
0000
0101
0000
,
0220
0000
0000
0000
,
0000
0000
0000
0000
,
0330
0000
0000
0000
;

//---------------dance-single - ----------------
#NOTEDATA:;
#CHARTNAME:;
#STEPSTYPE:dance-single;
#DESCRIPTION:;
#CHARTSTYLE:;
#DIFFICULTY:Easy;
#METER:9;
#RADARVALUES:0.334329,0.530225,0.365672,0.828857,0.000000,288.000000,243.000000,45.000000,102.000000,0.000000,0.000000,2.000000,0.000000,0.000000,0.334329,0.530225,0.365672,0.828857,0.000000,288.000000,243.000000,45.000000,102.000000,0.000000,0.000000,2.000000,0.000000,0.000000;
#CREDIT:;
#OFFSET:-0.631945;
#BPMS:0.000000=190.000000
,48.000000=95.000000
,56.000000=190.000000
,68.000000=95.000000
,70.000000=190.000000
,134.000000=95.000000
,135.000000=190.000000
,149.000000=95.000000
,150.000000=190.000000
,180.000000=95.000000
,181.000000=190.000000
,199.000000=95.000000
,205.000000=190.000000
,257.000000=95.000000
,265.000000=190.000000
;
#STOPS:;
#DELAYS:;
#WARPS:;
#TIMESIGNATURES:0.000000=4=4
;
#TICKCOUNTS:0.000000=4
;
#COMBOS:0.000000=1
;
#SPEEDS:0.000000=1.000000=0.000000=0
;
#SCROLLS:0.000000=1.000000
;
#FAKES:;
#LABELS:0.000000=Song Start
;
#DISPLAYBPM:95.000000:190.000000;
#NOTES:
0000
0000
0000
0000
,
0000
0000
0000
0000
,
0000
0000
0000
0000
,
0000
0000
0000
0000
,
1002
0000
0000
0023
0000
0000
0002
0000
,
0000
0033
0000
0000
,
2001
0000
0000
3020
0000
0000
2000
0000
,
0000
3030
0000
0000
,
2001
0000
0000
3200
0000
0000
0020
0000
,
0000
0330
0000
0010
,
0001
1002
0203
0020
,
0000
0000
0300
0030
,
2000
3010
0002
0013
,
1000
1000
0100
0000
0001
0001
0100
0000
,
1000
1000
0100
0010
,
0001
0001
0100
0010
,
2000
3002
2003
0002
,
3003
0000
0000
0000
2001
0000
0000
0020
,
0000
3030
0000
0000
2001
0000
0000
0200
,
0000
3300
0000
0000
1200
0000
0000
0020
,
0000
0330
0000
0000
0000
0011
0000
1002
,
0000
0000
1003
0000
1002
0000
0000
0020
,
0000
0033
0000
0000
1002
0000
0000
0200
,
0000
0303
0000
0000
0201
0000
0000
0020
,
0000
0330
0000
0000
0000
1010
0000
2001
,
0000
0000
3100
0000
0020
0000
0030
2200
,
0000
3300
0000
1000
0020
0000
0030
0202
,
0000
0303
0000
0001
2000
0000
3000
2002
,
0000
3003
0000
1000
0100
0010
0000
0210
,
0000
0000
0310
0000
0002
0000
0003
0202
,
0000
0303
0000
0010
2000
0000
3000
2200
,
0000
3300
0000
0010
0002
0000
0003
0200
,
0000
0300
0020
0000
0030
2000
0000
3000
,
0001
0100
2001
3010
,
2010
0000
0001
0100
,
3100
1100
0010
0001
,
0101
0010
1000
0100
,
0010
1002
0013
0012
,
0000
1000
0100
0103
,
0010
0000
0010
2001
,
0000
0000
0000
3002
,
0000
0000
1003
2000
,
0000
3020
0000
0000
0032
0000
0000
0013
,
1000
0010
1000
1100
,
0010
0001
0100
0010
,
2001
0000
3010
0000
2000
0000
0000
3200
,
0000
0000
0302
0000
0000
0103
2000
0000
,
0000
3020
0000
0230
,
0000
0000
0000
0020
,
0000
0000
0000
0330
,
0000
0000
2000
0000
3002
0000
1003
0001
,
1000
0001
0020
0000
0000
0000
0000
0000
,
0030
0001
0020
0000
0030
0001
2000
0000
,
3000
0001
0100
0000
0010
0000
0200
0000
,
0300
0001
2000
0000
3000
0001
0010
0000
,
0001
0100
0010
1000
,
0000
1000
0020
0000
0030
1000
0002
0000
,
0003
1000
0100
0000
0010
0000
0200
0000
,
0300
1000
0002
0000
0003
1000
0010
0000
,
0100
0002
1000
1003
,
0001
1000
0000
0100
0100
0000
0400
0000
,
0000
0000
0000
0000
,
0000
0300
0000
0000
0000
0000
0100
0000
0100
0000
0000
0000
0400
0000
0000
0000
,
0000
0000
0000
0000
,
0000
0300
0000
0000
,
0000
0000
0000
0000
,
0000
0000
1002
0000
0000
0203
0000
0000
,
0020
0000
0330
0000
,
0010
1000
2001
3200
,
0020
0000
0000
0330
,
0001
2000
0010
3001
,
0002
0010
1003
1001
,
0001
1000
0002
0000
0100
0000
1003
0000
,
2000
0100
3001
1001
,
0100
2001
0010
0100
,
3002
0010
0103
1001
,
1000
0001
1000
0000
1100
0000
0011
0000
,
2000
0000
0000
3000
0000
0000
0000
0000
,
1000
0020
1000
0031
,
0020
0001
1030
1001
,
0001
1000
0200
0000
1000
0000
0301
0000
,
0200
0001
1300
1001
,
0010
2001
0010
3100
,
1002
0010
0103
1001
,
1000
0001
1000
0000
0101
0000
0110
0000
,
2200
0000
0000
0000
,
0000
0000
0000
0000
,
3300
0000
0000
0000
;

//---------------dance-single - ----------------
#NOTEDATA:;
#CHARTNAME:;
#STEPSTYPE:dance-single;
#DESCRIPTION:;
#CHARTSTYLE:;
#DIFFICULTY:Beginner;
#METER:7;
#RADARVALUES:0.246103,0.419000,0.235655,0.438807,0.000000,212.000000,183.000000,29.000000,54.000000,0.000000,0.000000,0.000000,0.000000,0.000000,0.246103,0.419000,0.235655,0.438807,0.000000,212.000000,183.000000,29.000000,54.000000,0.000000,0.000000,0.000000,0.000000,0.000000;
#CREDIT:;
#OFFSET:-0.631945;
#BPMS:0.000000=190.000000
;
#STOPS:;
#DELAYS:;
#WARPS:;
#TIMESIGNATURES:0.000000=4=4
;
#TICKCOUNTS:0.000000=4
;
#COMBOS:0.000000=1
;
#SPEEDS:0.000000=1.000000=0.000000=0
;
#SCROLLS:0.000000=1.000000
;
#FAKES:;
#LABELS:0.000000=Song Start
;
#DISPLAYBPM:95.000000:190.000000;
#NOTES:
0000
0000
0000
0000
,
0000
0000
0000
0000
,
0000
0000
0000
0000
,
0000
0000
0000
0000
,
1002
0000
0000
0020
,
0000
0033
0000
0000
,
2001
0000
0000
0020
,
0000
3030
0000
0000
,
2001
0000
0000
0200
,
0000
3300
0000
0000
,
0000
1002
0100
0200
,
0000
0000
0000
0303
,
2000
0000
3000
0000
,
0002
0000
0003
0000
,
1000
0000
1000
0000
,
0001
0000
0001
0000
,
1000
1000
0001
0000
,
0001
0001
1000
0000
,
1000
0001
2000
0002
,
3003
0000
0000
0000
,
1000
0000
0000
1000
0000
0000
0000
0000
,
0010
0000
0000
0010
0000
0000
0000
0000
,
1000
0000
0000
1000
0000
0000
0000
0000
,
0000
1000
0000
1000
0000
0000
0000
0000
,
0001
0000
0000
0001
0000
0000
0000
0000
,
0010
0000
0000
0010
0000
0000
0000
0000
,
0001
0000
0000
0001
0000
0000
0000
0000
,
0000
0001
0000
0001
0000
0000
0000
0000
,
1000
0000
0000
0010
0000
0000
0000
0000
,
1000
0000
0000
0001
0000
0000
0000
0000
,
1000
0000
0000
0100
0000
0000
0000
0000
,
0000
1000
0000
1000
0000
0000
0000
0000
,
0001
0000
0000
0010
0000
0000
0000
0000
,
0001
0000
0000
1000
0000
0000
0000
0000
,
0001
0000
0000
0001
0000
0000
1000
0000
,
0000
1000
0000
0000
0001
0000
0000
0000
,
2002
0000
3003
2002
,
0000
3003
1000
1000
,
0100
0000
0010
0001
,
0100
0010
1000
0000
,
0220
0000
0330
0220
,
0000
0330
0100
0010
,
0100
0000
0100
2001
,
0000
0000
0000
3002
,
0000
0000
0013
0010
,
0000
0001
0000
0000
0100
0000
0000
0000
,
0100
0000
0010
1000
,
0100
0010
0001
0000
,
2002
3003
0010
0010
,
0000
1000
0000
0000
0100
0000
0000
0000
,
0100
0000
0010
0000
,
0200
0000
0000
0000
,
0020
0000
0000
0000
,
0330
0000
0000
0000
,
0002
0000
2003
0000
,
3001
1000
0001
1000
,
1001
0000
0000
0000
,
0022
0033
2200
3300
,
0010
0100
1000
0000
,
2020
3030
0202
0303
,
0010
0100
0001
0000
,
0220
0330
2002
3003
,
1000
0100
0010
0001
,
0200
0300
0010
1000
,
0200
0300
0100
0100
,
0000
1001
2002
0000
,
0000
0000
0000
0000
0000
0000
0000
0000
0000
0000
0000
0000
0000
3003
0000
0000
,
0000
0110
2002
0000
,
0000
0000
0000
0000
,
3003
0000
0000
0000
,
0000
0000
0000
0000
,
0000
0000
0000
0000
,
0000
0000
0000
0000
,
1002
0000
0000
0200
,
0000
0303
0000
0000
,
0000
2001
0100
0200
,
0000
0000
0000
3300
,
0001
0010
0100
0010
,
0001
0000
0001
0001
,
1000
0010
0100
0010
,
1000
0000
1000
1000
,
0001
0100
0010
1000
,
0100
0000
0100
0010
,
0100
1001
1001
2002
,
0000
0000
0000
3003
,
1000
0010
0001
0010
,
1000
0000
1000
1000
,
0001
0010
1000
0010
,
0001
0000
0001
0001
,
1000
0010
0100
0001
,
0010
0000
0100
1000
,
0010
1001
0110
2002
,
0000
0000
0000
0000
,
0000
0000
0000
3003
;

//---------------dance-single - [B-SIDE] Labyrinth In Cow Poo----------------
#NOTEDATA:;
#CHARTNAME:[B-SIDE] Labyrinth In Cow Poo;
#STEPSTYPE:dance-single;
#DESCRIPTION:[B-SIDE] Labyrinth In Cow Poo;
#CHARTSTYLE:;
#DIFFICULTY:Edit;
#METER:17;
#RADARVALUES:0.797514,1.753094,0.698840,0.926370,0.670399,687.000000,601.000000,86.000000,114.000000,44.000000,0.000000,8.000000,0.000000,36.000000,0.797514,1.753094,0.698840,0.926370,0.670399,687.000000,601.000000,86.000000,114.000000,44.000000,0.000000,8.000000,0.000000,36.000000;
#CREDIT:;
#OFFSET:-0.631945;
#BPMS:0.000000=190.000000
,48.000000=95.000000
,56.000000=190.000000
,68.000000=760.000000
,68.500000=380.000000
,71.000000=190.000000
,198.500000=380.000000
,200.000000=190.000000
,312.000000=95.000000
,313.000000=190.000000
,319.000000=380.000000
,320.250000=190.000000
,320.375000=95.000000
,320.625000=190.000000
,320.750000=380.000000
,322.000000=190.000000
,327.000000=95.000000
,328.000000=190.000000
,350.000000=380.000000
,351.250000=190.000000
,351.375000=95.000000
,351.625000=190.000000
,351.750000=380.000000
,353.000000=190.000000
,358.000000=95.000000
,359.000000=190.000000
,377.000000=95.000000
,383.000000=190.000000
,417.500000=380.000000
,423.750000=190.000000
,425.000000=380.000000
,432.000000=95.000000
,440.000000=190.000000
,455.000000=380.000000
,456.000000=190.000000
;
#STOPS:68.000000=0.118421
,68.500000=0.019737
,68.625000=0.019737
,68.750000=0.019737
,68.875000=0.019737
,69.000000=0.026316
,69.166664=0.026316
,69.333336=0.026316
,69.500000=0.039474
,69.750000=0.039472
,70.000000=0.039472
,70.250000=0.039472
,70.500000=0.039472
,70.750000=0.039472
,198.500000=0.039474
,198.750000=0.039474
,199.000000=0.039474
,199.250000=0.039474
,199.500000=0.039474
,199.750000=0.039474
,319.000000=0.078949
,319.500000=0.078945
,321.000000=0.078945
,321.500000=0.039470
,321.750000=0.039474
,350.000000=0.078949
,350.500000=0.078945
,352.000000=0.078945
,352.500000=0.039470
,352.750000=0.039474
,383.000000=0.157898
,383.250000=0.157890
,383.500000=0.157890
,383.750000=0.157890
,417.500000=0.078949
,418.000000=0.236839
,418.500000=0.118416
,419.250000=0.118416
,420.000000=0.118416
,420.750000=0.118416
,421.500000=0.118416
,422.250000=0.118416
,423.000000=0.118416
,425.000000=0.078949
,425.500000=0.236839
,426.000000=0.118416
,426.750000=0.118416
,427.500000=0.118416
,428.250000=0.118416
,429.000000=0.118416
,429.750000=0.118416
,430.500000=0.118416
,431.250000=0.118416
,455.000000=0.039474
,455.250000=0.039474
,455.500000=0.039474
,455.750000=0.039474
;
#DELAYS:;
#WARPS:74.500000=16.000000
,94.500000=16.000000
,114.500000=16.000000
,138.500000=16.000000
,158.500000=16.000000
,178.500000=16.000000
,202.500000=16.000000
,222.500000=16.000000
,242.500000=16.000000
,266.500000=16.000000
,286.500000=16.000000
;
#TIMESIGNATURES:0.000000=4=4
;
#TICKCOUNTS:0.000000=4
;
#COMBOS:0.000000=1
;
#SPEEDS:0.000000=1.000000=0.000000=0
,56.000000=2.000000=12.000000=0
,74.500000=1.000000=0.000000=0
,369.000000=1.200000=4.000000=0
,373.000000=2.000000=4.000000=0
,377.000000=1.000000=0.000000=0
,379.000000=2.000000=4.000000=0
;
#SCROLLS:0.000000=1.000000
,16.000000=2.000000
,16.375000=1.000000
,16.750000=0.500000
,17.500000=2.000000
,17.875000=1.000000
,18.250000=0.500000
,19.000000=2.000000
,19.375000=1.000000
,19.750000=0.500000
,24.000000=2.000000
,24.375000=1.000000
,24.750000=0.500000
,25.500000=2.000000
,25.875000=1.000000
,26.250000=0.500000
,27.000000=2.000000
,27.375000=1.000000
,27.750000=0.500000
,32.000000=2.000000
,32.375000=1.000000
,32.750000=0.500000
,33.500000=2.000000
,33.875000=1.000000
,34.250000=0.500000
,35.000000=2.000000
,35.375000=1.000000
,35.750000=0.500000
,41.000000=2.000000
,41.250000=1.000000
,41.500000=0.500000
,42.000000=2.000000
,42.125000=1.000000
,42.250000=0.500000
,42.750000=1.000000
,42.875000=2.000000
,43.375000=1.000000
,43.750000=0.500000
,46.000000=1.000000
,56.000000=0.500000
,71.000000=-1.000000
,71.250000=-0.500000
,71.500000=0.000000
,71.750000=1.500000
,72.000000=1.000000
,72.250000=0.500000
,72.500000=0.250000
,73.000000=0.500000
,73.500000=1.000000
,73.750000=0.500000
,74.000000=0.250000
,74.500000=0.125000
,76.000000=1.000000
,90.500000=0.250000
,92.000000=2.000000
,92.250000=1.000000
,92.500000=0.500000
,93.000000=1.000000
,93.500000=2.000000
,93.750000=1.000000
,94.000000=0.500000
,94.500000=0.250000
,96.000000=1.000000
,110.500000=0.250000
,112.000000=2.000000
,112.250000=1.000000
,112.500000=0.500000
,113.000000=1.000000
,113.500000=2.000000
,113.750000=1.000000
,114.000000=0.500000
,114.500000=0.250000
,116.000000=1.000000
,130.500000=0.250000
,132.000000=1.000000
,132.500000=2.000000
,132.750000=1.000000
,133.000000=0.500000
,133.500000=2.000000
,133.750000=1.000000
,134.000000=0.500000
,134.500000=0.600000
,135.000000=0.700000
,135.250000=0.800000
,135.500000=0.900000
,135.750000=1.000000
,136.000000=2.000000
,136.250000=1.000000
,136.500000=0.500000
,137.000000=1.000000
,137.500000=2.000000
,137.750000=1.000000
,138.000000=0.500000
,138.500000=0.250000
,140.000000=1.000000
,154.500000=0.250000
,156.000000=2.000000
,156.250000=1.000000
,156.500000=0.500000
,157.000000=1.000000
,157.500000=2.000000
,157.750000=1.000000
,158.000000=0.500000
,158.500000=0.250000
,160.000000=1.000000
,174.500000=0.250000
,176.000000=2.000000
,176.250000=1.000000
,176.500000=0.500000
,177.000000=1.000000
,177.500000=2.000000
,177.750000=1.000000
,178.000000=0.500000
,178.500000=0.250000
,180.000000=1.000000
,194.500000=0.250000
,196.000000=1.000000
,196.500000=2.000000
,196.750000=1.000000
,197.000000=0.500000
,197.500000=2.000000
,197.750000=1.000000
,198.000000=0.500000
,198.500000=1.000000
,200.000000=2.000000
,200.250000=1.000000
,200.500000=0.500000
,201.000000=1.000000
,201.500000=2.000000
,201.750000=1.000000
,202.000000=0.500000
,202.500000=0.250000
,203.500000=0.500000
,203.750000=1.000000
,218.500000=0.250000
,219.500000=0.500000
,219.750000=1.000000
,220.000000=2.000000
,220.250000=1.000000
,220.500000=0.500000
,221.000000=1.000000
,221.500000=2.000000
,221.750000=1.000000
,222.000000=0.500000
,222.500000=0.250000
,223.500000=1.000000
,238.500000=0.250000
,239.500000=1.000000
,240.000000=2.000000
,240.250000=1.000000
,240.500000=0.500000
,241.000000=1.000000
,241.500000=2.000000
,241.750000=1.000000
,242.000000=0.500000
,242.500000=0.250000
,243.500000=0.500000
,243.750000=0.750000
,244.000000=1.000000
,258.500000=0.250000
,259.500000=0.500000
,259.750000=0.750000
,260.000000=1.000000
,260.500000=2.000000
,260.750000=1.000000
,261.000000=0.500000
,261.500000=2.000000
,261.750000=1.000000
,262.000000=0.500000
,262.500000=0.600000
,263.000000=0.700000
,263.250000=0.800000
,263.500000=0.900000
,263.750000=1.000000
,264.000000=2.000000
,264.250000=1.000000
,264.500000=0.500000
,265.000000=1.000000
,265.500000=2.000000
,265.750000=1.000000
,266.000000=0.500000
,266.500000=0.250000
,267.500000=0.500000
,267.750000=1.000000
,282.500000=0.250000
,283.500000=0.500000
,283.750000=1.000000
,284.000000=2.000000
,284.250000=1.000000
,284.500000=0.500000
,285.000000=1.000000
,285.500000=2.000000
,285.750000=1.000000
,286.000000=0.500000
,286.500000=0.250000
,287.500000=1.000000
,302.500000=0.250000
,303.500000=1.000000
,304.000000=2.000000
,304.250000=1.000000
,304.500000=0.500000
,305.000000=1.000000
,305.500000=2.000000
,305.750000=1.000000
,306.000000=0.500000
,306.500000=1.000000
,307.000000=2.000000
,307.250000=1.000000
,307.500000=0.500000
,308.000000=1.000000
,308.500000=2.000000
,308.750000=1.000000
,309.000000=0.500000
,309.500000=0.666000
,310.000000=0.833000
,310.500000=1.000000
,322.000000=2.000000
,322.250000=1.000000
,322.500000=0.500000
,323.000000=1.000000
,337.000000=0.900000
,338.000000=0.800000
,339.000000=0.700000
,340.000000=0.600000
,341.000000=0.500000
,342.000000=0.666000
,343.000000=0.833000
,344.000000=1.000000
,353.000000=2.000000
,353.250000=1.000000
,353.500000=0.500000
,354.000000=1.000000
,383.000000=0.500000
,423.750000=1.000000
,424.000000=0.500000
,424.250000=0.250000
,425.000000=0.500000
,440.000000=1.000000
,440.375000=0.500000
,440.750000=0.250000
,441.500000=1.000000
,441.875000=0.500000
,442.250000=0.250000
,443.000000=1.000000
,443.375000=0.500000
,443.750000=0.250000
,449.000000=1.000000
,449.250000=0.500000
,449.500000=0.250000
,450.000000=1.000000
,450.125000=0.500000
,450.250000=0.250000
,450.750000=0.500000
,450.875000=1.000000
,451.375000=0.500000
,451.750000=0.250000
,455.000000=0.500000
,481.000000=1.000000
,481.250000=0.500000
,481.500000=0.250000
,482.000000=1.000000
,482.250000=0.500000
,482.500000=0.250000
,483.000000=1.000000
,483.250000=0.500000
,483.500000=0.250000
,484.500000=0.300000
,485.000000=0.350000
,485.500000=0.400000
,486.000000=0.450000
,486.500000=0.500000
,515.000000=0.450000
,516.000000=0.400000
,517.000000=0.350000
,518.000000=0.300000
,519.000000=0.250000
,520.000000=0.200000
,521.000000=0.150000
,522.000000=0.100000
,523.000000=0.000000
;
#FAKES:;
#LABELS:0.000000=Song Start
;
#DISPLAYBPM:95.000000:190.000000;
#NOTES:
// measure 0
0000
0000
0000
0000
,  // measure 1
0000
0000
0000
0000
,  // measure 2
0000
0000
0000
0000
,  // measure 3
0000
0000
0000
0000
,  // measure 4
0022
0000
0033
2002
0000
3003
2020
0000
,  // measure 5
0000
0000
3030
0000
0000
0000
0000
1000
,  // measure 6
2200
0000
3300
2002
0000
3003
0202
0000
,  // measure 7
0000
0000
0000
0000
0303
0000
0001
0010
0100
1000
0100
1000
0001
0100
0001
0100
,  // measure 8
0020
0000
0030
0220
0000
0330
2002
0000
,  // measure 9
0000
0000
3003
0000
0000
1000
0100
0001
,  // measure 10
0100
0000
0220
0330
2100
3010
0202
0000
,  // measure 11
0000
0000
0000
0000
0000
0000
0300
0000
1000
0000
0003
1000
0010
0100
0010
0100
,  // measure 12
0002
0000
0000
0000
0000
0000
0000
0000
0100
0000
0000
0000
0000
0000
0013
0100
2000
0000
0000
0000
0000
0000
0000
0000
0100
0000
0000
0000
0000
0000
3010
0000
,  // measure 13
0100
0000
0002
0000
0000
0000
0013
0000
0000
0000
0010
0000
0001
0000
0010
0000
0100
0000
2000
0000
0000
0000
3010
0100
0001
1000
0001
1000
0100
0010
0100
0010
,  // measure 14
0001
0100
0001
0100
1000
0100
1000
0100
,  // measure 15
0010
0001
0010
0001
0010
1000
0010
1000
,  // measure 16
0100
0010
0100
0010
0001
1000
0001
1000
0100
0010
0001
0010
0100
1000
0001
0100
,  // measure 17
0020
0400
0000
0000
0000
0000
0330
0000
,  // measure 18
1002
0000
0013
1002
0000
0103
0000
0000
,  // measure 19
M00M
0000
0000
0000
,  // measure 20
0000
0000
0000
0000
,  // measure 21
0000
0000
0000
0000
,  // measure 22
0000
0000
0000
0000
0000
0100
0000
0000
,  // measure 23
2001
0000
3010
2001
0000
3100
0000
0000
,  // measure 24
MM00
0000
0000
0000
,  // measure 25
0000
0000
0000
0000
,  // measure 26
0000
0000
0000
0000
,  // measure 27
0000
0000
0000
0000
0000
0100
0000
0000
,  // measure 28
2100
0000
3001
0102
0000
1003
0000
0000
,  // measure 29
0M00
0000
0000
0000
,  // measure 30
0000
0000
0000
0000
,  // measure 31
0000
0000
0000
0000
,  // measure 32
0000
0000
0000
0000
0000
1000
0000
0000
,  // measure 33
0100
0000
2001
0000
3000
0000
1002
0000
0000
0000
1003
0000
0010
1000
0100
0010
,  // measure 34
0002
0000
0103
1200
0000
0301
0000
0000
,  // measure 35
00MM
0000
0000
0000
,  // measure 36
0000
0000
0000
0000
,  // measure 37
0000
0000
0000
0000
,  // measure 38
0000
0000
0000
0000
0000
0001
0000
0000
,  // measure 39
0021
0000
1030
1020
0000
0031
0000
0000
,  // measure 40
0M0M
0000
0000
0000
,  // measure 41
0000
0000
0000
0000
,  // measure 42
0000
0000
0000
0000
,  // measure 43
0000
0000
0000
0000
0000
0001
0000
0000
,  // measure 44
0102
0000
0013
2100
0000
3010
0000
0000
,  // measure 45
00M0
0000
0000
0000
,  // measure 46
0000
0000
0000
0000
,  // measure 47
0000
0000
0000
0000
,  // measure 48
0000
0000
0000
0000
0000
0010
0000
0000
,  // measure 49
0010
0000
0210
0000
0300
0000
2001
0000
0000
0000
3001
0010
0100
1000
0010
0100
,  // measure 50
0002
0000
0000
0000
0103
0000
2001
0000
0000
0000
3010
0000
0000
0000
00M0
M000
,  // measure 51
0M00
0000
0000
0000
,  // measure 52
0000
0000
0000
0000
,  // measure 53
0000
0000
0000
0000
,  // measure 54
0000
0000
0000
0000
0000
0000
0000
0000
0000
0000
0010
0000
0000
0000
0010
1000
,  // measure 55
0200
0000
0310
1002
0000
0013
0000
00M0
,  // measure 56
MM00
0000
0000
0000
,  // measure 57
0000
0000
0000
0000
,  // measure 58
0000
0000
0000
0000
,  // measure 59
0000
0000
0000
0000
0000
0010
0000
0010
,  // measure 60
2100
0000
0000
0000
3010
0000
0102
0000
0000
0000
1003
0000
0000
0000
M000
000M
,  // measure 61
00M0
0000
0000
0000
,  // measure 62
0000
0000
0000
0000
,  // measure 63
0000
0000
0000
0000
,  // measure 64
0000
0000
0000
0000
0000
0000
0000
0000
0000
0000
1000
0000
0000
0000
1000
0001
,  // measure 65
0010
0000
0120
0000
0030
0000
1002
0000
0000
0000
0103
0000
0010
1000
0001
1000
,  // measure 66
0200
0000
0000
0000
0301
0000
0201
0000
0000
0000
0310
0000
0000
0000
00M0
000M
,  // measure 67
0M00
0000
0000
0000
,  // measure 68
0000
0000
0000
0000
,  // measure 69
0000
0000
0000
0000
,  // measure 70
0000
0000
0000
0000
0000
0000
0000
0000
0000
0000
0010
0000
0000
0000
0010
0001
,  // measure 71
0200
0000
1300
1200
0000
0310
0000
00M0
,  // measure 72
M0M0
0000
0000
0000
,  // measure 73
0000
0000
0000
0000
,  // measure 74
0000
0000
0000
0000
,  // measure 75
0000
0000
0000
0000
0000
0010
0000
0010
,  // measure 76
2010
0000
3100
1200
0000
0310
0012
0000
,  // measure 77
0103
0000
0201
0000
0000
0000
0310
0000
0010
0000
1000
0010
0100
0001
0010
0100
,  // measure 78
2000
0000
0000
0000
301M
0000
MM01
0010
0001
0000
0010
0100
1000
0010
1000
0010
,  // measure 79
1000
0000
0010
0100
0001
0010
0001
0010
0001
0010
0100
0000
1000
0000
1000
0000
,  // measure 80
0010
0M00
0010
0000
0001
0000
0100
1000
0200
0000
0000
0000
0301
0000
0010
0000
,  // measure 81
0100
0000
0001
0000
0100
0000
0010
0000
0001
0100
0010
0100
0002
0000
0000
0000
,  // measure 82
M013
0000
1M0M
0010
1000
0000
0100
0010
0001
0100
0001
0100
0001
0000
0100
0010
,  // measure 83
1000
0100
1000
0100
1000
0100
0020
0030
0001
0020
0030
0000
0120
0030
0000
0020
,  // measure 84
1030
0000
0010
0100
0020
0000
0000
0000
0001
0000
0000
0001
0000
0000
0100
0000
,  // measure 85
0030
1000
0020
0000
1000
0000
0000
1000
0000
0000
0130
0001
1000
0100
0010
0001
,  // measure 86
1000
0010
1000
0000
0020
0000
0130
0010
0001
0000
0020
0000
0031
0010
0100
0000
,  // measure 87
0020
0000
0130
0010
0001
0000
0010
0100
0001
0000
0001
0000
0010
0M00
0010
0000
,  // measure 88
1000
0000
0100
0001
0200
0000
0000
0000
1300
0000
0010
0000
0100
0000
1000
0000
,  // measure 89
0100
0000
0010
0000
1000
0100
0010
0100
2000
0000
0000
0000
3010
0000
0100
0001
,  // measure 90
0020
0000
0130
0010
1000
0000
0020
0000
1030
0010
0100
0000
0020
0000
0130
0010
,  // measure 91
1000
0000
0010
0001
2000
0000
0010
0000
3010
0000
1000
0000
0002
0000
0010
0000
,  // measure 92
0013
0001
0200
0010
0010
0010
0010
0010
,  // measure 93
0010
0000
0310
0000
0100
0010
0100
0010
0100
0010
0100
0010
0100
0010
0100
0010
,  // measure 94
0100
0010
0100
0010
0100
0000
0000
0000
0000
0000
0000
0000
2000
0000
3002
0000
,  // measure 95
2003
0000
0000
0000
3002
0000
0000
0000
2003
0000
0000
0000
3001
1000
0100
0010
0100
1000
0001
1000
0100
0010
0100
1000
0001
0000
1010
0000
0101
0000
1010
0000
,  // measure 96
1001
0000
0001
0010
2000
0000
0000
0000
3010
0000
1000
0010
0002
0000
0000
0000
,  // measure 97
0013
0000
0001
0000
0100
0000
1000
0000
0100
0000
1000
0100
0002
0000
0100
0000
,  // measure 98
0103
0000
0010
1000
0200
0000
0000
0000
0301
0000
0100
1000
0010
0000
0100
0000
,  // measure 99
1000
0000
0100
0000
0210
0000
0300
0000
2001
0000
3100
0000
0010
0001
0100
0000
,  // measure 100
0010
0000
1000
0010
0002
0000
0000
0000
0013
0000
0001
0010
2000
0000
0000
0000
,  // measure 101
3010
0000
1000
0000
0100
0000
0001
0000
1000
0000
0010
0100
0020
0000
0001
0000
,  // measure 102
0031
0000
0010
0100
2000
0000
0000
0000
3010
0000
0010
0100
0001
0000
0010
0000
,  // measure 103
0100
0000
1000
0000
0001
0000
0001
0100
1000
0000
1000
0100
0001
0000
0100
0000
,  // measure 104
0010
0000
0010
0000
1000
0000
1010
0000
0101
0000
0011
0000
0000
1010
0000
0000
,  // measure 105
1100
0000
0000
0101
0000
0000
1100
0000
0000
1010
0000
0000
0011
0000
0000
1001
,  // measure 106
0000
0000
0000
0000
1100
0000
0011
0000
1010
0000
0000
0011
0000
0000
0101
0000
,  // measure 107
0000
1100
0000
0000
1010
0000
0000
0101
0000
0000
0011
0000
0000
1100
0000
0000
,  // measure 108
1001
0000
0000
0100
0000
0000
0002
0000
0000
0000
0003
0000
0000
0000
0000
0001
,  // measure 109
1001
0000
0000
0000
0000
0000
0100
0000
0000
0000
0000
0000
2000
0000
0000
0000
0000
0000
0000
0000
3000
0000
0001
0010
0100
1000
0100
1000
0001
0100
0001
0100
,  // measure 110
0020
0000
0030
0220
0000
0330
2002
0000
,  // measure 111
0000
0000
3003
0000
0000
0001
0100
1000
,  // measure 112
0100
0000
0220
0330
0102
0013
2200
0000
,  // measure 113
0000
0000
0000
0000
0000
0000
0000
0000
3300
0000
0000
0000
0001
1000
0010
0100
,  // measure 114
M004
0000
M000
0010
M000
0000
M010
0000
,  // measure 115
M100
0000
0000
0000
0000
0000
0000
0003
M011
0000
0000
0000
1000
0000
0100
0000
1000
0000
0000
0000
0010
0000
0000
0000
0100
0000
0000
0000
0010
0000
0000
0000
,  // measure 116
401M
0000
000M
0010
000M
0000
001M
0000
,  // measure 117
010M
0000
0000
0000
0000
0000
0000
3000
101M
0000
0000
0000
0001
0000
0100
0000
0010
0000
1000
0000
0100
0000
0010
0000
0001
0000
0100
0000
0010
0000
0100
0000
,  // measure 118
M004
0100
M000
0010
M000
0000
M100
0000
,  // measure 119
M010
0000
0000
0000
0000
0000
0000
0003
M101
0000
0000
0000
1000
0000
0010
0000
1000
0000
0000
0000
0001
0000
0000
0000
0001
0000
0000
0000
1000
0000
0100
0000
,  // measure 120
0010
0000
0001
0100
0020
0000
0030
0000
0220
0000
0330
0000
2002
0000
0000
0000
,  // measure 121
3003
0000
0001
0000
1000
0000
0200
0000
0000
0000
0310
0000
0100
0010
0100
0000
,  // measure 122
M041
0000
M000
0100
000M
0000
100M
0000
,  // measure 123
M10M
0000
0000
0000
0100
0000
0000
0030
0110
0000
0000
0000
0001
0000
0010
0000
1000
0000
0000
0000
0010
0000
0000
0000
0001
0000
0000
0000
0100
0000
0000
0000
,  // measure 124
104M
0000
000M
0100
M000
0000
M001
0000
,  // measure 125
M10M
0000
0000
0000
0100
0000
0000
0030
0110
0000
0000
0000
1000
0000
0010
0000
0100
0000
0001
0000
0010
0000
0100
0000
1000
0000
0010
0000
0100
0000
0010
0000
,  // measure 126
400M
0000
0000
0000
0000
0000
0010
0000
000M
0000
0000
0000
0010
0000
0000
3000
101M
0000
0000
0000
0001
0000
0100
0000
M004
0000
0000
0000
0000
0000
0000
0000
,  // measure 127
M010
0000
0000
0000
0000
0000
0000
0003
M011
0000
0000
0000
1000
0000
0010
0000
0001
0000
0000
0000
0010
0000
0000
0000
1000
0000
0000
0000
0100
0000
0000
0000
,  // measure 128
0010
0001
0100
0000
1010
0000
0000
0100
0001
0000
0010
0000
2200
0000
0000
0000
,  // measure 129
0000
0000
0000
0000
,  // measure 130
0000
0000
0000
3300
;
