#TITLE:La'qryma of the Wasteland;
#SUBTITLE:;
#ARTIST:DJ Noriken;
#TITLETRANSLIT:;
#SUBTITLETRANSLIT:;
#ARTISTTRANSLIT:;
#GENRE:Trancecore;
#CREDIT:;
#BANNER:La'qryma of the Wasteland.png;
#BACKGROUND:La'qryma of the Wasteland-bg.png;
#LYRICSPATH:;
#CDTITLE:cdtitle.png;
#MUSIC:La'qryma of the Wasteland.ogg;
#OFFSET:-0.002925;
#SAMPLESTART:81.431496;
#SAMPLELENGTH:11.428574;
#SELECTABLE:YES;
#BPMS:0.000000=168.000000
;
#STOPS:
;
#BGCHANGES:;
#KEYSOUNDS:;
#ATTACKS:;

//---------------dance-single - ----------------
#NOTES:
     dance-single:
     :
     Challenge:
     15:
     0.739381,0.891601,0.219188,0.813117,0.544435,732.000000,701.000000,31.000000,115.000000,0.000000,0.000000,0.739381,0.891601,0.219188,0.813117,0.544435,732.000000,701.000000,31.000000,115.000000,0.000000,0.000000:
// measure 0
0000
0000
0000
0000
,  // measure 1
0000
0000
0000
0000
,  // measure 2
0000
0000
0000
0000
,  // measure 3
0000
0000
0000
0000
,  // measure 4
0000
0000
0000
0000
,  // measure 5
1000
0000
0010
0000
0100
0000
0001
0000
0020
0000
0000
0000
0130
0000
0100
0010
,  // measure 6
0001
0000
0010
0000
0100
0000
1000
0000
0020
0000
0000
0000
0130
0000
0100
0010
,  // measure 7
1000
0000
0001
1000
0100
0000
1000
0001
0100
0000
0001
0010
0100
0000
1000
0010
,  // measure 8
0200
0000
0000
0000
0310
0100
0001
0010
0000
0100
0000
0100
2000
0000
0000
0000
,  // measure 9
3001
0100
1000
0100
0110
0000
0100
0001
,  // measure 10
1000
0100
0001
0100
0110
0000
0100
1000
,  // measure 11
0010
0001
0010
0100
0110
0000
0100
0001
,  // measure 12
0010
0000
1000
0000
0010
0000
0100
0000
0110
0000
0000
0000
0001
0010
0100
1000
,  // measure 13
0001
0100
1000
0100
0110
0010
1000
0001
,  // measure 14
1000
0100
0001
0100
0110
0010
0001
1000
,  // measure 15
0010
0001
0010
1000
1001
0001
0010
1000
,  // measure 16
0020
0000
0000
0000
0000
0000
0000
0000
0130
1000
0001
0100
0000
0010
0100
0000
,  // measure 17
0120
0000
1030
0010
0110
0001
1000
0100
,  // measure 18
0110
1000
0001
0100
0110
0010
1000
0001
,  // measure 19
0011
0100
1000
0001
1010
0100
0001
1000
,  // measure 20
0011
0000
0100
0000
1000
0000
0001
0000
0100
0010
0100
0010
0000
1000
0100
0010
,  // measure 21
0001
0100
1000
0001
0010
0100
0110
0000
,  // measure 22
0010
1000
0100
0001
1000
0010
0110
0000
,  // measure 23
0001
0010
0001
0010
0100
1000
0001
0100
0010
0000
0000
1010
0000
0000
0110
0000
,  // measure 24
0201
0000
0000
0000
0310
0100
0001
0010
0000
0100
0000
0100
2000
0000
0000
0000
,  // measure 25
3002
0000
0000
0203
0002
0000
0000
0000
,  // measure 26
0303
0000
0000
0000
1000
0010
0100
0001
,  // measure 27
2000
0000
0000
3200
2000
0000
0000
0000
,  // measure 28
3300
0000
0000
0000
0001
0010
1000
0010
,  // measure 29
0002
0000
0000
0203
0020
0000
0000
0000
,  // measure 30
0330
0000
0000
0000
1000
0010
0001
0010
,  // measure 31
2000
0000
0000
3200
0020
0000
0300
0000
,  // measure 32
0032
0000
0000
0000
0000
0000
1003
0010
0100
0001
0100
0000
0001
0000
0010
0000
,  // measure 33
0200
0000
0001
0302
0000
0100
0203
0000
,  // measure 34
0310
0000
0001
0000
1000
0000
0001
0100
0001
0100
0001
0000
1000
0000
0010
0000
,  // measure 35
0200
0000
1000
2300
0000
0100
3200
0000
,  // measure 36
0310
0000
1000
0000
0001
0000
0010
0001
1000
0001
0010
0000
0100
0000
1000
0000
,  // measure 37
0020
0000
0001
0032
0000
0010
0023
0000
,  // measure 38
0130
0000
0001
0000
0010
0000
0100
1000
0001
0100
0010
0000
1000
0000
0001
0000
,  // measure 39
0020
0000
1000
2030
0000
0010
3020
0000
,  // measure 40
0002
0000
0000
0033
,  // measure 41
2002
0000
0000
0000
3003
0000
0002
0200
,  // measure 42
0000
0000
0000
0000
0303
0000
2000
0200
,  // measure 43
0000
0000
0000
0000
3300
0002
2003
0002
,  // measure 44
0000
0000
0000
0000
3003
0000
0002
0020
,  // measure 45
0000
0000
0000
0000
0033
0000
2000
0200
,  // measure 46
0000
0000
0000
0000
3300
0000
0002
0200
,  // measure 47
0000
0000
0000
0000
0303
0000
2000
0020
,  // measure 48
0000
3000
0200
0330
,  // measure 49
0001
0000
0010
0000
1000
0000
0100
0100
,  // measure 50
0100
0000
0000
0000
0001
0000
0000
0000
0010
0000
0000
0000
1000
0000
1000
0001
,  // measure 51
1000
0000
0010
0000
0001
0000
0100
0100
,  // measure 52
0100
0000
0000
0000
1000
0000
0000
0000
0010
0000
0000
0000
0001
0000
0001
1000
,  // measure 53
0001
0000
0010
0000
1000
0000
0010
0000
0001
0000
0100
0000
1000
0000
0100
0001
,  // measure 54
1000
0000
0100
0000
0001
0000
0100
0000
1000
0000
0010
0000
0001
0000
0010
1000
,  // measure 55
0001
0000
0010
0100
1000
0000
0010
0100
0001
0000
0010
0100
1000
0000
0001
0100
,  // measure 56
0020
0000
0000
0000
0130
0001
2000
0000
0000
3200
0000
0000
0320
0000
0032
0000
,  // measure 57
1003
0000
0100
0000
0100
0000
0010
0001
0000
0100
0000
0100
0000
0010
1000
0001
,  // measure 58
0010
0000
0100
0000
0100
0000
1000
0010
0000
0001
0000
0010
0000
1000
0100
0010
,  // measure 59
0001
0000
0100
0000
0100
0000
0010
1000
0000
0100
0000
0100
0000
0010
0001
1000
,  // measure 60
0010
0000
0100
0000
1000
0000
0100
0001
0000
0010
0000
1000
0000
0010
0001
0010
,  // measure 61
0100
0000
1000
0001
1000
0000
0010
0000
0100
0000
0100
0000
0010
0100
0001
0100
,  // measure 62
0010
0000
1000
0001
1000
0000
0100
0000
0010
0000
0001
0010
0000
0100
1000
0001
,  // measure 63
0100
0000
0010
0000
0010
0000
1000
0100
0000
0010
0000
0010
0000
0100
1000
0001
,  // measure 64
0100
0000
0010
1000
0000
0001
0010
0000
0100
0010
0001
0100
0010
1000
0010
0100
,  // measure 65
0001
0000
0010
0000
0010
0000
1000
0010
0000
0010
0000
0001
0000
0100
0010
0100
,  // measure 66
1000
0000
0100
0000
0100
0000
0001
0010
0000
1000
0000
0010
0000
0001
0100
0010
,  // measure 67
1000
0000
0010
0000
0010
0000
0001
0010
0000
0010
0000
1000
0000
0100
0010
0100
,  // measure 68
0001
0000
0100
0000
1000
0001
1000
0001
0100
0000
0100
0010
0000
0010
1000
0001
,  // measure 69
0010
0000
0100
1000
0010
0000
0100
0000
1000
0000
0100
0000
0010
1000
0001
0100
,  // measure 70
0010
0000
0100
0001
0010
0000
0100
0000
0001
0000
0100
0010
0000
0100
1000
0001
,  // measure 71
1000
0010
1000
0010
0100
0001
1000
0100
0010
0000
0000
0011
0000
0000
0110
0000
,  // measure 72
2100
0000
0000
0000
3001
0100
0010
1000
,  // measure 73
0002
0010
1003
0002
0100
2003
3002
0000
,  // measure 74
1003
0000
0100
1000
0001
0000
0100
0001
2000
0000
3200
0000
0302
0000
0203
0000
,  // measure 75
2300
0010
3001
2000
0100
3002
2003
0000
,  // measure 76
3001
0000
0100
0010
1000
0000
0100
0010
0002
0000
0203
0000
2300
0000
3200
0000
,  // measure 77
0302
1000
0103
0002
1000
0023
0230
0000
,  // measure 78
0301
0000
0100
0010
0100
0000
1000
0001
2000
0000
3020
0000
0032
0000
0023
0000
,  // measure 79
2030
0001
3100
2000
0001
3020
0230
0000
,  // measure 80
1300
0000
0100
0001
1000
0000
0001
0000
1001
0000
0000
0000
1000
0100
0010
0001
,  // measure 81
2000
0000
0010
0000
3001
0000
0200
0000
0001
0000
0320
0000
2030
0000
3010
1000
,  // measure 82
0010
0000
1000
0100
0010
0000
0100
0010
0200
0000
0302
0000
0203
0000
0320
0000
,  // measure 83
0032
0000
0010
0000
1003
0000
0200
0000
1000
0000
0320
0000
0032
0000
0013
0001
,  // measure 84
0010
0000
0001
0100
0010
0000
0100
0010
0200
0000
2300
0000
3200
0000
0320
0000
,  // measure 85
2030
0000
0010
0000
3001
0000
2000
0000
0100
0000
3001
0000
0020
0000
0130
0010
,  // measure 86
0100
0000
1000
0001
1000
0000
0010
0100
0010
0000
0100
0010
1000
0000
0001
0010
,  // measure 87
0200
0000
0000
2300
0000
0010
3020
0000
,  // measure 88
0130
0000
0000
0000
0100
0010
1000
0100
0000
0010
0000
0010
0002
0000
1003
0000
,  // measure 89
1001
0001
0100
0001
1001
0001
0010
0001
,  // measure 90
1001
1000
0010
1000
1001
1000
0100
1000
,  // measure 91
1010
0100
0001
0010
1100
0001
1000
0010
,  // measure 92
0101
0000
0010
0000
1000
0000
0001
0000
1000
0100
1000
0100
0000
0010
0001
1000
,  // measure 93
0020
0000
0100
0000
0100
0000
0130
0000
0002
0000
1000
0000
1000
0000
1003
0100
,  // measure 94
0020
0000
0100
0000
0100
0000
0130
0000
2000
0000
0001
0000
0001
0000
3001
0100
,  // measure 95
0010
0000
0100
0001
0010
0000
0100
1000
0010
0000
0100
0001
0010
0000
0100
1000
,  // measure 96
0020
0000
0000
0000
0130
0010
1000
0100
0000
0010
0000
0010
0002
0000
0000
0000
,  // measure 97
0003
0000
0000
0000
;

//---------------dance-single - ----------------
#NOTES:
     dance-single:
     :
     Hard:
     13:
     0.555546,0.617262,0.212118,0.551506,0.144947,550.000000,520.000000,30.000000,78.000000,0.000000,0.000000,0.555546,0.617262,0.212118,0.551506,0.144947,550.000000,520.000000,30.000000,78.000000,0.000000,0.000000:
0000
0000
0000
0000
,
0000
0000
0000
0000
,
0000
0000
0000
0000
,
0000
0000
0000
0000
,
0000
0000
0000
0000
,
1000
0001
0100
0000
0120
0000
1030
0000
,
0001
1000
0100
0000
0120
0000
0031
0000
,
1000
0010
1000
0001
0010
0001
1000
0010
,
0100
0000
0000
0002
,
1003
0100
1000
0100
0002
0000
0103
1000
,
0001
0100
0001
0100
2000
0000
3100
0001
,
1000
0010
0100
0010
0002
0000
0013
1000
,
0001
0010
0100
0010
2000
0000
3010
0001
,
1000
0100
0010
0100
0002
0103
1000
0001
,
0100
0010
1000
0010
0002
0013
1000
0001
,
1000
0100
0001
0100
2000
3010
0001
0010
,
0220
0000
0000
0000
0330
0000
0000
0000
1000
0001
0000
1000
0000
0000
0100
0000
,
0100
0000
0110
0000
0001
0010
0011
0000
,
1000
0010
1010
0000
0001
0100
0010
1000
,
0001
1000
1100
0000
1000
0001
0101
0000
,
1000
0010
1010
0000
0022
0000
0033
0000
,
1000
0100
0001
0100
0110
0000
0011
0000
,
1000
0010
0001
0010
0110
0000
1010
0000
,
0001
0000
0010
0000
1000
0000
0001
0000
0100
0000
0000
1000
0000
0000
1000
0000
,
1001
0000
0000
2000
,
3002
0000
0000
0100
0200
0000
0000
0000
,
0303
0000
0000
0000
1000
0010
0100
0001
,
2000
0000
0000
0100
0200
0000
0000
0000
,
3300
0000
0000
0000
0001
0010
1000
0010
,
0002
0000
0000
0010
0020
0000
0000
0000
,
0033
0000
0000
0000
1000
0010
0001
0010
,
2000
0000
0000
0010
3020
0000
0000
0000
,
0230
0000
0000
0301
1000
0100
0010
0001
,
2000
0000
3001
0200
0000
1300
0200
0000
,
0001
0000
0010
0000
0301
0100
0010
1000
,
0002
0000
1003
0200
0000
0301
0200
0000
,
0001
0000
0010
0000
1300
0100
0010
0001
,
2000
0000
3010
0002
0000
0013
2000
0000
,
0010
0000
0100
0000
3001
0010
0100
1000
,
0002
0000
0013
2000
0000
3010
0002
0000
,
2000
0000
0000
3003
,
1002
0000
0000
0000
0003
0000
0001
0020
,
0000
0000
0000
0000
0030
0000
0010
0200
,
0000
0000
0000
0000
0300
0100
1000
0002
,
0000
0000
0000
0000
0003
0000
0001
0200
,
0000
0000
0000
0000
0300
0000
0100
0020
,
0000
0000
0000
0000
0030
0000
0010
2000
,
0000
0000
0000
0000
3000
0000
1000
0200
,
0000
0000
0320
0000
,
0031
0000
0010
0000
0001
0000
0010
0001
,
0100
0000
0000
0000
0001
0000
0000
0000
0100
0000
0000
0000
0010
0000
1000
0010
,
1000
0000
0010
0000
1000
0000
0010
1000
,
0100
0000
0000
0000
1000
0000
0000
0000
0100
0000
0000
0000
0010
0000
0001
0010
,
0001
0000
1000
0001
0101
0000
1000
0001
,
0011
0000
0001
1000
1010
0000
0001
1000
,
0100
0001
0100
1000
0010
0001
0010
1000
,
0200
0000
0000
0000
0310
0000
0002
0000
0000
0203
0000
0000
0320
0000
0000
0000
,
1030
0000
0001
0000
0100
0000
0001
1000
0000
0100
0000
1000
0000
0000
0001
0000
,
0100
0000
0001
0000
1000
0000
0001
0010
0000
0100
0000
1000
0000
0000
0010
0000
,
1000
0000
0001
0000
0010
0000
0001
1000
0000
0010
0000
1000
0000
0000
0001
0000
,
0010
0000
0001
0000
0100
0000
0010
1000
0000
0100
0000
1000
0000
0000
0001
1000
,
0001
0000
0000
0100
0000
0000
1000
0000
0100
0000
0001
0000
0000
0000
1000
0001
,
1000
0000
0000
0100
0000
0000
0001
0000
0100
0000
0000
1000
0000
0000
0001
1000
,
0001
0000
0100
0000
0010
0000
1000
0100
0000
0010
0000
0001
0000
0000
1000
0001
,
1000
0000
0000
0010
0000
0000
0100
0000
0001
0000
0010
0000
1000
0000
0010
0000
,
0001
0000
0100
0000
1000
0000
0100
0001
0000
0100
0000
1000
0000
0000
1000
0000
,
0100
0000
0001
0000
0010
0000
1000
0010
0000
0001
0000
0100
0000
0000
0010
0000
,
1000
0000
0100
0000
0001
0000
0100
0010
0000
0001
0000
0100
0000
0000
1000
0000
,
0100
0000
0010
0000
1000
0000
0001
0000
0010
0000
0100
0010
0000
0010
0100
0000
,
1000
0010
1000
0010
0001
0010
0001
0010
,
1000
0100
1000
0100
0001
0100
0001
0100
,
1000
0000
0100
0000
0001
0000
1000
0000
0010
0000
0000
0001
0000
0000
0001
0000
,
1001
0000
0000
0000
0001
0100
0010
1000
,
0002
0000
0010
0023
0000
0100
0230
0000
,
0301
0100
0010
0001
0010
0001
0100
0010
,
2000
0000
0010
3020
0000
0100
0230
0000
,
1300
0100
0010
1000
0010
0100
0001
1000
,
0002
0000
0010
0023
0000
1000
2030
0000
,
3010
0100
0010
0100
1000
0001
0100
0010
,
2000
0000
0010
3020
0000
0001
0032
0000
,
0013
1000
0001
0010
0110
0000
0100
1000
,
0002
0000
0100
0203
0000
1000
2300
0000
,
3100
0001
1000
0010
1000
0010
0001
0010
,
2000
0000
0100
3200
0000
0001
0302
0000
,
0103
1000
0001
0010
0001
0010
1000
0010
,
0002
0000
0103
2000
0000
3001
0020
0000
,
1030
0100
0001
1000
0010
0001
0100
0010
,
0200
0000
0000
0302
0000
1000
2000
0000
,
0000
0000
0000
3003
,
0010
1000
1100
0000
0010
0001
0101
0000
,
0010
1000
1100
0000
0001
0010
1000
0010
,
0001
0100
1010
0000
1000
0100
0011
0000
,
0001
0100
1010
0000
2002
0000
3003
0000
,
0001
0001
0100
0001
0010
0010
0100
1000
,
0010
0010
0100
0010
1000
1000
0100
0010
,
0001
0100
1000
0100
0001
0010
1000
0010
,
0110
0000
0000
2002
,
3003
0000
0000
0000
;

//---------------dance-single - ----------------
#NOTES:
     dance-single:
     :
     Medium:
     9:
     0.401003,0.514385,0.176765,0.579788,0.000000,397.000000,372.000000,25.000000,82.000000,0.000000,0.000000,0.401003,0.514385,0.176765,0.579788,0.000000,397.000000,372.000000,25.000000,82.000000,0.000000,0.000000:
0000
0000
0000
0000
,
0000
0000
0000
0000
,
0000
0000
0000
0000
,
0000
0000
0000
0000
,
0000
0000
0000
0000
,
1000
0010
1000
0000
0020
0000
1030
0000
,
0001
0010
0001
0000
0020
0000
0031
0000
,
1000
0010
1000
0000
0001
0010
0001
0000
,
0110
0000
0000
2000
,
3001
0100
0001
0000
0102
0000
0013
0000
,
0001
0010
0001
0000
0021
0000
0130
0000
,
1000
0100
1000
0000
2100
0000
3010
0000
,
1000
0010
1000
0000
1020
0000
0130
0000
,
0001
1000
0100
0000
0021
0000
0130
0000
,
1000
0001
0100
0000
1020
0000
0130
0000
,
0001
1000
0100
0000
1000
0001
0100
0000
,
0120
0000
0130
0000
,
0010
0000
1001
0000
1000
0100
1000
0000
,
0001
0100
0001
0000
1000
0100
1000
0000
,
0001
0010
0001
0000
1000
0010
1000
0000
,
0001
0010
0001
0000
2002
0000
3003
0000
,
0001
0100
0010
0000
2000
0000
3010
0000
,
1000
0100
0010
0000
0002
0000
0013
0000
,
0100
0010
0100
1000
0001
0000
0100
0000
,
0110
0000
0000
2000
,
3002
0000
0200
0000
,
0303
0000
1000
0010
,
2000
0000
0200
0000
,
3300
0000
0001
0010
,
0002
0000
0020
0000
,
0033
0000
1000
0001
,
2000
0000
3020
0000
,
0230
0000
0000
0001
0301
0000
1000
0000
,
0200
0000
0000
0320
0000
0000
0032
0000
,
0010
0013
0100
1000
,
0002
0000
0000
0203
0000
0000
0320
0000
,
1000
1030
0001
1000
,
0200
0000
0000
0302
0000
0000
0203
0000
,
1000
1300
0001
0100
,
2000
0000
0000
3200
0000
0000
0302
0000
,
2000
0000
0000
3003
,
1002
0000
0000
0000
0003
0000
0000
0020
,
0000
0000
0000
0000
0030
0000
0000
0200
,
0000
0000
0000
0000
0300
0000
0000
2000
,
0000
0000
0000
0000
3000
0000
0000
0020
,
0000
0000
0000
0000
0030
0000
0000
0200
,
0000
0000
0000
0000
0300
0000
0000
0002
,
0000
0000
0000
0000
0003
0000
0000
2000
,
0000
0000
3001
0000
,
1000
0000
1000
0000
1000
0000
0100
1000
,
0001
0000
0001
0000
0001
0000
0100
0001
,
0010
0000
0010
0000
0010
0000
0100
1000
,
0010
0000
0010
0000
0010
0000
0100
0001
,
1000
0000
0100
1000
0001
0000
0100
0010
,
1000
0000
0100
0010
0001
0000
0100
0010
,
0100
1010
1001
0011
,
0220
0000
0000
0330
,
0010
0001
0010
0000
0100
0010
0100
0000
,
0010
0001
0010
0000
0001
1000
0001
0000
,
1000
0010
1000
0000
0010
0100
0010
0000
,
1000
0010
1000
0000
0001
1000
0001
0000
,
2000
0000
0100
0000
3001
1000
0001
0000
,
0002
0000
0100
0000
1003
0001
1000
0000
,
1000
0010
1000
0000
0001
0010
0001
0000
,
0100
0000
0100
0000
0010
1000
0001
0000
,
1000
0100
0010
0000
0100
1000
0001
0000
,
1000
0001
0100
0000
0010
0100
0001
0000
,
1000
0001
0010
0000
0100
0010
0001
0000
,
1000
0010
0100
0000
0010
1000
0001
0000
,
0011
0000
1010
0000
0100
0001
0100
0000
,
1010
0000
0011
0000
0100
1000
0100
0000
,
0010
0100
0010
0001
1000
0000
0010
0000
,
0210
0000
0000
0000
0301
0000
1000
0001
,
0020
0000
0000
0230
0000
0000
2300
0000
,
0001
0000
3001
0000
1000
0000
0001
1000
,
0020
0000
0000
0230
0000
0000
0302
0000
,
1000
0000
1003
0000
0001
0000
1000
0100
,
0002
0000
0000
0203
0000
0000
0320
0000
,
0001
0000
0031
0000
1000
0000
0001
0100
,
2000
0000
0000
3200
0000
0000
0320
0000
,
1000
1030
1001
0000
,
0002
0000
0000
0023
0000
0000
2030
0000
,
3010
0000
0001
0000
1000
0010
0100
0010
,
2000
0000
0000
3020
0000
0000
0032
0000
,
0013
0000
1000
0000
0001
0010
0100
0010
,
0002
0000
0000
0203
0000
0000
0320
0000
,
1030
0000
0100
0000
0010
0001
1000
0010
,
0200
0000
0000
0302
0000
1000
2000
0000
,
0000
0000
0000
3003
,
0001
0010
0001
0000
0010
0100
0010
0000
,
0100
1000
0100
0000
1000
0010
1000
0000
,
0010
0100
0010
0000
0100
0001
0100
0000
,
0001
1000
0001
0000
2002
0000
3003
0000
,
2000
3100
0200
0301
,
0002
0013
0020
1030
,
0100
0010
0001
0000
1000
0010
0100
0000
,
0110
0000
0000
2002
,
3003
0000
0000
0000
;

//---------------dance-single - ----------------
#NOTES:
     dance-single:
     :
     Easy:
     6:
     0.294944,0.342923,0.091918,0.381812,0.000000,292.000000,279.000000,13.000000,54.000000,0.000000,0.000000,0.294944,0.342923,0.091918,0.381812,0.000000,292.000000,279.000000,13.000000,54.000000,0.000000,0.000000:
0000
0000
0000
0000
,
0000
0000
0000
0000
,
0000
0000
0000
0000
,
0000
0000
0000
0000
,
0000
0000
0000
0000
,
1000
0100
0020
0030
,
0001
0100
0020
0030
,
1000
0100
0010
0001
,
1001
0000
0000
0000
,
0001
0001
0200
0301
,
1000
1000
0200
1300
,
0001
0001
0020
0031
,
1000
1000
0020
0130
,
0001
1000
0200
0310
,
0100
1000
0002
0103
,
0010
1000
0200
0310
,
0220
0000
0330
0000
,
0002
1003
0010
0100
,
0001
0010
0100
1000
,
0001
0100
0010
1000
,
0001
1000
2002
3003
,
1000
0100
1100
0000
,
0001
0010
0011
0000
,
0001
0100
0010
1000
,
1001
0000
0000
0000
,
2000
0000
0200
0000
,
3300
0000
0001
0100
,
0002
0000
0200
0000
,
0303
0000
1000
0010
,
2000
0000
0020
0000
,
3030
0000
0001
0010
,
0002
0000
0023
0000
,
0230
0000
1300
0001
,
0200
0000
0320
0000
,
1000
1030
0010
0100
,
0002
0000
0023
0000
,
0100
0130
1000
0001
,
0200
0000
0320
0000
,
1030
0001
0010
0100
,
2000
0000
3002
0000
,
0203
0000
0000
0310
,
2000
0000
0000
0000
3000
0000
0000
0200
,
0000
0000
0000
0000
0300
0000
0000
0020
,
0000
0000
0000
0000
0030
0000
0000
0002
,
0000
0000
0000
0000
0003
0000
0000
0020
,
0000
0000
0000
0000
0030
0000
0000
0200
,
0000
0000
0000
0000
0300
0000
0000
2000
,
0000
0000
0000
0000
3000
0000
0000
0002
,
0000
0000
0103
0000
,
0010
0100
0010
0000
,
1000
0001
1000
0000
,
0100
0010
0001
0000
,
0100
0010
1000
0000
,
0001
0010
0001
0010
,
0100
1000
0100
1000
,
0001
0010
0100
1000
,
1001
0000
0000
0000
,
1000
0010
1000
1000
,
0010
0100
0001
0001
,
1000
0100
1000
1000
,
0100
0010
0001
0001
,
0100
0100
0010
0010
,
0100
0100
0010
0010
,
1000
0001
1000
1000
,
0100
0010
0110
0000
,
0001
0001
0010
0001
,
0100
0100
0010
1000
,
0100
0100
1000
0010
,
0100
0100
0001
1000
,
0100
0100
0010
0010
,
0001
0001
1000
1000
,
0010
0100
0001
1000
,
2002
0000
3003
0000
,
1000
0100
0010
0002
,
0010
0000
1000
1003
,
0001
0100
0010
2000
,
0010
0000
0001
3001
,
1000
0100
1000
0020
,
1000
0000
0100
0130
,
0001
0100
0001
0020
,
0001
0031
0110
0000
,
1000
0010
0100
0002
,
0010
0010
0100
0103
,
0001
0010
0100
2000
,
0010
0010
0100
3100
,
0010
0001
1000
0020
,
0100
0130
0010
0100
,
2002
0000
0000
0000
,
3003
0000
0000
0000
,
0001
0010
0001
1000
,
0010
1000
0100
1000
,
0001
0100
0001
1000
,
0100
0010
0220
0330
,
0001
0000
1000
0000
,
0001
0001
1000
1000
,
0001
0100
0010
1000
,
1001
0000
0000
0020
,
0030
0000
0000
0000
;

//---------------dance-single - ----------------
#NOTES:
     dance-single:
     :
     Beginner:
     3:
     0.195956,0.240046,0.042424,0.275753,0.000000,194.000000,188.000000,6.000000,39.000000,0.000000,0.000000,0.195956,0.240046,0.042424,0.275753,0.000000,194.000000,188.000000,6.000000,39.000000,0.000000,0.000000:
0000
0000
0000
0000
,
0000
0000
0000
0000
,
0000
0000
0000
0000
,
0000
0000
0000
0000
,
0000
0000
0000
0000
,
1000
0000
1000
0000
,
0001
0000
0001
0000
,
1000
0000
0001
0000
,
1001
0000
0000
0000
,
0001
0000
0002
0003
,
0100
0000
0200
0300
,
0010
0000
0020
0030
,
1000
0000
2000
3000
,
0001
0000
0020
0030
,
0100
0000
2000
3000
,
0001
0000
0200
0300
,
0110
0000
0000
0000
,
1000
1000
2000
3000
,
0100
0100
0200
0300
,
0010
0010
0020
0030
,
0001
0001
0001
0000
,
1000
1000
2000
3000
,
0001
0001
0002
0003
,
1000
0000
0001
0000
,
1001
0000
0000
0000
,
1000
0000
2000
0000
,
3000
0000
0010
0000
,
0001
0000
0002
0000
,
0003
0000
0010
0000
,
1000
0000
2000
0000
,
3000
0000
0100
0000
,
0001
0000
0002
0000
,
0003
0000
0100
0000
,
1000
0000
1000
1000
,
1000
0000
1000
0000
,
0001
0000
0001
0001
,
0001
0000
0001
0000
,
0100
0000
0010
0010
,
0010
0000
0100
0000
,
0010
0000
0100
0100
,
0200
0000
0300
0000
,
0020
0000
0030
0000
,
2000
0000
3000
0000
,
0200
0000
0300
0000
,
0020
0000
0030
0000
,
0002
0000
0003
0000
,
2000
0000
3000
0000
,
0020
0000
0030
0000
,
0200
0000
0300
0000
,
0001
0000
0001
0000
,
0001
0000
0001
0000
,
1000
0000
1000
0000
,
1000
0000
1000
0000
,
0001
0001
0001
0000
,
1000
1000
1000
0000
,
0001
0000
1000
0000
,
1001
0000
0000
0000
,
1000
1000
1000
0000
,
0100
0100
0100
0000
,
0010
0010
0010
0000
,
0001
0001
0001
0000
,
0010
0000
0010
0000
,
0100
0000
0100
0000
,
0010
0000
0001
0000
,
1000
1000
1000
0000
,
0001
0001
0001
0000
,
0100
0100
0100
0000
,
0010
0010
0010
0000
,
1000
1000
1000
0000
,
0100
0000
0100
0000
,
0010
0000
0010
0000
,
0001
0000
1000
0000
,
1001
0000
1000
1000
,
1000
0000
0020
0000
,
0030
0000
0100
0100
,
0100
0000
0002
0000
,
0003
0000
0010
0010
,
0010
0000
0002
0000
,
0003
0000
1000
1000
,
1000
0000
0200
0000
,
0300
0000
1000
1000
,
1000
0000
0020
0000
,
0030
0000
0001
0001
,
0001
0000
0200
0000
,
0300
0000
0001
0001
,
0001
0000
0020
0000
,
0030
0000
1000
1000
,
2000
0000
0000
0000
,
3000
0000
0000
0000
,
0001
0000
0020
0030
,
0001
0000
2000
3000
,
0010
0000
2000
3000
,
0001
0000
0010
0000
,
0100
0100
0200
0300
,
0010
0010
0020
0030
,
0001
0000
1000
0000
,
1001
0000
0000
0020
,
0030
0000
0000
0000
;
