#TITLE:LAST DAY;
#SUBTITLE:;
#ARTIST:AJURIKA;
#TITLETRANSLIT:;
#SUBTITLETRANSLIT:;
#ARTISTTRANSLIT:;
#GENRE:Psychedelic Trance;
#CREDIT:;
#BANNER:LAST DAY.png;
#BACKGROUND:LAST DAY-bg.png;
#LYRICSPATH:;
#CDTITLE:cdtitle.png;
#MUSIC:LAST DAY.ogg;
#OFFSET:-0.192000;
#SAMPLESTART:79.681999;
#SAMPLELENGTH:12.229000;
#SELECTABLE:YES;
#BPMS:0.000000=157.000000
;
#STOPS:
;
#BGCHANGES:;
#KEYSOUNDS:;
#ATTACKS:;

//---------------dance-single - ----------------
#NOTES:
     dance-single:
     :
     Medium:
     10:
     0.468042,0.510766,0.117610,0.369633,0.134412,390.000000,376.000000,14.000000,44.000000,20.000000,0.000000,0.468042,0.510766,0.117610,0.369633,0.134412,390.000000,376.000000,14.000000,44.000000,20.000000,0.000000:
0000
0000
0000
0000
,
0000
0000
0000
0000
,
0000
0000
0000
0000
,
0000
0000
0000
0000
,
0101
0000
0011
0000
,
1010
0000
1100
0000
,
1001
0000
1001
0000
0001
0010
0001
0100
,
0100
0000
0000
0000
,
0001
0100
0000
0001
0100
0000
0001
1000
,
0000
0001
1000
0000
0001
0010
0000
0001
,
0010
0000
0100
1000
0000
0001
0010
0000
,
0100
1000
0000
0001
0100
0000
0010
0010
,
1000
0100
0000
0010
0001
0000
0100
0010
,
0000
1000
0001
0000
0010
0100
0000
1000
,
0010
0000
0010
0000
0000
0010
0000
0000
0010
0000
0000
0010
0000
0000
1000
0000
,
0000
0001
0000
0000
1000
0000
0001
0000
2002
0000
0000
0000
3003
0000
0000
0000
,
1000
0100
001M
0000
1000
0100
001M
0000
,
1000
0100
0001
0100
2000
0000
3010
0000
,
1000
0010
010M
0000
1000
0010
010M
0000
,
1000
0010
0010
0000
0010
0100
0001
1000
,
0001
0010
M100
0000
0001
0010
M100
0000
,
0001
0100
1000
0100
0002
0000
0013
0000
,
0001
0100
M010
0000
0001
0100
M010
0000
,
0001
1000
0100
0010
0220
0000
0330
0000
,
1000
0100
00M1
0000
1000
0100
00M1
0000
,
1000
0100
0010
0001
0200
0000
0310
0000
,
1000
0010
0M01
0000
1000
0010
0M01
0000
,
1000
0001
0001
0000
0001
0010
0100
1000
,
0001
0100
10M0
0000
0001
0100
10M0
0000
,
0001
0100
0010
1000
0200
0000
0310
0000
,
0100
0000
0100
0000
0000
0100
0000
0000
0100
0000
0000
1000
0000
0000
0001
0000
,
0100
0000
0100
0010
2000
0000
0000
0000
,
3001
0000
0000
0001
0000
0000
0001
0010
0000
0001
0000
0000
,
1000
0000
0000
1000
0000
0000
1000
0100
0000
1000
0000
0000
,
0001
0000
0000
0001
0000
0000
0001
0100
0000
0001
0000
0000
,
1000
0000
0000
1000
0000
0000
1000
0010
0000
0110
0000
0100
,
0001
0000
0000
0001
0000
0000
0010
0001
0000
0100
0000
0010
,
1000
0000
0000
1000
0000
0000
0010
1000
0000
0100
0000
0010
,
0001
0000
0000
1000
0000
0000
0001
1000
0000
0001
0000
0000
,
0200
0300
0100
0010
,
2002
0000
0000
3003
0000
0000
1000
0000
1000
0100
0000
0000
,
0010
0000
0000
0001
0000
0000
0100
0000
0010
1000
0000
0000
,
0100
0000
0000
0001
0000
0000
0100
0000
0100
1000
0000
0000
,
0010
0000
0000
0001
0000
0000
0010
0000
1000
0010
0000
0000
,
2000
0000
0000
3200
0000
0000
0320
0000
0031
1000
0000
1000
,
0002
0000
0000
0203
0000
0000
0320
0000
1030
0001
0000
1000
,
0200
0000
0300
0200
,
2300
3020
0230
0302
,
0023
0000
0000
0000
,
0030
0000
0000
0000
0000
0000
0000
0001
,
1000
0000
0000
0000
0000
0000
0000
0010
,
0100
0000
0000
0100
0000
0000
0001
0000
0000
0010
0000
0000
0100
0000
0000
0000
,
1000
0000
0100
0000
1000
0000
0000
0M10
0000
0000
0001
0000
0100
0000
0001
0000
,
0200
0000
0310
0000
1000
0001
1000
0000
,
0001
0000
0100
0000
0001
0000
0000
0M10
0000
0000
1000
0000
0100
0000
1000
0000
,
0200
0000
0310
0001
0100
0000
0010
0000
,
2000
0000
3001
0100
0010
1000
0100
0000
,
1000
0100
0001
0000
0001
0100
1000
0000
,
0002
0000
1003
0010
0100
0001
0010
0100
,
1000
0000
0010
0100
0010
0100
0010
0000
,
1000
0000
0010
0000
1000
0000
0000
01M0
0000
0000
0001
0000
0010
0000
0001
0000
,
0020
0000
0130
0000
1000
0001
1000
0000
,
0001
0000
0010
0000
0001
0000
0000
01M0
0000
0000
1000
0000
0010
0000
1000
0000
,
0020
0000
0130
0001
0010
0100
0010
0000
,
0200
2300
3020
0032
,
0023
2030
3200
0302
,
0203
0000
1300
0001
1000
0001
0100
0010
,
0200
0000
0000
0000
0300
0000
0010
0010
,
1000
0000
0100
0000
0010
0000
0000
010M
0000
0000
0001
0000
0010
0000
0001
0000
,
0020
0000
0130
0000
1000
0010
0100
0000
,
0001
0000
0100
0000
0010
0000
0000
M100
0000
0000
1000
0000
0010
0000
1000
0000
,
0020
0000
0000
0000
0130
0000
0000
1001
0000
0000
0001
0000
0001
0000
0000
0000
,
1000
0100
0001
0100
1000
0000
0011
0000
,
1000
0010
0001
0010
1000
0000
0101
0000
,
0001
0010
1000
0010
0001
0000
1100
0000
,
0002
0000
0000
0000
0103
1000
0100
0001
,
0010
0000
0000
0000
;

//---------------dance-single - ----------------
#NOTES:
     dance-single:
     :
     Easy:
     6:
     0.321629,0.383074,0.117610,0.336030,0.000000,268.000000,254.000000,14.000000,40.000000,0.000000,0.000000,0.321629,0.383074,0.117610,0.336030,0.000000,268.000000,254.000000,14.000000,40.000000,0.000000,0.000000:
0000
0000
0000
0000
,
0000
0000
0000
0000
,
0000
0000
0000
0000
,
0000
0000
0000
0000
,
1000
0000
1001
0000
,
0001
0000
1001
0000
,
1000
1001
0001
1001
,
0010
0000
0000
0000
,
1000
0010
1000
0001
,
0010
0001
0100
0001
,
1000
0100
1000
0001
,
0100
0010
1000
0001
,
1000
0100
1000
0010
,
0100
0001
0010
0001
,
0100
0000
0110
0000
,
1000
0001
2002
3003
,
1000
0010
1000
0010
,
1000
0100
0002
0013
,
0001
1000
0001
1000
,
0010
0100
0020
2030
,
3001
0010
0001
0010
,
0001
0100
2000
3010
,
1000
0001
1000
0001
,
0010
0100
0220
0330
,
0001
0010
0001
0100
,
0001
0010
2000
3010
,
1000
0100
0010
0001
,
1000
0010
0200
0302
,
1003
0010
1000
0100
,
1000
0010
0002
0013
,
0001
0001
1000
1000
,
0010
0000
0200
0300
,
0001
0001
0001
0010
,
0100
0100
0100
1000
,
0010
0010
0010
0100
,
0001
0001
0001
0110
,
1000
1000
1000
0100
,
0010
0010
0010
0001
,
0100
0100
0100
0010
,
2000
3200
0320
0032
,
0203
0000
0301
0100
,
1000
0010
1000
0100
,
0001
0010
1000
0100
,
1000
0010
0001
0100
,
0010
0010
1000
1000
,
0100
0100
0010
0001
,
0000
0000
0000
0001
,
0100
1000
0100
0001
,
0020
0000
0000
0000
,
0030
0000
0000
0000
,
0001
0000
0000
0000
,
2002
0000
0000
3003
,
1000
0010
0100
0002
,
0010
1000
0010
0013
,
0001
0010
0100
2000
,
0010
0001
0010
3010
,
1000
0100
0010
0001
,
0100
0100
0010
1000
,
0001
0010
0100
1000
,
0010
0100
0101
1010
,
1000
0100
0001
0200
,
1000
0010
1000
1300
,
0001
0100
1000
0200
,
0001
0010
0001
0301
,
2000
3200
0320
0032
,
0023
0230
2300
3200
,
0320
0032
0203
0320
,
1030
0000
0000
0000
,
1000
0010
0001
0020
,
1000
0001
1000
1030
,
1000
0100
0001
0200
,
1000
0001
2000
3300
,
0001
0010
1100
0001
,
1000
0010
0101
1000
,
0100
0010
1001
0010
,
0100
0000
0001
1000
,
0100
0000
0000
0000
;

//---------------dance-single - ----------------
#NOTES:
     dance-single:
     :
     Challenge:
     16:
     0.876078,0.989608,0.235221,0.579652,1.310517,730.000000,702.000000,28.000000,69.000000,10.000000,0.000000,0.876078,0.989608,0.235221,0.579652,1.310517,730.000000,702.000000,28.000000,69.000000,10.000000,0.000000:
0000
0000
0000
0000
,
0000
0000
0000
0000
,
0000
0000
0000
0000
,
0000
0000
0000
0000
,
0201
0000
0000
0001
0000
0000
0310
0000
0100
0002
0000
0000
0013
0000
0000
0000
,
1200
0000
0000
1000
0000
0000
0310
0000
0100
2000
0000
0000
3010
0000
0000
0000
,
1000
0000
0010
0000
0100
0000
0001
0000
1000
0010
1000
0100
0010
0100
0010
0001
,
1000
0000
0000
0000
0010
0000
0000
0010
0100
0000
0000
0100
0010
1000
0010
1000
,
0001
1000
0100
0000
0010
0000
0000
0010
0001
0000
1000
0000
0000
1000
0001
0000
,
0100
0000
0000
0100
0001
0000
0010
0000
0000
0001
1000
0000
0010
0000
0000
0010
,
1000
0000
0001
0000
0000
0001
1000
0000
0100
0000
0000
0100
1000
0000
0010
0000
,
0000
0100
0001
0000
1000
0000
0000
0100
1000
0000
0001
0000
0000
1000
0010
0100
,
0001
1000
0100
0000
0010
0000
0100
1000
0001
0000
0100
0000
0010
1000
0001
0000
,
0010
0000
0001
1000
0010
0000
0100
0000
0001
0010
0100
0000
1000
0010
0100
0001
,
1000
0000
1001
0000
0000
1100
0000
0000
0101
0000
0000
0011
0000
0000
1010
0000
,
0000
1001
0000
0000
1000
0100
0010
0001
0200
0000
0000
2300
0000
0000
3200
0000
,
0301
0000
0010
0000
0001
0100
0000
0100
001M
0000
0000
0001
0100
0000
0010
0100
,
0001
0000
0010
0000
0100
0010
0100
0000
0002
0000
0000
0000
0103
0000
0010
0001
,
1000
0000
0010
0000
1000
0001
0010
0000
0100
1000
0000
1000
0001
0000
0100
0010
,
0100
0000
0010
0000
1000
0001
0000
0001
1000
0100
1000
0001
0100
0001
0010
0100
,
1000
0000
0010
0000
1000
0100
0000
0100
M010
0000
0000
1000
0100
0000
0010
0100
,
1000
0000
0010
0000
0100
0010
0100
0000
2000
0000
0000
0000
3100
0000
0010
1000
,
0001
0000
1000
0000
0100
0010
0001
0000
0100
0010
0000
0010
1000
0000
0001
0010
,
0000
0010
0100
1000
0001
0100
0010
1000
0200
0000
0000
0302
0000
0000
0203
0000
,
1300
0000
0010
0000
0001
0010
0000
0010
100M
0000
0000
0001
0010
0000
1000
0001
,
0010
0000
0100
0000
0010
0100
0010
0000
2000
0000
0000
0000
3010
0000
0100
1000
,
0010
0000
0100
0000
0010
1000
0100
0000
0010
0001
0000
0001
1000
0000
0001
0100
,
0010
0000
0100
0000
0001
1000
0000
1000
0001
0010
0001
1000
0010
1000
0100
0010
,
0001
0000
0010
0000
1000
0010
0000
0010
M001
0000
0000
1000
0010
0000
0001
1000
,
0010
0000
0100
0000
0010
0100
0010
0000
0002
0000
0000
0000
0013
0000
0100
0001
,
0010
0000
0010
0000
0000
1100
0000
0000
1001
0000
0000
0101
0000
0100
0010
0100
,
0010
0000
1000
0010
0100
0001
0010
0100
2000
0000
0000
3020
0000
0000
0230
0000
,
0301
0000
0001
0000
0001
0000
0001
M010
0000
1010
0000
0010
,
1000
0000
1000
0000
1000
0000
1000
010M
0000
0101
0000
0100
,
0001
0000
0001
0000
0001
0000
0001
M100
0000
1100
0000
0100
,
1000
0000
1000
0000
1000
0000
1000
001M
0000
0010
0001
1000
,
0001
0000
1000
0001
0100
0000
0100
0010
0001
M010
0000
0001
,
0100
0000
0001
1000
0100
0000
0100
0010
1000
001M
0000
1000
,
0100
0000
0010
0001
0100
0000
0010
1000
0001
1000
0000
0000
,
2002
0000
0000
3003
0000
0000
1000
0100
0010
0001
1000
0010
,
0220
0000
0000
0330
0000
0000
1000
0010
0100
0001
1000
0100
,
0010
0001
0010
0100
1000
0001
0100
0001
1000
0100
0010
0100
,
1000
0001
0100
1000
0100
0010
1000
0001
0010
0100
0001
0100
,
1000
0010
1000
0010
0001
0010
0001
0010
1000
0100
0010
0010
,
0001
0000
1000
0010
0100
0010
0001
1000
0100
0010
0100
0001
,
0010
0100
0010
1000
0001
0100
0010
0100
1000
0010
0100
0001
,
0000
0011
0000
1001
0000
1010
0000
1001
0000
0001
0100
1000
,
0001
0010
1000
0100
0001
1000
0010
0001
1000
0010
0010
0010
,
0200
0000
0000
0000
,
0300
0000
0000
0000
0000
0000
0000
0001
,
1000
0000
0000
0000
0000
0000
0000
0100
,
0110
0000
0000
0110
0000
0000
0011
0000
0000
1001
0000
0000
0101
0000
0100
0001
,
1000
0100
0010
0001
1000
0100
0010
1000
0000
1000
0020
0000
0032
0000
0203
0000
,
2300
0000
3100
0001
1000
0000
0001
0010
0000
0001
0010
0100
1000
0000
0100
1000
,
0001
0100
0010
1000
0001
0100
0010
0001
0000
0001
0020
0000
2030
0000
3200
0000
,
0302
0000
0103
2000
0000
3020
0000
0032
0000
0013
0100
0010
1000
0000
0001
0010
,
0200
0000
0000
1300
0100
0000
0010
0001
0100
0001
0010
0001
0100
0000
0010
1000
,
0010
0000
0100
0010
0100
0000
0001
1000
0000
1000
0100
0010
0001
0000
1000
0001
,
0200
0000
0000
0301
0100
0000
0010
1000
0100
1000
0010
1000
0100
1000
0010
1000
,
0100
0000
0010
0001
0010
0000
0001
1000
0010
0100
0010
0100
0001
1000
0001
1000
,
0001
0010
0100
1000
0001
0010
0100
0001
0000
0001
0200
0000
2300
0000
3020
0000
,
0032
0000
0013
0100
0001
0000
0010
0100
0000
1000
0010
0100
0001
0000
0010
0100
,
1000
0010
0100
0001
1000
0010
0100
1000
0000
1000
0200
0000
0302
0000
0023
0000
,
2030
0000
3010
0200
0000
2300
0000
3002
0000
1003
0010
0000
0110
0000
0000
0000
,
0002
0000
0000
0000
0203
0000
0000
0000
0320
0000
0000
0000
1030
0010
0100
0001
,
2000
0000
0000
0000
3200
0000
0000
0000
0320
0000
0000
0000
0031
0000
0100
0010
,
1000
0000
0100
0010
0001
0100
0001
0100
0010
1000
0100
0010
0001
1000
0010
0100
,
0002
0000
2003
0010
0000
3002
0010
0000
2003
0100
0000
3001
0100
0001
0100
0001
,
1000
0100
0010
0100
1000
0010
0100
1000
0000
1000
0200
0000
0302
0000
0023
0000
,
2030
0000
3010
0100
1000
0000
0001
0100
0000
0010
0100
0010
1000
0000
0100
0010
,
0001
0100
0010
0100
0001
0010
0100
0001
0000
0001
0200
0000
2300
0000
3020
0000
,
0032
0000
1003
0200
0000
0301
0000
1001
0000
0001
0010
0000
0100
0010
0100
0000
,
1000
0010
1000
0010
0100
0010
0100
0010
0002
0000
0013
0100
0000
0100
0010
1000
,
0001
0010
0001
0010
0100
0010
0100
0010
2000
0000
3010
0100
0000
0100
1000
0001
,
0100
0010
0100
1000
0100
0010
0100
0001
2000
0000
3001
0010
0100
1000
0001
0100
,
0020
0000
0000
0000
0000
0000
0030
0000
1001
0000
0100
0010
0100
0000
0000
0000
,
0010
0000
0000
0000
;

//---------------dance-single - ----------------
#NOTES:
     dance-single:
     :
     Hard:
     12:
     0.604854,0.638457,0.218419,0.504045,0.373833,504.000000,478.000000,26.000000,60.000000,6.000000,0.000000,0.604854,0.638457,0.218419,0.504045,0.373833,504.000000,478.000000,26.000000,60.000000,6.000000,0.000000:
0000
0000
0000
0000
,
0000
0000
0000
0000
,
0000
0000
0000
0000
,
0000
0000
0000
0000
,
0201
0000
0310
0100
0102
0000
0013
0000
,
1200
0000
0310
0100
2100
0000
3010
0000
,
0100
0001
0010
0001
1000
0010
1000
0100
,
0200
0000
0000
0300
,
1000
0001
0100
0000
0010
0100
0000
1000
,
0100
0000
0010
1000
0000
0001
0010
0000
,
0100
0010
0000
1000
0010
0000
0100
1000
,
0000
0001
0100
0000
0010
1000
0000
1001
,
0001
0010
1000
0010
0100
1000
0010
0001
,
0010
0000
0100
0000
0001
0000
1000
0000
0100
0000
0001
0000
0100
0000
1000
0001
,
1000
0000
0010
0000
0000
0101
0000
0000
0010
0000
0000
1100
0000
0000
0010
0000
,
0000
1001
0000
0000
1000
0000
0010
0000
0210
0000
0000
0302
0000
0000
0023
0000
,
0130
0000
1000
0000
0010
0000
1000
0000
01M0
0000
0000
0010
1000
0000
0100
0000
,
1000
0010
1000
0100
0002
0000
0103
1000
,
0001
0000
0100
0000
1000
0000
0100
0000
0001
1000
0000
0001
0010
0000
0100
0000
,
0010
0000
0001
0000
1000
0010
0000
0010
2000
0000
3200
0000
1300
0000
0001
0000
,
0100
0000
0001
0000
0010
0000
0001
0000
01M0
0000
0000
0010
0001
0000
0100
0000
,
0001
0010
0001
0100
2000
0000
3100
0001
,
1000
0000
0100
0000
0001
0000
0100
0000
1000
0001
0000
1000
0010
0000
0100
0000
,
0000
0001
0100
0000
0010
0000
1000
0000
0200
0000
0000
0302
0000
0000
0203
0000
,
1300
0000
0010
0000
0001
0000
0010
0000
100M
0000
0000
0001
0010
0000
1000
0000
,
0001
1000
0100
0010
2000
0000
3010
0001
,
0100
0000
1000
0000
0100
0000
0001
0000
0010
0100
0000
1000
0010
0000
1000
0000
,
0001
0000
0010
0000
0001
1000
0000
1000
0020
0000
0230
0000
0301
0000
1000
0000
,
0001
0000
0010
0000
1000
0000
0010
0000
M001
0000
0000
1000
0010
0000
0001
0000
,
1000
0001
0100
0010
0002
0000
0013
1000
,
0100
0000
0100
0000
0000
0011
0000
0000
1001
0000
0000
1010
0000
0000
0100
0010
,
0100
0000
0001
0000
1000
0000
0100
0000
0020
0000
0000
0032
0000
0000
2003
0000
,
3020
1000
0100
1030
,
0002
0000
0000
1000
0000
0000
0100
0000
0000
1003
0000
0001
,
0020
0001
0100
0031
,
2000
0000
0000
0001
0000
0000
0100
0000
0000
3001
1000
0001
,
0200
0000
0000
1000
0000
0000
0010
0000
0000
0301
0000
0001
,
0020
0000
0000
1000
0000
0000
0100
0000
0000
0031
0000
1000
,
0020
0001
0100
1030
,
2002
0000
0000
3003
0000
0000
1000
0000
0100
0001
0000
0100
,
1000
0000
1000
0010
0000
0010
0200
0000
0000
1300
0000
0100
,
0001
0000
0001
0010
0000
0010
0200
0000
0000
0301
0000
0100
,
1000
0000
0001
0100
0000
0010
2000
0000
0000
3001
0000
1000
,
0100
0000
0100
0010
0000
0010
0001
0000
1000
0001
1000
0001
,
1000
0000
1000
0010
0000
0010
0002
0000
0000
0013
0000
1000
,
0001
0000
0001
0010
0000
0010
2000
0000
0000
3010
0000
0000
,
0000
0001
0000
0001
0000
1000
0000
1000
0000
0002
0000
0000
,
0203
0000
0000
2300
0000
0000
3020
0000
0000
0031
1000
0001
,
0200
0000
0000
0000
,
0300
0000
0000
0000
0000
0000
0000
0001
,
1000
0000
0000
0000
0000
0000
0000
0100
,
0110
0000
0000
0110
0000
0000
0011
0000
0000
1001
0000
0000
0101
0000
0000
0000
,
0001
0000
0100
0000
0010
0000
0100
2000
0000
3000
0100
0000
0001
0000
1000
0000
,
0100
0000
0010
0000
0001
0000
0100
0010
0000
0010
1000
0000
0001
0000
0000
0000
,
1000
0000
0100
0000
0010
0000
0100
0002
0000
0003
0100
0000
1000
0000
0010
0000
,
0001
0000
0010
0000
1000
0000
0100
0010
0000
0010
0001
0000
1000
0000
0001
0000
,
0101
0000
0000
01M0
1000
0000
0010
0000
0001
0000
1000
0000
0100
0000
0001
0000
,
1000
0000
0100
0000
0010
0000
0001
0100
0000
0010
1000
0000
0001
0000
1000
0000
,
1100
0000
0000
01M0
0001
0000
0010
0000
1000
0000
0001
0000
0100
0000
1000
0000
,
0001
0000
0100
0000
0010
0000
1000
0000
0001
0010
0001
0000
1000
0010
1000
0000
,
0001
0000
0010
0000
0100
0000
0010
2000
0000
3000
0010
0000
0001
0000
1000
0000
,
0010
0000
0100
0000
0001
0000
0010
0100
0000
0100
1000
0000
0001
0000
0000
0000
,
1000
0000
0010
0000
0100
0000
0010
0002
0000
0003
0010
0000
1000
0000
0100
0000
,
0001
0000
0100
0000
0010
0000
0001
0100
0000
0010
1000
0000
1001
0000
0000
0000
,
2000
0000
3200
0000
0320
0000
0031
0010
,
0002
0000
0203
0000
0320
0000
1030
0010
,
1000
0000
0001
0010
0100
1000
0010
0100
,
0002
0000
0000
0010
0000
0000
2003
0000
0000
0010
0000
0000
3001
1000
0001
0000
,
1000
0000
0100
0000
0010
0000
0100
0002
0000
0003
1000
0000
0010
0000
0001
0000
,
1000
0000
0010
0000
0100
0000
0001
0010
0000
0010
0100
0000
1000
0000
0000
0000
,
0001
0000
0100
0000
0010
0000
0100
2000
0000
3000
0001
0000
0010
0000
1000
0000
,
0001
0000
0010
1000
0000
0010
0000
0002
0000
0000
1003
0000
1001
0000
0000
0000
,
0001
0000
0100
0000
0010
0000
0100
0000
1200
0000
0000
0010
0000
0000
0301
0000
,
1000
0000
0100
0000
0010
0000
0100
0000
0201
0000
0000
0010
0000
0000
1300
0000
,
0010
0000
0001
0000
0010
0000
1000
0000
2001
0000
0000
0100
0000
0000
3001
0000
,
0002
0000
0000
0000
0103
0010
1001
0000
,
0010
0000
0000
0000
;

//---------------dance-single - ----------------
#NOTES:
     dance-single:
     :
     Beginner:
     2:
     0.165615,0.255383,0.075607,0.210019,0.000000,138.000000,129.000000,9.000000,25.000000,0.000000,0.000000,0.165615,0.255383,0.075607,0.210019,0.000000,138.000000,129.000000,9.000000,25.000000,0.000000,0.000000:
0000
0000
0000
0000
,
0000
0000
0000
0000
,
0000
0000
0000
0000
,
0000
0000
0000
0000
,
2000
0000
3000
0000
,
0002
0000
0003
0000
,
1000
0000
0001
0000
,
1000
0000
0000
0000
,
1000
0000
1000
0000
,
0100
0000
0100
0000
,
0010
0000
0010
0000
,
0001
0000
0001
0000
,
0100
0000
0100
0000
,
0010
0000
0010
0000
,
2002
0000
0000
0000
,
0000
0000
3003
0000
,
1000
0000
1000
0000
,
1000
1000
1000
0000
,
0010
0000
0100
0000
,
0010
0000
1000
0000
,
0001
0000
0001
0000
,
0001
0001
0001
0000
,
0010
0000
0100
0000
,
1000
0000
1001
0000
,
0001
0000
0001
0000
,
0001
0001
0001
0000
,
0100
0000
0010
0000
,
0100
0000
0001
0000
,
1000
0000
1000
0000
,
1000
1000
1000
0000
,
0100
0000
0010
0000
,
0001
0000
0100
0000
,
0020
0000
0030
0000
,
0200
0000
0300
0000
,
0002
0000
0003
0000
,
2000
0000
3000
0000
,
0200
0000
0300
0000
,
0020
0000
0030
0000
,
0002
0000
0003
0000
,
2002
0000
3003
0000
,
0001
0000
0001
0000
,
0100
0000
0100
0000
,
0010
0000
0010
0000
,
1000
1000
1000
0000
,
0001
0000
1000
0000
,
0100
0000
0010
0000
,
0200
0000
0300
0000
,
0010
0000
0001
0000
,
2000
0000
0000
0000
,
3000
0000
0000
0000
,
0001
0000
0000
0000
,
2002
0000
3003
0000
,
1000
1000
1000
0000
,
0010
0000
0100
0000
,
0010
0010
0010
0000
,
0100
0000
0001
0000
,
2002
0000
3003
0000
,
0001
0000
1000
0000
,
2002
0000
3003
0000
,
0001
0000
1000
0000
,
0001
0001
0001
0000
,
0010
0000
0100
0000
,
0010
0010
0010
0000
,
0100
0000
1000
0000
,
0002
0000
0003
0000
,
0200
0000
0300
0000
,
0020
0000
0030
0000
,
1000
0000
0001
0000
,
1000
1000
1000
0000
,
0100
0000
0010
0000
,
0001
0001
0001
0000
,
0100
0000
0010
0000
,
1000
0000
1001
0000
,
0001
0000
1001
0000
,
1000
0000
1001
0000
,
0020
0000
0000
0000
,
0030
0000
0000
0000
;
