#VERSION:0.83;
#TITLE:Konga Conga Kappa;
#SUBTITLE:(A_Rival Remix);
#ARTIST:Danny Baranowsky;
#TITLETRANSLIT:;
#SUBTITLETRANSLIT:;
#ARTISTTRANSLIT:;
#GENRE:Electroconga;
#ORIGIN:;
#CREDIT:;
#BANNER:Konga Conga Kappa (A_Rival Remix).png;
#BACKGROUND:Konga Conga Kappa (A_Rival Remix)-bg.png;
#PREVIEWVID:;
#JACKET:Konga Conga Kappa (A_Rival Remix)-jacket.png;
#CDIMAGE:;
#DISCIMAGE:;
#LYRICSPATH:;
#CDTITLE:cdtitle.png;
#MUSIC:Konga Conga Kappa (A_Rival Remix).ogg;
#OFFSET:-0.047187;
#SAMPLESTART:16.047188;
#SAMPLELENGTH:15.999998;
#SELECTABLE:YES;
#BPMS:0.000=120.000,
6.000=60.000,
7.000=120.000,
13.000=60.000,
14.000=120.000,
20.000=60.000,
21.000=120.000,
27.000=60.000,
28.000=120.000,
34.000=60.000,
35.000=120.000,
41.000=60.000,
42.000=120.000,
48.000=60.000,
49.000=120.000,
55.000=60.000,
56.000=120.000,
62.000=60.000,
63.000=120.000,
69.000=60.000,
70.000=120.000,
76.000=60.000,
77.000=120.000,
83.000=60.000,
84.000=120.000,
90.000=60.000,
91.000=120.000,
97.000=60.000,
98.000=120.000,
104.000=60.000,
105.000=120.000,
111.000=60.000,
112.000=120.000,
118.000=60.000,
119.000=120.000,
125.000=60.000,
126.000=120.000,
132.000=60.000,
133.000=120.000,
139.000=60.000,
140.000=120.000,
146.000=60.000,
147.000=120.000,
153.000=60.000,
154.000=120.000,
160.000=60.000,
161.000=120.000,
167.000=60.000,
168.000=120.000,
174.000=60.000,
175.000=120.000,
181.000=60.000,
182.000=120.000,
188.000=60.000,
189.000=120.000,
195.000=60.000,
196.000=120.000;
#STOPS:;
#DELAYS:;
#WARPS:;
#TIMESIGNATURES:0.000=4=4;
#TICKCOUNTS:0.000=4;
#COMBOS:0.000=1;
#SPEEDS:0.000=1.000=0.000=0;
#SCROLLS:0.000=1.000;
#FAKES:;
#LABELS:0.000=Song Start;
#BGCHANGES:;
#KEYSOUNDS:;
#ATTACKS:
;

//---------------dance-single - ----------------
#NOTEDATA:;
#CHARTNAME:;
#STEPSTYPE:dance-single;
#DESCRIPTION:;
#CHARTSTYLE:;
#DIFFICULTY:Challenge;
#METER:14;
#RADARVALUES:0.685446,0.734712,0.583105,0.374853,0.912143,576.000000,506.000000,70.000000,45.000000,0.000000,0.000000,0.000000,0.000000,0.000000,0.685446,0.734712,0.583105,0.374853,0.912143,576.000000,506.000000,70.000000,45.000000,0.000000,0.000000,0.000000,0.000000,0.000000;
#CREDIT:;
#NOTES:
0000
0000
0000
0000
,
0000
0000
0000
0000
,
0000
0000
0000
0000
,
0000
0000
0000
0000
0000
0000
0000
0000
1010
0000
1000
0000
0010
1000
0000
0000
,
2001
0000
0100
0000
3001
0000
0000
0000
0011
0000
0001
0000
0010
0001
1000
0000
,
1010
0000
0002
0103
0010
0000
1010
0000
0000
1000
0100
0000
0010
0000
0012
0000
,
0000
0000
0000
0000
1003
0000
0010
0000
1000
0000
0000
0000
0000
0000
0101
0000
0000
0000
0000
0000
1100
0000
0000
0000
0001
0100
0010
1000
0100
0010
0001
0000
,
1000
0000
0001
0100
0000
0001
0000
0101
0000
0010
0000
1100
0000
1000
0001
1000
,
0100
0000
0010
0100
0000
1000
0000
1000
0001
0200
0320
2030
3001
0000
0010
0100
,
0000
0010
0000
0011
0000
1000
0000
1010
0000
1000
0001
0010
0100
0000
1000
0010
,
0000
0000
0100
0000
0000
0000
0001
0000
1000
0000
0001
0010
0001
1000
0001
0100
0001
0000
0000
0000
0001
0000
0020
0000
0100
0000
0000
0000
0031
0000
0000
0000
,
0010
0001
1000
0020
0000
0130
0001
0000
1000
0000
1000
0200
1000
0000
0310
0000
,
0001
0100
0010
2000
0000
3100
0010
0000
0001
0000
0000
0000
1000
0000
0010
0000
1000
0000
0010
0000
0100
0000
0010
0000
0100
0000
0010
0000
0100
0000
0001
0000
,
0100
0000
0001
0000
1000
0000
0001
0000
1000
0000
0001
0000
0010
0000
0010
0000
1000
0000
0100
0000
0010
0000
0001
0000
1000
0100
1000
0200
0000
0000
0310
0001
,
0200
0000
0000
0000
0001
0000
0310
1000
0200
0000
0010
0000
1000
0000
0310
0001
,
0200
0000
0000
0000
0000
0000
0000
0000
0320
0000
0000
0000
0000
0000
0000
0000
1030
0000
0010
1000
0000
0200
0000
0000
0310
0000
0000
0000
0001
0000
0100
0000
,
0001
0100
0010
1000
0010
1000
0100
1000
0100
1000
0001
1000
0001
1000
0010
0010
,
0001
0000
0010
0000
0100
0000
1000
0000
0010
0100
0010
0200
0000
0000
0301
0000
1001
0000
0000
0000
0000
0000
1000
0000
1010
0000
0000
0000
0100
0000
0000
0000
,
0001
0000
0010
0001
0011
0000
0100
0000
1000
0000
0000
1000
1010
0000
0001
0000
,
0200
0000
0000
0000
0310
0000
0010
0010
1000
0000
0000
0000
0000
0000
1000
0000
1100
0000
0000
0000
0010
0000
0000
0000
0001
0000
0000
0000
0100
0000
0001
0000
,
0101
0000
0000
0000
0010
0000
0000
0000
1000
0000
0000
0000
0000
0000
1000
0000
1100
0000
0000
0000
0001
0000
0000
0000
0200
0000
0000
0000
0310
0000
0010
0010
,
1000
0000
0000
1000
0100
0000
0011
0000
1001
0000
1000
0001
0100
0000
0110
0000
,
1010
0000
0000
0000
0000
0000
0001
0000
0100
0000
0000
0000
0101
0000
0000
0000
2001
0000
0000
0000
0001
0000
0001
3001
1000
0000
0000
0000
0000
0000
0001
0000
,
0010
0000
0110
0000
1100
0000
1000
0001
0100
0000
0110
0000
1010
0000
0000
1000
,
0100
0000
0000
0000
0110
0000
0000
0000
2001
0000
0000
0000
3010
0000
1000
0001
0011
0000
0000
0000
0001
0000
0000
0000
0010
0000
0001
0000
0000
0000
0000
0000
,
1002
0000
0100
0000
1003
0000
0000
0000
1010
0000
1000
0000
0010
1000
0001
0000
,
0011
0000
2000
3100
0010
0000
0011
0000
0000
0001
0100
0000
0010
0000
2010
0000
,
0000
0000
0000
0000
3001
0000
0010
0000
0001
0000
0000
0000
0000
0000
1100
0000
0000
0000
0000
0000
0101
0000
0000
0000
1000
0100
0010
0001
0100
0010
1000
0000
,
0001
0000
1000
0100
0000
1000
0000
1100
0000
0010
0000
0101
0000
0001
1000
0001
,
0100
0000
0010
0100
0000
0001
0000
0001
1000
0200
0320
0032
1003
0000
0010
0100
,
0000
0010
0000
1010
0000
0001
0000
0011
0000
0001
1000
0010
0100
0000
0001
0010
,
0000
0000
0100
0000
0000
0000
1000
0000
0001
0000
1000
0010
1000
0001
1000
0100
1000
0000
0000
0000
1000
0000
0020
0000
0100
0000
0000
0000
1030
0000
0000
0000
,
0010
1000
0001
0020
0000
0130
1000
0000
0001
0000
0001
0200
0001
0000
0310
0000
,
1000
0100
0010
0002
0000
0103
0010
0000
1000
0000
0000
0000
0001
0000
0010
0000
0001
0000
0010
0000
0100
0000
0010
0000
0100
0000
0010
0000
0100
0000
1000
0000
,
0100
0000
1000
0000
0001
0000
1000
0000
0001
0000
1000
0000
0010
0000
0010
0000
0001
0000
0100
0000
0010
0000
1000
0000
0001
0100
0001
0200
0000
0000
0310
1000
,
0200
0000
0000
0000
1000
0000
0310
0001
0200
0000
0010
0000
0001
0000
0310
1000
,
0200
0000
0000
0000
0000
0000
0000
0000
0320
0000
0000
0000
0000
0000
0000
0000
0031
0000
0010
0001
0000
0200
0000
0000
0310
0000
0000
0000
1000
0000
0100
0000
,
1000
0100
0010
0001
0010
0001
0100
0001
0100
0001
1000
0001
1000
0001
0010
0010
,
1000
0000
0010
0000
0100
0000
0001
0000
0010
0100
0010
0200
0000
0000
1300
0000
1001
0000
0000
0000
0000
0000
0001
0000
0011
0000
0000
0000
0100
0000
0000
0000
,
1000
0000
0010
1000
1010
0000
0100
0000
0001
0000
0000
0001
0011
0000
1000
0000
,
0200
0000
0000
0000
0310
0000
0010
0010
0001
0000
0000
0000
0000
0000
0001
0000
0101
0000
0000
0000
0010
0000
0000
0000
1000
0000
0000
0000
0100
0000
1000
0000
,
1100
0000
0000
0000
0010
0000
0000
0000
0001
0000
0000
0000
0000
0000
0001
0000
0101
0000
0000
0000
1000
0000
0000
0000
0200
0000
0000
0000
0310
0000
0010
0010
,
0001
0000
0000
0001
0100
0000
1010
0000
1001
0000
0001
1000
0100
0000
0110
0000
,
0011
0000
0000
0000
0000
0000
1000
0000
0100
0000
0000
0000
1100
0000
0000
0000
1002
0000
0000
0000
1000
0000
1000
1003
0001
0000
0000
0000
0000
0000
1000
0000
,
0010
0000
0110
0000
0101
0000
0001
1000
0100
0000
0110
0000
0011
0000
0000
0001
,
0100
0000
0000
0000
0110
0000
0000
0000
1002
0000
0000
0000
0013
0000
0001
1000
1010
0000
0000
0000
1000
0000
0000
0000
0010
0000
1000
0000
0000
0000
0000
0000
,
2001
0000
0100
0000
3001
0000
0000
0000
0011
0000
0001
0000
0010
0001
1000
0000
,
1010
0000
0002
0103
0010
0000
1010
0000
0000
1000
0100
0000
0010
0000
0012
0000
,
0000
0000
0000
0000
1003
0000
0010
0000
1000
0000
0000
0000
0000
0000
0101
0000
0000
0000
0000
0000
1100
0000
0000
0000
0001
0100
0010
1000
0100
0010
0001
0000
,
1000
0000
0000
0000
;

//---------------dance-single - ----------------
#NOTEDATA:;
#CHARTNAME:;
#STEPSTYPE:dance-single;
#DESCRIPTION:;
#CHARTSTYLE:;
#DIFFICULTY:Hard;
#METER:11;
#RADARVALUES:0.423644,0.408173,0.166601,0.233242,0.408173,356.000000,336.000000,20.000000,28.000000,0.000000,0.000000,0.000000,0.000000,0.000000,0.423644,0.408173,0.166601,0.233242,0.408173,356.000000,336.000000,20.000000,28.000000,0.000000,0.000000,0.000000,0.000000,0.000000;
#CREDIT:;
#NOTES:
0000
0000
0000
0000
,
0000
0000
0000
0000
,
0000
0000
0000
0000
,
0000
0000
0000
0000
0000
0000
0000
0000
1010
0000
0000
0000
1000
0001
0000
0000
,
0022
0000
0000
0000
0033
0000
0000
0000
0011
0000
0000
0000
0000
0001
1000
0000
,
1010
0000
0002
0003
1000
0000
0100
0000
0000
0100
0010
0000
0001
0000
0200
0000
,
0000
0000
0310
0000
1000
0000
0000
0100
0000
0000
0010
0000
0001
0100
1000
0100
,
0001
0000
0000
0001
0000
0010
0000
0100
0000
0010
0000
0001
0000
0000
0001
0000
,
1000
0000
0000
1000
0000
0001
0000
0100
0000
0010
0010
0010
1000
0000
0000
1000
,
0000
0100
0000
0010
0000
0100
0000
1000
0000
0000
1000
0000
0001
0000
0000
0001
,
0000
0100
0000
0010
0000
1000
1000
1000
0001
0000
0001
0020
0000
0000
0130
0000
,
0010
0000
0001
0010
0000
0001
1000
0000
0001
0000
0001
0200
0000
0000
0310
0000
,
1000
0000
0000
0010
0000
0000
1000
0000
0001
0000
0000
0000
0100
0000
0000
0000
0010
0000
0000
0000
1000
0000
0000
0000
0100
0000
0000
0000
0010
0000
0000
0000
,
0001
0000
0000
0000
0100
0000
0000
0000
1000
0000
0000
0000
0100
0000
0000
0000
0001
0000
0000
0000
0010
0000
0000
0000
0100
0000
0000
0100
0000
0000
0010
0000
,
0002
0000
0103
0010
2000
0000
3100
0010
,
0011
0000
0000
0000
0000
0000
0000
0000
1010
0000
0000
0000
0000
0000
0000
0000
0001
0000
0000
0010
0000
0001
0000
0000
1000
0000
0000
0000
0100
0000
0000
0000
,
0010
0001
1000
0100
0001
1000
0010
0100
,
0010
0000
0000
0000
0001
0000
0000
0000
1000
0000
0000
0001
0000
0000
1000
0000
0001
0000
0000
0000
0000
0000
0000
0000
0010
0000
0000
0000
0001
0000
0000
0000
,
1000
0000
1000
0001
0100
0000
0100
0001
,
2000
0000
3010
0010
1000
0000
0000
0000
0010
0000
1000
0000
0100
0000
0000
0000
,
0010
0000
0001
0000
0100
0000
0000
0000
0010
0000
1000
0000
0200
0000
0310
0010
,
0001
0000
0000
1000
0000
0000
1000
0000
0001
0000
0000
0000
0101
0000
0100
0000
,
0001
0000
0000
1000
0000
0000
1000
0000
0002
0000
0013
0010
0100
0000
0000
1000
,
0000
0000
1000
0000
0001
0000
0000
0000
0011
0000
0001
0000
1000
0000
0000
0010
,
0000
0000
0010
0000
2000
0000
3001
0010
0011
0000
0000
0000
0001
1000
0000
0000
,
2020
0000
0000
0000
3030
0000
0000
0000
1010
0000
0000
0000
0000
1000
0001
0000
,
0011
0000
2000
3000
0001
0000
0100
0000
0000
0100
0010
0000
1000
0000
0200
0000
,
0000
0000
0310
0000
0001
0000
0000
0100
0000
0000
0010
0000
1000
0100
0001
0100
,
1000
0000
0000
1000
0000
0010
0000
0100
0000
0010
0000
1000
0000
0000
1000
0000
,
0001
0000
0000
0001
0000
1000
0000
0100
0000
0010
0010
0010
0001
0000
0000
0001
,
0000
0100
0000
0010
0000
0100
0000
0001
0000
0000
0001
0000
1000
0000
0000
1000
,
0000
0100
0000
0010
0000
0001
0001
0001
1000
0000
1000
0020
0000
0000
0130
0000
,
0010
0000
1000
0010
0000
1000
0001
0000
1000
0000
1000
0200
0000
0000
0310
0000
,
0001
0000
0000
0010
0000
0000
0001
0000
1000
0000
0000
0000
0100
0000
0000
0000
0010
0000
0000
0000
0001
0000
0000
0000
0100
0000
0000
0000
0010
0000
0000
0000
,
1000
0000
0000
0000
0100
0000
0000
0000
0001
0000
0000
0000
0100
0000
0000
0000
1000
0000
0000
0000
0010
0000
0000
0000
0100
0000
0000
0100
0000
0000
0010
0000
,
2000
0000
3100
0010
0002
0000
0103
0010
,
1010
0000
0000
0000
0000
0000
0000
0000
0011
0000
0000
0000
0000
0000
0000
0000
1000
0000
0000
0010
0000
1000
0000
0000
0001
0000
0000
0000
0100
0000
0000
0000
,
0010
1000
0001
0100
1000
0001
0010
0100
,
0010
0000
0000
0000
1000
0000
0000
0000
0001
0000
0000
1000
0000
0000
0001
0000
1000
0000
0000
0000
0000
0000
0000
0000
0010
0000
0000
0000
1000
0000
0000
0000
,
0001
0000
0001
1000
0100
0000
0100
1000
,
0002
0000
0013
0010
0001
0000
0000
0000
0010
0000
0001
0000
0100
0000
0000
0000
,
0010
0000
1000
0000
0100
0000
0000
0000
0010
0000
0001
0000
0200
0000
0310
0010
,
1000
0000
0000
0001
0000
0000
0001
0000
1000
0000
0000
0000
1100
0000
0100
0000
,
1000
0000
0000
0001
0000
0000
0001
0000
2000
0000
3010
0010
0100
0000
0000
0001
,
0000
0000
0001
0000
1000
0000
0000
0000
1010
0000
1000
0000
0001
0000
0000
0010
,
0000
0000
0010
0000
0002
0000
1003
0010
1010
0000
0000
0000
1000
0001
0000
0000
,
0022
0000
0000
0000
0033
0000
0000
0000
0011
0000
0000
0000
0000
0001
1000
0000
,
1010
0000
0002
0003
1000
0000
0100
0000
0000
0100
0010
0000
0001
0000
0200
0000
,
0000
0000
0310
0000
1000
0000
0000
0100
0000
0000
0010
0000
0001
0100
1000
0100
,
0001
0000
0000
0000
;

//---------------dance-single - ----------------
#NOTEDATA:;
#CHARTNAME:;
#STEPSTYPE:dance-single;
#DESCRIPTION:;
#CHARTSTYLE:;
#DIFFICULTY:Medium;
#METER:6;
#RADARVALUES:0.289172,0.292385,0.266562,0.149941,0.000000,243.000000,211.000000,32.000000,18.000000,0.000000,0.000000,0.000000,0.000000,0.000000,0.289172,0.292385,0.266562,0.149941,0.000000,243.000000,211.000000,32.000000,18.000000,0.000000,0.000000,0.000000,0.000000,0.000000;
#CREDIT:;
#OFFSET:-0.047187;
#BPMS:0.000000=120.000000
;
#STOPS:86.000000=0.500001
,93.000000=0.500001
,100.000000=0.500001
,107.000000=0.500001
,178.000000=0.500001
,185.000000=0.500001
,192.000000=0.500001
,199.000000=0.500001
;
#DELAYS:;
#WARPS:;
#TIMESIGNATURES:0.000000=4=4
;
#TICKCOUNTS:0.000000=4
;
#COMBOS:0.000000=1
;
#SPEEDS:0.000000=1.000000=0.000000=0
;
#SCROLLS:0.000000=1.000000
;
#FAKES:;
#LABELS:0.000000=Song Start
;
#NOTES:
// measure 0
0000
0000
0000
0000
,  // measure 1
0000
0000
0000
0000
,  // measure 2
0000
0000
0000
0000
,  // measure 3
0000
0000
0000
0000
,  // measure 4
0001
0110
2000
3000
,  // measure 5
1000
0110
0001
2000
,  // measure 6
3000
0011
1000
1010
,  // measure 7
0010
1000
0100
0000
0010
0001
0100
0000
,  // measure 8
0001
0000
0100
0000
1000
0010
0001
0000
,  // measure 9
0100
0000
1000
0100
0001
0000
0000
0000
,  // measure 10
0001
0000
0010
0000
1000
0100
0001
0000
,  // measure 11
0010
0000
1000
0010
0001
0000
0000
0000
,  // measure 12
1000
0000
1010
0000
0001
1000
0001
0000
,  // measure 13
1000
1100
0002
0000
,  // measure 14
1003
0000
0110
0000
0001
0100
0001
0000
,  // measure 15
0010
1001
0200
0300
,  // measure 16
2100
3001
0102
1003
,  // measure 17
1010
0011
2000
0000
,  // measure 18
3001
0000
0101
0000
1000
0001
1000
0000
,  // measure 19
0001
0011
2000
0000
,  // measure 20
3001
0100
0001
0100
,  // measure 21
0001
0100
1000
0001
,  // measure 22
0100
0001
0100
0001
,  // measure 23
0100
0000
1000
0000
0001
0000
1000
0010
,  // measure 24
1000
0000
0000
0001
1000
0000
0001
0010
,  // measure 25
0001
0000
0001
0000
1000
0100
1000
0000
,  // measure 26
0000
0001
1000
0000
0001
0100
0001
0000
,  // measure 27
1000
0110
0002
0003
,  // measure 28
0001
0110
1000
0002
,  // measure 29
0003
1010
0001
0011
,  // measure 30
0010
0001
0100
0000
0010
1000
0100
0000
,  // measure 31
1000
0000
0100
0000
0001
0010
1000
0000
,  // measure 32
0100
0000
0001
0100
1000
0000
0000
0000
,  // measure 33
1000
0000
0010
0000
0001
0100
1000
0000
,  // measure 34
0010
0000
0001
0010
1000
0000
0000
0000
,  // measure 35
0001
0000
0011
0000
1000
0001
1000
0000
,  // measure 36
0001
0101
2000
0000
,  // measure 37
3001
0000
0110
0000
1000
0100
1000
0000
,  // measure 38
0010
1001
0200
0300
,  // measure 39
0102
1003
2100
3001
,  // measure 40
0011
1010
0002
0000
,  // measure 41
1003
0000
1100
0000
0001
1000
0001
0000
,  // measure 42
1000
1010
0002
0000
,  // measure 43
1003
0100
1000
0100
,  // measure 44
1000
0100
0001
1000
,  // measure 45
0100
1000
0100
1000
,  // measure 46
0100
0000
0001
0000
1000
0000
0001
0010
,  // measure 47
0001
0000
0000
1000
0001
0000
1000
0010
,  // measure 48
1000
0000
1000
0000
0001
0100
0001
0000
,  // measure 49
0000
1000
0001
0000
1000
0100
1000
0000
,  // measure 50
0001
0110
2000
3000
,  // measure 51
1000
0110
0001
2000
,  // measure 52
3000
0011
1000
1010
,  // measure 53
0010
1000
0100
0000
0010
0001
0100
0000
,  // measure 54
0010
0000
0000
0000
;

//---------------dance-single - ----------------
#NOTEDATA:;
#CHARTNAME:;
#STEPSTYPE:dance-single;
#DESCRIPTION:;
#CHARTSTYLE:;
#DIFFICULTY:Easy;
#METER:3;
#RADARVALUES:0.174931,0.179930,0.000000,0.199922,0.000000,147.000000,147.000000,0.000000,24.000000,0.000000,0.000000,0.000000,0.000000,0.000000,0.174931,0.179930,0.000000,0.199922,0.000000,147.000000,147.000000,0.000000,24.000000,0.000000,0.000000,0.000000,0.000000,0.000000;
#CREDIT:;
#OFFSET:-0.047187;
#BPMS:0.000000=120.000000
;
#STOPS:86.000000=0.500001
,93.000000=0.500001
,100.000000=0.500001
,107.000000=0.500001
,178.000000=0.500001
,185.000000=0.500001
,192.000000=0.500001
,199.000000=0.500001
;
#DELAYS:;
#WARPS:;
#TIMESIGNATURES:0.000000=4=4
;
#TICKCOUNTS:0.000000=4
;
#COMBOS:0.000000=1
;
#SPEEDS:0.000000=1.000000=0.000000=0
;
#SCROLLS:0.000000=1.000000
;
#FAKES:;
#LABELS:0.000000=Song Start
;
#NOTES:
// measure 0
0000
0000
0000
0000
,  // measure 1
0000
0000
0000
0000
,  // measure 2
0000
0000
0000
0000
,  // measure 3
0000
0000
0000
0000
,  // measure 4
0001
0010
0002
0003
,  // measure 5
1000
0010
1000
0020
,  // measure 6
0030
0100
0200
0300
,  // measure 7
0001
1000
0002
0003
,  // measure 8
1000
1000
1000
0000
,  // measure 9
0100
0100
0100
0000
,  // measure 10
0001
0001
0001
0000
,  // measure 11
0010
0010
0010
0000
,  // measure 12
1000
0010
0100
0000
,  // measure 13
0010
1000
0200
0300
,  // measure 14
0010
0010
0001
0000
,  // measure 15
0010
0001
0200
0300
,  // measure 16
0002
0003
2000
3000
,  // measure 17
0010
0100
0020
0030
,  // measure 18
1000
1000
0100
0000
,  // measure 19
0010
0100
2000
3000
,  // measure 20
0001
0000
0001
0000
,  // measure 21
0001
0000
0001
1000
,  // measure 22
0000
1000
0000
1000
,  // measure 23
0000
1000
0001
0010
,  // measure 24
0100
0000
0010
0100
,  // measure 25
1000
1000
0010
0100
,  // measure 26
0000
0010
0100
0001
,  // measure 27
1000
0010
2000
3000
,  // measure 28
0001
0010
0001
0020
,  // measure 29
0030
0100
0200
0300
,  // measure 30
1000
0001
2000
3000
,  // measure 31
0001
0001
0001
0000
,  // measure 32
0100
0100
0100
0000
,  // measure 33
1000
1000
1000
0000
,  // measure 34
0010
0010
0010
0000
,  // measure 35
0001
0010
0100
0000
,  // measure 36
0010
0001
0200
0300
,  // measure 37
0010
0010
1000
0000
,  // measure 38
0010
1000
0200
0300
,  // measure 39
2000
3000
0002
0003
,  // measure 40
0010
0100
0020
0030
,  // measure 41
0001
0001
0100
0000
,  // measure 42
0010
0100
0002
0003
,  // measure 43
1000
0000
1000
0000
,  // measure 44
1000
0000
1000
0001
,  // measure 45
0000
0001
0000
0001
,  // measure 46
0000
0001
1000
0010
,  // measure 47
0100
0000
0010
0100
,  // measure 48
0001
0001
0010
0100
,  // measure 49
0000
0010
0100
1000
,  // measure 50
0001
0010
0002
0003
,  // measure 51
1000
0010
1000
0020
,  // measure 52
0030
0100
0200
0300
,  // measure 53
0001
1000
0002
0003
,  // measure 54
0010
0000
0000
0000
;

//---------------dance-single - ----------------
#NOTEDATA:;
#CHARTNAME:;
#STEPSTYPE:dance-single;
#DESCRIPTION:;
#CHARTSTYLE:;
#DIFFICULTY:Beginner;
#METER:1;
#RADARVALUES:0.077351,0.093297,0.000000,0.000000,0.000000,65.000000,65.000000,0.000000,0.000000,0.000000,0.000000,0.000000,0.000000,0.000000,0.077351,0.093297,0.000000,0.000000,0.000000,65.000000,65.000000,0.000000,0.000000,0.000000,0.000000,0.000000,0.000000,0.000000;
#CREDIT:;
#OFFSET:-0.047187;
#BPMS:0.000000=120.000000
;
#STOPS:;
#DELAYS:;
#WARPS:;
#TIMESIGNATURES:0.000000=4=4
;
#TICKCOUNTS:0.000000=4
;
#COMBOS:0.000000=1
;
#SPEEDS:0.000000=1.000000=0.000000=0
;
#SCROLLS:0.000000=1.000000
;
#FAKES:;
#LABELS:0.000000=Song Start
;
#NOTES:
// measure 0
0000
0000
0000
0000
,  // measure 1
0000
0000
0000
0000
,  // measure 2
0000
0000
0000
0000
,  // measure 3
0000
0000
0000
0000
,  // measure 4
1000
0000
0000
0000
,  // measure 5
0001
0000
0000
0000
,  // measure 6
0010
0000
0000
0000
,  // measure 7
0010
0000
0000
0000
,  // measure 8
0001
0000
0001
0000
,  // measure 9
0001
0000
0000
0000
,  // measure 10
1000
0000
1000
0000
,  // measure 11
1000
0000
0000
0000
,  // measure 12
0010
0000
0010
0000
,  // measure 13
0010
0000
0000
0000
,  // measure 14
0100
0000
0000
0000
,  // measure 15
0100
0000
0000
0000
,  // measure 16
0001
0000
0001
0000
,  // measure 17
0001
0000
0000
0000
,  // measure 18
1000
0000
0000
0000
,  // measure 19
1000
0000
0000
0000
,  // measure 20
0100
0000
0000
0000
,  // measure 21
0100
0000
0000
0000
,  // measure 22
0100
0000
0000
0000
,  // measure 23
0100
0000
0000
0000
,  // measure 24
0010
0000
0010
0000
,  // measure 25
0010
0000
0000
0000
,  // measure 26
0010
0000
0010
0000
,  // measure 27
0010
0000
0000
0000
,  // measure 28
0001
0000
0000
0000
,  // measure 29
1000
0000
0000
0000
,  // measure 30
0010
0000
0000
0000
,  // measure 31
0010
0000
0000
0000
,  // measure 32
1000
0000
1000
0000
,  // measure 33
1000
0000
0000
0000
,  // measure 34
0001
0000
0001
0000
,  // measure 35
0001
0000
0000
0000
,  // measure 36
0010
0000
0010
0000
,  // measure 37
0010
0000
0000
0000
,  // measure 38
0100
0000
0000
0000
,  // measure 39
0100
0000
0000
0000
,  // measure 40
1000
0000
1000
0000
,  // measure 41
1000
0000
0000
0000
,  // measure 42
0001
0000
0000
0000
,  // measure 43
0001
0000
0000
0000
,  // measure 44
0100
0000
0000
0000
,  // measure 45
0100
0000
0000
0000
,  // measure 46
0100
0000
0000
0000
,  // measure 47
0100
0000
0000
0000
,  // measure 48
0010
0000
0010
0000
,  // measure 49
0010
0000
0000
0000
,  // measure 50
0010
0000
0010
0000
,  // measure 51
0010
0000
0000
0000
,  // measure 52
1000
0000
0000
0000
,  // measure 53
0001
0000
0000
0000
,  // measure 54
0010
0000
0000
0000
,  // measure 55
0010
0000
0000
0000
,  // measure 56
0100
0000
0000
0000
;
