#VERSION:0.83;
#TITLE:Knotfunk;
#SUBTITLE:;
#ARTIST:t+pazolite;
#TITLETRANSLIT:;
#SUBTITLETRANSLIT:;
#ARTISTTRANSLIT:;
#GENRE:Neurostep;
#ORIGIN:;
#CREDIT:;
#BANNER:Knotfunk.png;
#BACKGROUND:Knotfunk-bg.png;
#PREVIEWVID:;
#JACKET:Knotfunk-jacket.png;
#CDIMAGE:;
#DISCIMAGE:;
#LYRICSPATH:;
#CDTITLE:cdtitle.png;
#MUSIC:Knotfunk.ogg;
#OFFSET:-0.001379;
#SAMPLESTART:73.264534;
#SAMPLELENGTH:10.105263;
#SELECTABLE:YES;
#DISPLAYBPM:48.000000:190.000000;
#BPMS:0.000=47.500,
16.000=95.000,
24.000=190.000,
36.000=95.000,
38.000=190.000,
102.000=95.000,
106.000=190.000,
298.000=47.500;
#STOPS:;
#DELAYS:;
#WARPS:;
#TIMESIGNATURES:0.000=4=4;
#TICKCOUNTS:0.000=4;
#COMBOS:0.000=1;
#SPEEDS:0.000=1.000=0.000=0;
#SCROLLS:0.000=1.000;
#FAKES:;
#LABELS:0.000=Song Start;
#BGCHANGES:;
#KEYSOUNDS:;
#ATTACKS:
;

//---------------dance-single - ----------------
#NOTEDATA:;
#CHARTNAME:;
#STEPSTYPE:dance-single;
#DESCRIPTION:;
#CHARTSTYLE:;
#DIFFICULTY:Challenge;
#METER:15;
#RADARVALUES:0.741134,1.133493,0.539006,0.370567,0.324246,616.000000,552.000000,64.000000,44.000000,8.000000,0.000000,7.000000,0.000000,0.000000,0.741134,1.133493,0.539006,0.370567,0.324246,616.000000,552.000000,64.000000,44.000000,8.000000,0.000000,7.000000,0.000000,0.000000;
#CREDIT:;
#OFFSET:-0.001379;
#BPMS:0.000000=47.500000
,16.000000=95.000000
,30.000000=760.000000
,32.500000=190.000000
,33.500000=760.000000
,34.000000=47.500000
,34.250000=95.000000
,34.500000=190.000000
,36.000000=760.000000
,36.500000=190.000000
,36.625000=95.000000
,37.000000=190.000000
,41.000000=380.000000
,41.500000=190.000000
,41.750000=95.000000
,42.000000=190.000000
,49.000000=47.500000
,49.250000=95.000000
,49.500000=190.000000
,51.000000=760.000000
,51.500000=190.000000
,51.625000=95.000000
,52.000000=190.000000
,56.000000=380.000000
,56.500000=190.000000
,56.750000=95.000000
,57.000000=190.000000
,60.000000=47.500000
,60.187500=380.000000
,60.375000=760.000000
,61.625000=380.000000
,61.812500=47.500000
,62.000000=190.000000
,63.000000=380.000000
,63.500000=190.000000
,63.750000=95.000000
,65.000000=190.000000
,66.000000=760.000000
,66.500000=190.000000
,66.625000=95.000000
,67.000000=190.000000
,71.000000=380.000000
,71.500000=190.000000
,71.750000=95.000000
,72.000000=190.000000
,79.000000=47.500000
,79.250000=95.000000
,79.500000=190.000000
,81.000000=760.000000
,81.500000=190.000000
,81.625000=95.000000
,82.000000=190.000000
,86.000000=380.000000
,86.500000=190.000000
,86.750000=95.000000
,87.000000=190.000000
,90.500000=760.000000
,91.000000=190.000000
,94.000000=95.000000
,98.000000=190.000000
,105.000000=760.000000
,105.500000=190.000000
,105.625000=95.000000
,106.000000=190.000000
,114.000000=95.000000
,114.125000=190.000000
,114.250000=380.000000
,114.500000=190.000000
,121.000000=760.000000
,121.500000=190.000000
,121.625000=95.000000
,122.000000=190.000000
,125.000000=380.000000
,126.000000=190.000000
,128.000000=380.000000
,128.500000=95.000000
,129.000000=190.000000
,136.000000=760.000000
,136.500000=190.000000
,136.625000=95.000000
,137.000000=190.000000
,145.000000=95.000000
,145.250000=190.000000
,145.500000=380.000000
,146.000000=190.000000
,152.000000=760.000000
,152.500000=190.000000
,152.625000=95.000000
,153.000000=190.000000
,156.000000=380.000000
,157.000000=190.000000
,228.000000=760.000000
,228.500000=190.000000
,228.625000=95.000000
,229.000000=190.000000
,233.000000=380.000000
,233.500000=190.000000
,233.750000=95.000000
,234.000000=190.000000
,241.000000=47.500000
,241.250000=95.000000
,241.500000=190.000000
,243.000000=760.000000
,243.500000=190.000000
,243.625000=95.000000
,244.000000=190.000000
,248.000000=380.000000
,248.500000=190.000000
,248.750000=95.000000
,249.000000=190.000000
,255.000000=380.000000
,255.500000=190.000000
,255.750000=95.000000
,256.000000=47.500000
,256.312500=190.000000
,256.625000=380.000000
,257.000000=760.000000
,258.000000=190.000000
,259.000000=760.000000
,259.500000=190.000000
,259.625000=95.000000
,260.000000=190.000000
,264.000000=380.000000
,264.500000=190.000000
,264.750000=95.000000
,265.000000=190.000000
,272.000000=47.500000
,272.250000=95.000000
,272.500000=190.000000
,274.000000=760.000000
,274.500000=190.000000
,274.625000=95.000000
,275.000000=190.000000
,279.000000=380.000000
,279.500000=190.000000
,279.750000=95.000000
,280.000000=190.000000
,283.500000=760.000000
,284.000000=190.000000
,286.000000=760.000000
,287.000000=47.500000
;
#STOPS:30.000000=0.118422
,30.500000=0.118422
,31.000000=0.118422
,31.500000=0.118422
,32.000000=0.118420
,33.500000=0.059212
,33.750000=0.059210
,90.500000=0.029604
,90.625000=0.029604
,90.750000=0.029604
,90.875000=0.029604
,125.000000=0.039473
,125.250000=0.039473
,125.500000=0.039473
,125.750000=0.039473
,128.000000=0.236841
,156.000000=0.039473
,156.250000=0.039473
,156.500000=0.039473
,156.750000=0.039473
,283.500000=0.029604
,283.625000=0.029604
,283.750000=0.029604
,283.875000=0.029604
,286.000000=0.029604
,286.125000=0.029604
,286.250000=0.029604
,286.375000=0.029604
,286.500000=0.029604
,286.625000=0.029604
,286.750000=0.029604
,286.875000=0.029604
;
#DELAYS:;
#WARPS:;
#TIMESIGNATURES:0.000000=4=4
;
#TICKCOUNTS:0.000000=4
;
#COMBOS:0.000000=1
;
#SPEEDS:0.000000=1.000000=0.000000=0
,16.000000=2.000000=8.000000=0
,24.000000=4.000000=6.000000=0
,32.500000=1.000000=0.000000=0
,256.000000=0.000000=2.000000=0
,258.000000=1.000000=0.000000=0
;
#SCROLLS:0.000000=1.000000
,16.000000=0.500000
,30.000000=0.250000
,32.500000=0.500000
,34.000000=1.000000
,44.000000=-2.000000
,44.166668=-1.000000
,44.333332=-0.500000
,44.500000=0.500000
,44.666668=1.000000
,44.833332=2.000000
,45.000000=1.000000
,74.000000=-2.000000
,74.166664=-1.000000
,74.333336=-0.500000
,74.500000=0.500000
,74.666664=1.000000
,74.833336=2.000000
,75.000000=1.000000
,160.000000=3.000000
,160.125000=-1.000000
,160.250000=3.000000
,160.375000=-1.000000
,160.500000=3.000000
,160.625000=-1.000000
,160.750000=3.000000
,160.875000=-1.000000
,161.000000=1.000000
,192.000000=3.000000
,192.125000=-1.000000
,192.250000=3.000000
,192.375000=-1.000000
,192.500000=3.000000
,192.625000=-1.000000
,192.750000=3.000000
,192.875000=-1.000000
,193.000000=1.000000
,225.000000=-0.500000
,226.750000=3.500000
,227.000000=1.000000
,236.000000=-2.000000
,236.166672=-1.000000
,236.333328=-0.500000
,236.500000=0.500000
,236.666672=1.000000
,236.833328=2.000000
,237.000000=1.000000
,256.000000=0.500000
,258.000000=1.000000
,267.000000=-2.000000
,267.166656=-1.000000
,267.333344=-0.500000
,267.500000=0.500000
,267.666656=1.000000
,267.833344=2.000000
,268.000000=1.000000
,271.500000=0.250000
,272.000000=1.000000
;
#FAKES:;
#LABELS:0.000000=Song Start
;
#DISPLAYBPM:190.000000;
#NOTES:
0000
0000
0000
0000
,
0000
0000
0000
0000
,
2000
0000
0000
0000
0000
0000
3100
0010
0002
0000
0000
0000
0203
0000
0000
0000
0320
0000
0000
0000
2030
0000
0000
0000
3200
0000
0000
0000
0000
0000
0000
0000
,
0320
0000
0000
0000
0000
0000
0031
1000
0020
0000
0000
0000
0230
0000
0000
0000
0320
0000
0000
0000
0000
0000
1030
0001
0020
0000
0000
0000
0000
0000
0000
0000
,
0031
0001
0100
0100
0010
0010
1000
1000
,
0001
0001
0010
0010
0100
0100
1000
1000
,
0001
0100
0001
1000
0100
1000
0001
0100
0001
0010
0001
1000
0010
1000
0001
0010
,
0001
1000
0001
1000
0001
1000
0001
1000
0001
1000
0001
1000
0001
1000
0001
1000
0001
0000
0000
0000
1000
0000
0000
0000
0100
0000
0000
0000
1000
0000
0000
0000
,
0002
0200
0000
0303
2002
3003
1000
0100
,
0011
0000
0001
1000
0010
1000
0010
1000
,
0001
0001
0201
0000
0310
1000
0100
0010
,
0001
0000
0000
0000
0001
0000
0010
0000
0001
0000
0010
0000
0100
0000
1000
0001
,
0100
0001
0100
0000
0020
0000
0030
0000
0110
0000
0000
0000
1001
0000
0000
0000
,
1000
0010
1000
0010
0100
0001
0010
0010
,
1200
0000
0000
0000
0310
0000
0001
0000
0100
0000
0001
0000
0010
M00M
0010
0000
,
4000
0000
3004
0000
0013
0100
0020
0000
,
0031
1000
0001
0000
2000
0000
0000
0000
3001
0000
0000
0000
0100
0000
0000
0000
1010
0000
0000
0000
0000
0000
0000
0000
1000
0000
0000
0000
0001
0000
0000
0000
,
0010
0001
0010
0001
1000
1000
1200
0000
,
0310
0001
0100
0010
1000
0000
1000
0010
,
1000
0000
0010
0000
0100
0000
0001
1000
0100
1000
0100
0000
0020
0000
0030
0000
,
0110
0000
1001
0000
0001
0010
0001
0010
,
0100
1000
0010
0010
0201
0000
0310
1000
,
0100
0000
1000
0000
0010
M00M
0010
0000
0001
0000
0400
0000
0310
0000
0010
0000
,
1000
0100
0010
0001
2002
3003
0220
0330
,
1001
1001
1001
1001
1000
0010
0001
0010
,
1000
0000
0001
0000
1000
0000
0100
0010
0100
0000
0001
0000
0100
0010
0100
0000
,
1000
0010
0110
0000
0001
0100
0010
1000
,
0100
0000
0010
0001
0010
0000
0001
1000
0010
0000
0100
0000
0010
1000
0010
0000
,
1000
0000
0001
1000
0100
1000
0100
1000
0002
0000
0013
0000
1000
0000
0010
0000
,
0001
0000
1000
0000
0001
0000
0100
0010
0100
0000
1000
0000
0100
0010
0100
0000
,
0001
0010
0110
0000
1000
0100
0001
1000
,
0010
0000
0001
0010
0001
1000
0001
1000
0010
0000
1000
0000
0001
0000
1000
0000
,
1100
0011
0001
0100
1000
0100
0001
0010
,
0100
0000
0010
0100
0001
0000
0100
0000
0001
0100
0010
0000
0001
0000
0100
0000
,
0110
0000
0000
0000
1000
0000
0100
0000
0010
0000
0001
0000
0100
0000
0010
1000
,
0010
0000
1000
0001
0010
0000
0100
0000
0010
0001
0010
0000
0001
0000
1000
0001
,
0100
0001
0100
0001
2000
0000
0000
0000
3100
0000
0100
0000
0010
0000
0001
0000
,
1000
0000
0010
0100
1000
0000
0100
0000
1000
0100
0010
0000
1000
0000
0100
0000
,
0110
0000
0001
0010
1000
0001
0100
1000
,
0010
0100
0010
0100
0010
0000
0000
0000
0010
0000
0000
0000
0010
0000
0100
0000
,
0040
0000
0000
0000
0000
0000
0000
0000
0000
0000
0000
0000
0000
0000
0000
0030
1010
0000
0000
0000
0000
0000
0000
0000
0000
0000
0000
0000
0000
0000
0000
0000
0101
0000
0000
0000
0000
0000
0000
0000
1000
0000
0000
0000
0010
0000
0000
0000
1000
0000
0000
0000
0000
0000
0000
0000
0100
0000
0000
0000
0000
0000
0000
0000
,
1000
0000
0100
0000
0011
0000
0000
0000
1100
0000
0001
0010
0001
0000
0100
0000
,
0001
0000
0100
0000
1010
0000
0000
0000
0101
0000
0010
1000
0010
0000
0100
0000
,
0001
1000
0100
0100
0010
0001
0100
0100
,
0010
0000
1000
0000
1100
0000
0000
0000
0101
0000
1000
0100
1000
0000
0010
0000
,
1000
0000
0010
0000
0101
0000
0000
0000
1100
0000
0001
0100
0001
0000
0010
0000
,
0001
0000
0010
0000
1100
0000
0000
0000
0101
0000
1000
0001
1000
0000
0100
0000
,
1000
0001
0100
0000
0100
0000
0100
0010
,
0400
0000
0000
0000
0000
0000
0000
0000
0000
0000
0000
0000
0000
0000
0000
0300
0101
0000
0000
0000
0000
0000
0000
0000
0000
0000
0000
0000
0000
0000
0000
0000
0011
0000
0000
0000
0000
0000
0000
0000
1000
0000
0000
0000
0010
0000
0000
0000
1000
0000
0000
0000
0000
0000
0000
0000
0010
0000
0000
0000
0000
0000
0000
0000
,
0001
0000
0010
0000
1010
0000
0000
0000
1100
0000
0001
0010
0001
0000
0010
0000
,
1000
0010
0011
0000
1100
0001
0100
0001
,
1000
0100
1001
0000
1010
0012
0000
0013
,
1010
0000
0000
0000
1100
0000
0000
0000
1010
0000
0001
0100
0001
0000
0100
0000
,
1000
0000
0100
0000
0101
0000
0000
0000
0011
0000
1000
0100
1000
0000
0100
0000
,
0001
0100
1100
0000
0011
1000
0010
0100
,
0010
1000
0002
0000
0003
1000
2000
0000
,
3000
0000
2001
0000
0000
0000
3001
0100
,
1001
0000
0001
0010
1000
0010
0001
1000
,
0010
0010
0201
0000
0310
1000
0100
0010
,
0001
0000
0000
0000
0001
0000
0100
0000
1000
0000
0100
0000
0001
0000
0010
0100
,
1000
0100
1000
0000
0002
0000
0003
0000
1010
0000
0000
0000
0101
0000
0000
0000
,
0001
0010
1000
0010
0001
0100
0001
0001
,
2100
0000
0000
0000
3010
0000
1000
0000
0100
0000
1000
0000
0010
M00M
0010
0000
,
0002
1000
1000
0000
1003
1000
0110
0000
,
1002
0000
0000
0000
1003
0100
1001
0000
,
1000
0010
0001
0010
1000
0001
0010
0010
,
1200
0000
0310
0001
0100
0010
1000
0000
,
1000
0000
0100
0000
0001
0000
0100
0000
1000
0000
0100
1000
0001
1000
0020
0000
,
0000
0030
1001
0000
0110
0000
1000
0010
,
0001
0010
1000
0100
1000
1000
0102
0000
,
0013
0000
0001
0000
0100
0000
0001
0000
0010
M00M
0010
0000
1000
0000
0400
0000
,
0310
0000
0000
0000
0001
0000
0000
0000
0100
0000
0000
0000
0010
0000
0000
0000
4000
0000
0000
0000
0000
0000
0000
0000
3002
0000
0000
0000
0000
0000
0103
0010
,
2000
3200
0000
0000
0000
0000
0300
0000
;

//---------------dance-single - ----------------
#NOTEDATA:;
#CHARTNAME:;
#STEPSTYPE:dance-single;
#DESCRIPTION:;
#CHARTSTYLE:;
#DIFFICULTY:Hard;
#METER:13;
#RADARVALUES:0.653305,0.709657,0.496897,0.370567,0.063165,543.000000,484.000000,59.000000,44.000000,8.000000,0.000000,0.000000,0.000000,0.000000,0.653305,0.709657,0.496897,0.370567,0.063165,543.000000,484.000000,59.000000,44.000000,8.000000,0.000000,0.000000,0.000000,0.000000;
#CREDIT:;
#OFFSET:-0.001379;
#BPMS:0.000000=95.000000
,32.000000=190.000000
,60.000000=95.000000
,63.000000=190.000000
,72.000000=380.000000
,72.500000=190.000000
,72.750000=95.000000
,73.000000=190.000000
,77.000000=95.000000
,78.000000=190.000000
,92.000000=95.000000
,93.000000=190.000000
,102.000000=380.000000
,102.500000=190.000000
,102.750000=95.000000
,103.000000=190.000000
,107.000000=95.000000
,108.000000=190.000000
,122.000000=95.000000
,126.000000=190.000000
,156.000000=380.000000
,156.500000=95.000000
,157.000000=190.000000
,173.000000=95.000000
,173.250000=190.000000
,173.500000=380.000000
,174.000000=190.000000
,188.000000=380.000000
,189.000000=190.000000
,220.000000=380.000000
,221.000000=190.000000
,253.000000=95.000000
,254.000000=190.000000
,263.000000=380.000000
,263.500000=190.000000
,263.750000=95.000000
,264.000000=190.000000
,268.000000=95.000000
,269.000000=190.000000
,283.000000=95.000000
,284.000000=190.000000
,293.000000=380.000000
,293.500000=190.000000
,293.750000=95.000000
,294.000000=190.000000
,298.000000=95.000000
,299.000000=190.000000
,313.000000=95.000000
;
#STOPS:156.000000=0.236838
,188.000000=0.039473
,188.250000=0.039473
,188.500000=0.039473
,188.750000=0.039473
,220.000000=0.039473
,220.250000=0.039473
,220.500000=0.039473
,220.750000=0.039473
;
#DELAYS:;
#WARPS:;
#TIMESIGNATURES:0.000000=4=4
;
#TICKCOUNTS:0.000000=4
;
#COMBOS:0.000000=1
;
#SPEEDS:0.000000=1.000000=0.000000=0
,32.000000=1.500000=16.000000=0
,48.000000=2.000000=12.000000=0
;
#SCROLLS:0.000000=1.000000
,32.000000=0.500000
,61.000000=1.000000
,61.250000=0.500000
,61.500000=0.250000
,62.500000=0.500000
,62.750000=1.000000
,63.000000=0.500000
,77.000000=0.250000
,77.500000=0.500000
,77.750000=1.000000
,78.000000=0.500000
,107.000000=0.250000
,107.500000=0.500000
,107.750000=1.000000
,108.000000=0.500000
,268.000000=0.250000
,268.500000=0.500000
,268.750000=1.000000
,269.000000=0.500000
,297.500000=0.125000
,298.000000=0.250000
,298.500000=0.500000
,298.750000=1.000000
,299.000000=0.500000
;
#FAKES:;
#LABELS:0.000000=Song Start
;
#DISPLAYBPM:190.000000;
#NOTES:
// measure 0
0000
0000
0000
0000
,  // measure 1
0000
0000
0000
0000
,  // measure 2
0000
0000
0000
0000
,  // measure 3
0000
0000
0000
0000
,  // measure 4
0002
0000
0000
0000
0000
0000
0103
0010
2000
0000
0000
0000
3200
0000
0000
0000
,  // measure 5
0320
0032
0203
0000
,  // measure 6
0320
0000
0000
0000
0000
0000
1030
0001
0020
0000
0000
0000
0230
0000
0000
0000
,  // measure 7
0320
0000
0000
0000
0000
0000
0031
1000
0020
0000
0000
0000
0000
0000
0000
0000
,  // measure 8
1030
1000
0010
0010
,  // measure 9
0100
0100
0001
0001
,  // measure 10
1000
1000
0100
0100
,  // measure 11
0010
0010
0001
1000
,  // measure 12
0001
0100
0001
0100
0010
1000
0010
1000
,  // measure 13
0100
1000
0100
1000
0001
0010
0001
0010
,  // measure 14
0001
0100
1000
0100
0001
0010
1000
0010
,  // measure 15
0001
1000
0010
1000
0002
0000
0000
0000
2003
0000
0000
0000
3100
0000
0010
0000
,  // measure 16
0011
0000
0001
0010
0001
0010
0001
1000
,  // measure 17
0010
0000
0201
0000
0310
0100
0001
0000
,  // measure 18
1010
0000
0001
0100
0001
0100
0010
1000
,  // measure 19
1000
0100
0020
0000
0130
0000
1001
0000
,  // measure 20
1000
0100
1000
0100
1000
0001
0100
0000
,  // measure 21
1020
0000
1030
0010
0100
0001
0010
0100
,  // measure 22
2000
0000
3001
1000
0010
0100
0020
0000
,  // measure 23
1030
1000
1000
0000
0001
0000
1000
0000
1010
0000
0000
0000
1000
0000
0010
0000
,  // measure 24
1000
0010
1000
0001
0010
0000
1200
0000
,  // measure 25
0310
0100
1000
0000
0011
0000
1000
0100
,  // measure 26
1000
0100
0010
0001
0001
0100
0020
0000
,  // measure 27
0130
0000
1001
0000
0001
0100
0001
0100
,  // measure 28
0001
1000
0100
0000
0021
0000
0031
0010
,  // measure 29
0100
1000
0010
0100
0001
0010
1000
0010
,  // measure 30
0001
0100
0010
1000
2002
3003
0220
0330
,  // measure 31
1001
1001
1001
1001
1000
0010
1000
0001
,  // measure 32
1000
0000
0100
0000
1000
0000
0010
M00M
0010
0000
0001
0000
0100
0000
0100
0000
,  // measure 33
0001
0010
1010
0000
0001
0010
0001
0100
,  // measure 34
1000
1000
0100
0001
0010
0100
0001
0100
,  // measure 35
0010
0010
0001
1000
0001
0010
0001
1000
,  // measure 36
0001
0000
0100
0000
0001
0000
0010
M00M
0010
0000
1000
0000
0100
0000
0100
0000
,  // measure 37
1000
0010
0011
0000
0001
1000
0100
1000
,  // measure 38
0010
0100
0001
0001
0010
0100
1000
0010
,  // measure 39
1010
0101
0001
0100
0010
1000
0100
0010
,  // measure 40
0001
0000
0100
M00M
0100
0000
1000
0000
0010
0000
0010
0000
1000
0000
0100
0000
,  // measure 41
0101
0000
1000
0010
1000
0100
0001
0001
,  // measure 42
0100
1000
0010
0100
1000
0100
0010
0010
,  // measure 43
1000
0001
0020
0000
0031
0001
1000
0010
,  // measure 44
1000
0000
0100
M00M
0100
0000
0001
0000
0010
0000
0010
0000
0001
0000
0100
0000
,  // measure 45
1100
0000
1000
0100
0001
1000
0010
0001
,  // measure 46
1000
1000
1000
0000
1000
0000
1000
0010
,  // measure 47
2000
0000
3001
0000
0011
0001
0100
0010
,  // measure 48
1000
0000
0100
0000
1000
0000
0000
0000
1010
0000
0000
0110
0000
0000
1010
0000
,  // measure 49
0001
0100
0001
0000
1100
0100
0010
0001
,  // measure 50
0100
0010
1000
1000
0100
0010
0001
0001
,  // measure 51
0100
0010
1000
0000
1010
1000
0100
0010
,  // measure 52
0001
0000
0100
0000
0001
0000
0000
0000
0011
0000
0000
0110
0000
0000
0011
0000
,  // measure 53
1000
0100
1000
0000
0101
0100
0010
1000
,  // measure 54
0100
0010
0001
0000
0001
0000
0001
0010
,  // measure 55
0002
0000
1003
0000
1010
0001
0100
0001
,  // measure 56
1000
0000
0001
0000
0010
0000
0000
0000
0011
0000
0000
1001
0000
0000
1010
0000
,  // measure 57
1000
0001
0010
0000
0011
1000
0100
1000
,  // measure 58
0001
1000
0010
0000
1000
1100
0000
0001
,  // measure 59
0101
0000
1001
0000
0011
0100
1000
0010
,  // measure 60
0100
0000
0010
0000
1000
0000
0000
0000
1001
0000
0000
0011
0000
0000
0110
0000
,  // measure 61
0010
0001
1000
0000
1010
0100
0001
0010
,  // measure 62
0100
0010
0002
0000
0003
1000
2000
0000
,  // measure 63
3000
0000
2002
3003
0001
0100
0110
0000
,  // measure 64
1000
0100
1000
0100
0010
0001
0100
0000
,  // measure 65
1020
0000
0130
0001
0010
0000
1100
0000
,  // measure 66
0010
0001
0010
0001
1000
0010
0010
0100
,  // measure 67
0002
0000
0013
0000
1001
0000
0001
0100
,  // measure 68
0010
1000
0100
0010
0001
0000
1002
0000
,  // measure 69
0013
0001
0100
1000
0100
0001
0010
0010
,  // measure 70
0010
0000
0001
1000
1010
0000
0202
0300
,  // measure 71
1003
0100
0110
0000
0001
0100
0001
0100
,  // measure 72
0010
1000
0100
0000
0021
0000
0130
1000
,  // measure 73
0010
0000
0101
0000
0010
1000
0010
1000
,  // measure 74
0001
0010
0001
2001
0000
0000
3010
0000
,  // measure 75
1001
0000
1000
0100
0010
0001
0100
0010
,  // measure 76
1000
0000
2001
0000
3010
1000
0100
0001
,  // measure 77
0100
1000
0001
0010
1000
0010
0001
0100
,  // measure 78
0020
0000
0000
0000
2030
0000
0000
0000
0000
0000
3100
0010
0002
0000
0000
0000
,  // measure 79
0203
0000
0000
0000
,  // measure 80
0000
0300
0000
0000
;

//---------------dance-single - ----------------
#NOTEDATA:;
#CHARTNAME:;
#STEPSTYPE:dance-single;
#DESCRIPTION:;
#CHARTSTYLE:;
#DIFFICULTY:Medium;
#METER:10;
#RADARVALUES:0.496897,0.800088,0.286347,0.345301,0.067376,413.000000,379.000000,34.000000,41.000000,0.000000,0.000000,1.000000,0.000000,0.000000,0.496897,0.800088,0.286347,0.345301,0.067376,413.000000,379.000000,34.000000,41.000000,0.000000,0.000000,1.000000,0.000000,0.000000;
#CREDIT:;
#OFFSET:-0.001379;
#BPMS:0.000000=95.000000
,46.000000=190.000000
,47.000000=95.000000
,48.000000=190.000000
,61.500000=95.000000
,62.500000=190.000000
,76.500000=95.000000
,77.500000=190.000000
,91.000000=95.000000
,92.000000=190.000000
,106.000000=95.000000
,110.000000=190.000000
,251.500000=95.000000
,252.500000=190.000000
,281.000000=95.000000
,282.000000=190.000000
,296.000000=95.000000
;
#STOPS:46.000000=0.947369
,57.000000=0.157892
,86.500000=0.157892
,140.000000=0.157889
,140.500000=0.157892
,237.000000=0.315786
,247.000000=0.157889
,266.500000=0.315786
,276.500000=0.157889
;
#DELAYS:;
#WARPS:;
#TIMESIGNATURES:0.000000=4=4
;
#TICKCOUNTS:0.000000=4
;
#COMBOS:0.000000=1
;
#SPEEDS:0.000000=1.000000=0.000000=0
,32.000000=1.500000=8.000000=0
,40.000000=2.000000=6.000000=0
;
#SCROLLS:0.000000=1.000000
,46.000000=0.500000
,280.500000=0.250000
,281.000000=0.500000
;
#FAKES:;
#LABELS:0.000000=Song Start
;
#DISPLAYBPM:190.000000;
#NOTES:
// measure 0
0000
0000
0000
0000
,  // measure 1
0000
0000
0000
0000
,  // measure 2
0000
0000
0000
0000
,  // measure 3
0000
0000
0000
0000
,  // measure 4
2000
0000
0000
0000
0000
0000
3001
0010
0002
0000
0000
0000
2003
0000
0000
0000
,  // measure 5
3020
2030
3002
0000
,  // measure 6
2003
0000
0000
0000
0000
0000
3100
0010
0002
0000
0000
0000
0203
0000
0000
0000
,  // measure 7
0320
0000
0000
0000
0000
0000
0130
0010
2000
0000
0000
0000
0000
0000
0000
0000
,  // measure 8
3001
0010
0001
0010
0100
1000
0100
1000
,  // measure 9
0001
0100
0001
0100
0010
1000
0010
1000
,  // measure 10
0001
0010
0001
0010
0100
1000
0100
1000
0001
0100
0001
0100
0010
1000
0010
1000
,  // measure 11
0400
0000
0300
1200
,  // measure 12
0310
0001
1000
0000
0001
0100
0001
0000
,  // measure 13
0110
0000
0001
0100
0002
0000
1003
0100
,  // measure 14
0010
0000
0011
1000
0000
0010
0000
1000
,  // measure 15
0010
1000
0010
0200
0000
0310
0000
1001
,  // measure 16
0000
1000
0010
1000
0000
0011
0000
1000
,  // measure 17
0100
2000
0000
3001
0010
0001
0000
1100
,  // measure 18
0000
0202
0000
0303
0000
0010
1000
0010
,  // measure 19
0000
0100
0100
0010
1000
0001
0000
1000
,  // measure 20
0100
1000
0000
0110
0000
1000
0100
2000
,  // measure 21
0000
3001
0100
0010
0000
1010
0001
0000
,  // measure 22
0010
0000
0001
0010
0001
0010
0200
0000
,  // measure 23
0310
0000
1001
0000
0001
0010
0001
0000
,  // measure 24
1010
0000
0001
0100
0002
0000
1003
0010
,  // measure 25
1000
0011
1000
0100
,  // measure 26
0010
0000
0001
0000
2002
3003
0220
0330
,  // measure 27
1001
1001
1001
1001
1000
0000
0010
0000
,  // measure 28
0100
0000
0010
1000
0100
0000
0010
0000
,  // measure 29
0100
0010
0001
0000
0100
0000
0100
0000
,  // measure 30
0010
1000
0001
0000
0010
0001
1000
0000
,  // measure 31
0010
1000
0001
1000
0001
0000
0010
0000
,  // measure 32
0100
0000
0010
0001
0100
0000
0010
0000
,  // measure 33
0100
0010
1000
0000
0001
0000
0010
0000
,  // measure 34
0100
0010
0001
1000
0010
0000
0100
0000
,  // measure 35
0110
1001
0001
0000
0100
0000
0010
0000
,  // measure 36
0001
0010
0100
0000
0001
0000
0010
0100
,  // measure 37
1000
0000
0100
0000
0100
0000
0010
0001
,  // measure 38
1000
0000
0010
1000
0001
0000
0010
0001
,  // measure 39
1000
0001
2000
0000
3100
0000
0010
0000
,  // measure 40
1000
0010
0100
0000
1000
0000
0010
0100
,  // measure 41
0001
0000
1000
0000
0010
0000
0100
0010
,  // measure 42
1000
0001
0010
0000
0010
0000
0010
0100
,  // measure 43
0020
0000
0031
0000
1000
0010
0000
0010
,  // measure 44
1000
0000
0000
0000
0001
0000
0000
0000
1000
0000
0000
0100
0000
0000
0100
0000
,  // measure 45
1000
0000
0001
0000
1000
0010
0000
0010
,  // measure 46
1000
0000
0010
1000
0001
0000
0001
1000
,  // measure 47
0100
0000
1000
0000
0001
0010
0000
0010
,  // measure 48
0001
0000
0000
0000
1000
0000
0000
0000
0001
0000
0000
0100
0000
0000
0100
0000
,  // measure 49
0001
0000
1000
0000
0001
0010
0000
0010
,  // measure 50
0001
0000
0100
0000
0100
0000
0100
0010
,  // measure 51
0200
0000
0301
0000
1000
0100
0000
1000
,  // measure 52
0001
0000
0000
0000
1000
0000
0000
0000
0010
0000
0000
0100
0000
0000
0010
0000
,  // measure 53
1000
0000
0001
0000
0010
0100
0000
0010
,  // measure 54
0001
0000
1000
0000
0010
1000
0000
1000
,  // measure 55
0100
0000
1000
0000
0001
0100
0000
0001
,  // measure 56
1000
0000
0000
0000
0001
0000
0000
0000
0010
0000
0000
0100
0000
0000
0010
0000
,  // measure 57
0001
0000
1000
0000
0010
0100
0000
0010
,  // measure 58
1000
0002
0003
2000
,  // measure 59
3000
0000
1001
0000
1000
0001
1000
0000
,  // measure 60
0001
0010
0001
0000
0110
0000
1000
0010
,  // measure 61
2000
0000
3001
1000
0100
0000
0011
1000
,  // measure 62
0000
0010
0000
1000
0001
0010
0001
0020
,  // measure 63
0000
0130
0000
1001
0000
1000
0010
1000
,  // measure 64
0000
0110
0000
0001
0100
0002
0000
0013
,  // measure 65
0100
1000
0000
0110
0000
2002
0000
3003
,  // measure 66
0000
0001
0000
0011
0000
2010
0000
3001
,  // measure 67
1000
0001
0000
1000
0010
1000
0000
0110
,  // measure 68
0000
0001
0010
0002
0000
1003
0001
0100
,  // measure 69
0000
1010
0001
0000
0010
0000
0001
0010
,  // measure 70
0100
2000
0000
0000
3010
0000
1001
0000
,  // measure 71
0001
0010
0001
0000
0110
0000
1000
0100
,  // measure 72
2000
0000
3010
0100
0001
0000
0110
0000
,  // measure 73
0001
0010
0100
1000
,  // measure 74
0002
0000
0000
0000
0000
0000
1003
0010
2000
0000
0000
0000
3002
0000
0000
0000
,  // measure 75
0000
0000
0000
0000
,  // measure 76
0003
0000
0000
0000
;

//---------------dance-single - ----------------
#NOTEDATA:;
#CHARTNAME:;
#STEPSTYPE:dance-single;
#DESCRIPTION:;
#CHARTSTYLE:;
#DIFFICULTY:Easy;
#METER:8;
#RADARVALUES:0.389817,0.656914,0.421099,0.261081,0.000000,324.000000,274.000000,50.000000,31.000000,0.000000,0.000000,0.000000,0.000000,0.000000,0.389817,0.656914,0.421099,0.261081,0.000000,324.000000,274.000000,50.000000,31.000000,0.000000,0.000000,0.000000,0.000000,0.000000;
#CREDIT:;
#OFFSET:-0.001379;
#BPMS:0.000000=95.000000
,46.000000=190.000000
,111.000000=95.000000
,115.000000=190.000000
,304.000000=95.000000
;
#STOPS:46.000000=0.947369
,145.000000=0.315786
,242.000000=0.315786
,273.000000=0.315786
;
#DELAYS:;
#WARPS:;
#TIMESIGNATURES:0.000000=4=4
;
#TICKCOUNTS:0.000000=4
;
#COMBOS:0.000000=1
;
#SPEEDS:0.000000=1.000000=0.000000=0
;
#SCROLLS:0.000000=1.000000
;
#FAKES:;
#LABELS:0.000000=Song Start
;
#DISPLAYBPM:190.000000;
#NOTES:
// measure 0
0000
0000
0000
0000
,  // measure 1
0000
0000
0000
0000
,  // measure 2
0000
0000
0000
0000
,  // measure 3
0000
0000
0000
0000
,  // measure 4
2000
0000
0000
3001
0020
0000
0032
0000
,  // measure 5
2003
3020
2030
0000
,  // measure 6
3002
0000
0000
0103
0002
0000
2003
0000
,  // measure 7
3200
0000
0000
0310
0200
0000
0000
0000
,  // measure 8
1300
0001
1000
0001
,  // measure 9
1000
0001
1000
0001
,  // measure 10
1000
0001
1000
0001
1000
0001
1000
0001
,  // measure 11
1001
1001
1001
1001
0010
0000
2001
0000
,  // measure 12
0000
3001
0010
0100
,  // measure 13
0100
0010
0001
1000
,  // measure 14
0010
1000
1010
0001
,  // measure 15
0010
0001
0001
2001
,  // measure 16
0000
3001
1010
0001
,  // measure 17
0001
0010
0100
1000
,  // measure 18
0010
0100
0001
2000
,  // measure 19
0000
3001
0001
0002
,  // measure 20
0000
1003
0010
0100
,  // measure 21
0100
0010
1000
0001
,  // measure 22
0010
0001
0011
1000
,  // measure 23
0010
1000
1000
1002
,  // measure 24
0000
1003
0011
1000
,  // measure 25
1000
0010
0100
0001
,  // measure 26
0010
0100
1000
0010
,  // measure 27
0010
0000
0100
0000
0100
0000
2002
3003
,  // measure 28
0220
0330
1001
1001
1001
1001
1000
0000
,  // measure 29
0100
1000
0010
0001
,  // measure 30
0010
1000
0001
1000
,  // measure 31
0100
0010
0100
0001
,  // measure 32
0100
1000
0010
0010
,  // measure 33
0100
0001
0100
1000
,  // measure 34
0100
0001
0010
0100
,  // measure 35
1000
0010
0010
1000
,  // measure 36
0100
0010
0001
0100
,  // measure 37
0001
0010
1000
0010
,  // measure 38
0001
1000
0001
0100
,  // measure 39
0010
0100
1000
0100
,  // measure 40
0001
0020
0000
0130
,  // measure 41
1000
0100
0001
0100
,  // measure 42
1000
0010
0100
0001
,  // measure 43
0010
0100
1000
1000
,  // measure 44
1000
2000
3001
0101
,  // measure 45
0000
0101
0010
1010
,  // measure 46
0000
1010
0100
0101
,  // measure 47
0000
0101
0010
1000
,  // measure 48
0001
0010
0100
1100
,  // measure 49
0000
1100
0010
0011
,  // measure 50
0000
0011
0100
1100
,  // measure 51
0000
1100
0001
0001
,  // measure 52
0001
0002
1003
1010
,  // measure 53
0000
1010
0010
0011
,  // measure 54
0000
0011
0001
0101
,  // measure 55
0000
0101
0001
0100
,  // measure 56
0010
1000
0001
0011
,  // measure 57
0000
0011
0010
1010
,  // measure 58
0000
1010
1000
1100
,  // measure 59
0000
1100
0002
0003
,  // measure 60
2000
3000
1001
1000
,  // measure 61
0100
0010
0010
0100
,  // measure 62
1000
0001
0100
0001
,  // measure 63
0110
1000
0100
1000
,  // measure 64
1000
1002
0000
0013
,  // measure 65
1100
0001
0001
0100
,  // measure 66
0001
0010
1000
0010
,  // measure 67
0001
2000
0000
3010
,  // measure 68
0110
1001
0001
0100
,  // measure 69
0010
0010
0100
0001
,  // measure 70
1000
0100
1000
0110
,  // measure 71
0001
0000
0100
0000
0001
0000
0000
2001
,  // measure 72
0000
0000
3010
0101
,  // measure 73
1000
1000
0100
1000
,  // measure 74
0010
0001
0010
1000
,  // measure 75
0001
0010
0100
1000
,  // measure 76
0002
0000
0000
1003
0020
0000
2030
0000
,  // measure 77
0000
0000
0000
0000
,  // measure 78
3000
0000
0000
0000
;

//---------------dance-single - ----------------
#NOTEDATA:;
#CHARTNAME:;
#STEPSTYPE:dance-single;
#DESCRIPTION:;
#CHARTSTYLE:;
#DIFFICULTY:Beginner;
#METER:3;
#RADARVALUES:0.179268,0.341090,0.025266,0.143174,0.000000,149.000000,146.000000,3.000000,17.000000,0.000000,0.000000,0.000000,0.000000,0.000000,0.179268,0.341090,0.025266,0.143174,0.000000,149.000000,146.000000,3.000000,17.000000,0.000000,0.000000,0.000000,0.000000,0.000000;
#CREDIT:;
#OFFSET:-0.001379;
#BPMS:0.000000=190.000000
;
#STOPS:;
#DELAYS:;
#WARPS:;
#TIMESIGNATURES:0.000000=4=4
;
#TICKCOUNTS:0.000000=4
;
#COMBOS:0.000000=1
;
#SPEEDS:0.000000=1.000000=0.000000=0
;
#SCROLLS:0.000000=1.000000
;
#FAKES:;
#LABELS:0.000000=Song Start
;
#DISPLAYBPM:190.000000;
#NOTES:
0000
0000
0000
0000
,
0000
0000
0000
0000
,
0000
0000
0000
0000
,
0000
0000
0000
0000
,
0000
0000
0000
0000
,
0000
0000
0000
0000
,
0000
0000
0000
0000
,
0000
0000
0000
0000
,
2000
0000
0000
0000
,
3000
0000
0000
0000
,
0002
0000
0000
0000
,
0003
0000
0000
0000
,
0020
0000
0000
0000
,
0030
0000
0000
0000
,
0200
0000
0000
0000
,
0300
0000
0000
0000
,
0010
0000
0010
0000
,
0010
0000
0010
0000
,
0010
0000
0010
0000
,
0010
0000
0010
0000
,
0010
0010
0010
0010
,
0010
0010
0010
0010
,
0020
0000
0000
0000
,
0030
0000
0000
0000
,
0002
0000
0003
0000
,
0001
0000
0100
0000
,
0001
0000
0001
0000
,
1000
0000
0010
0000
,
2000
0000
3000
0000
,
1000
0000
0010
0000
,
1000
0000
1000
0000
,
0002
0000
0003
0000
,
2000
0000
3000
0000
,
1000
0000
0100
0000
,
1000
0000
1000
0000
,
0001
0000
0010
0000
,
0002
0000
0003
0000
,
0001
0000
0010
0000
,
0001
0000
0001
0000
,
1000
0000
0001
0000
,
2002
0000
0000
0000
,
3003
0000
0000
0000
,
1000
0000
0010
0000
,
1000
0000
0100
0000
,
0010
0000
0100
0000
,
1000
0000
0001
0000
,
1000
0000
0100
0000
,
1000
0000
0010
0000
,
0100
0000
0001
0000
,
1000
0000
1001
0000
,
0001
0000
0010
0000
,
0001
0000
0100
0000
,
0010
0000
0100
0000
,
0001
0000
1000
0000
,
0001
0000
0100
0000
,
0001
0000
0010
0000
,
0100
0000
1000
0000
,
0001
0001
0001
0000
,
1000
0000
0010
0000
,
1000
0000
0010
0000
,
1000
0000
0010
0000
,
1000
1000
1000
0000
,
0001
0000
0010
0000
,
0001
0000
0010
0000
,
0001
0000
0010
0000
,
0001
0001
0001
0000
,
1000
0000
0010
0000
,
0100
0000
0001
0000
,
0010
0000
0100
0000
,
1000
0000
0001
0000
,
0100
0000
0010
0000
,
1000
0000
0100
0000
,
0010
0000
0001
0000
,
0100
0000
0100
0000
,
2002
0000
3003
0000
,
0001
0000
0010
0000
,
0001
0000
0001
0000
,
1000
0000
0010
0000
,
2000
0000
3000
0000
,
1000
0000
0100
0000
,
1000
0000
1000
0000
,
0001
0000
1000
1000
,
2000
0000
3000
0000
,
1000
0000
0010
0000
,
1000
0000
1000
0000
,
0001
0000
0010
0000
,
0002
0000
0003
0000
,
0001
0000
0010
0000
,
0001
0000
0001
0000
,
0100
0000
0010
0000
,
1000
0000
0000
0000
;
