#VERSION:0.83;
#TITLE:KISS CANDY FLAVOR;
#SUBTITLE:;
#ARTIST:Colorful Sounds Port;
#TITLETRANSLIT:;
#SUBTITLETRANSLIT:;
#ARTISTTRANSLIT:;
#GENRE:Techno Pop;
#ORIGIN:;
#CREDIT:;
#BANNER:KISS CANDY FLAVOR.png;
#BACKGROUND:KISS CANDY FLAVOR-bg.png;
#PREVIEWVID:;
#JACKET:KISS CANDY FLAVOR-jacket.png;
#CDIMAGE:;
#DISCIMAGE:;
#LYRICSPATH:;
#CDTITLE:cdtitle.png;
#MUSIC:KISS CANDY FLAVOR.ogg;
#OFFSET:-0.355179;
#SAMPLESTART:69.402267;
#SAMPLELENGTH:13.150688;
#SELECTABLE:YES;
#BPMS:0.000=146.000;
#STOPS:;
#DELAYS:;
#WARPS:;
#TIMESIGNATURES:0.000=4=4;
#TICKCOUNTS:0.000=4;
#COMBOS:0.000=1;
#SPEEDS:0.000=1.000=0.000=0;
#SCROLLS:0.000=1.000;
#FAKES:;
#LABELS:0.000=Song Start;
#BGCHANGES:;
#KEYSOUNDS:;
#ATTACKS:
;

//---------------dance-single - ----------------
#NOTEDATA:;
#CHARTNAME:;
#STEPSTYPE:dance-single;
#DESCRIPTION:;
#CHARTSTYLE:;
#DIFFICULTY:Challenge;
#METER:14;
#RADARVALUES:0.709623,0.777300,0.175977,0.935880,0.451942,621.000000,599.000000,22.000000,117.000000,0.000000,0.000000,0.000000,0.000000,0.000000,0.709623,0.777300,0.175977,0.935880,0.451942,621.000000,599.000000,22.000000,117.000000,0.000000,0.000000,0.000000,0.000000,0.000000;
#CREDIT:;
#NOTES:
0000
0000
0000
0000
,
0000
0000
0000
0000
,
0000
0000
0000
0000
,
0000
0000
0000
0000
,
0012
0000
0100
0203
0000
0301
0100
0010
,
1000
0100
0001
0100
1000
0000
1000
0000
,
2010
0000
0100
3200
0000
1300
0100
0010
,
0001
0100
1000
0100
0001
1000
0100
0000
,
0120
0000
0001
0032
0000
0013
0001
0100
,
1000
0100
0001
0010
0100
0000
0010
0001
,
2000
0000
3020
0000
2030
0000
3001
0012
,
0000
0000
0013
0001
0010
0001
2000
0000
0000
0000
3010
1000
0010
1000
0001
0010
,
0200
0310
0002
2003
3001
2000
3020
0230
,
0301
0000
2000
0000
3200
0000
0310
0001
1000
0001
0100
0000
0001
1000
0100
0000
,
0020
0031
2000
3020
1030
0020
0230
0302
,
1003
0000
0200
0000
0320
0000
0130
1000
0001
1000
0010
0000
0100
0001
1000
0000
,
0002
0013
0200
2300
3100
2000
3020
0230
,
0301
0000
2000
0000
3020
0000
0130
0001
1000
0001
0010
0000
0001
1000
0010
0000
,
0200
0310
2000
3002
1003
0002
0023
0230
,
1300
0000
0001
0100
0010
1000
0010
1000
0001
1000
0001
1000
0001
0010
0100
1000
,
0001
0000
0100
0001
0100
0000
0201
0000
0000
0000
0310
0000
1000
0000
1000
0000
,
0001
0000
1000
0100
1000
0100
0020
0000
0030
0000
0100
0000
0010
0100
1000
0000
,
0001
0000
0100
0001
0100
0000
0201
0000
0000
0000
0310
0000
1000
0000
0100
0000
,
0001
0000
0000
0100
0000
0000
1000
0000
0000
0010
0000
0000
0100
0000
0000
0010
1000
0010
1000
0000
0000
0001
0000
0000
,
1000
0000
0100
1000
0100
0000
1200
0000
0000
0000
0310
0000
0001
0000
0001
0000
,
1000
0000
0001
0100
0001
0100
0020
0000
0030
0000
0100
0000
0010
0100
0001
0000
,
1000
0100
0010
0012
0000
0013
0001
0200
,
0000
0000
0301
0000
0100
0000
1000
0000
0100
0000
0010
1000
0010
1000
0001
1000
,
0100
0000
1000
0100
1000
0000
2100
0000
0000
0000
3001
0000
0010
0000
0010
0000
,
0001
0000
1000
0010
1000
0010
0200
0000
0300
0000
0010
0000
0100
0001
1000
0000
,
0100
0000
1000
0100
1000
0000
2100
0000
0000
0000
3001
0000
0100
0000
0010
0000
,
1000
0000
0000
0100
0000
0000
0001
0000
0000
0100
0000
0000
0010
0000
0000
0001
1000
0001
1000
0000
0000
0010
0000
0000
,
0100
0000
0001
0100
0001
0000
0102
0000
0000
0000
1003
0000
0010
0000
0010
0000
,
1000
0000
0001
0010
0001
0010
0200
0000
0300
0000
0010
0000
0100
1000
0001
0000
,
1000
0010
0100
0201
0000
0310
1000
0200
,
0000
0000
1300
0000
0100
0000
0001
0000
0100
0000
0000
0000
0110
0000
0100
1000
,
0002
0100
0103
0020
0130
2000
3100
0020
,
0130
0000
0002
0000
1003
0000
0001
0010
0001
0000
1000
0010
0100
0001
0100
0001
,
2000
0000
0100
0000
3100
0000
0020
0000
0130
0000
0002
0000
0103
0000
0010
0100
,
2000
3000
0020
0030
0200
0300
0002
0000
1000
0000
1003
0000
0001
0000
0010
0000
,
0200
1000
1300
0002
0103
0020
1030
0001
,
0220
0330
2002
3003
,
1000
0000
0000
0000
0000
0000
0010
0000
0000
1000
0000
0000
0001
0000
0000
0000
0000
0000
2000
0000
0000
0000
0000
0000
3100
0000
0000
0000
0000
0000
1000
0000
0000
0000
0000
0000
0100
0000
0000
0000
0000
0000
0010
0000
0001
0000
0010
0000
,
0001
0000
0000
1000
0000
0000
0001
0000
0000
0200
0000
0000
1300
0000
0000
0200
0000
0000
0301
0000
0000
1000
0001
1000
,
0001
0000
0000
0000
0000
0000
0010
0000
0000
0001
0000
0000
1000
0000
0000
0000
0000
0000
0002
0000
0000
0000
0000
0000
0103
0000
0000
0000
0000
0000
0001
0000
0000
0000
0000
0000
0100
0000
0000
0000
0000
0000
0010
0000
1000
0000
0010
0000
,
1000
0000
0100
0000
0001
0000
0200
0000
1300
0000
0001
0100
0020
0000
0000
0000
,
1030
0000
0000
0000
0000
0000
0010
0000
0000
1000
0000
0000
0100
0000
0000
0000
0000
0000
2000
0000
0000
0000
0000
0000
3100
0000
0000
0000
0000
0000
0010
0000
0000
0000
0000
0000
0001
0000
0000
0000
0000
0000
1000
0000
0010
0000
1000
0000
,
0010
1000
0100
0002
0103
2000
3001
2000
,
3010
0000
0100
0001
0100
0000
0010
0000
1000
0010
1000
0000
0001
0000
0010
0000
,
0100
0000
0010
0100
0010
0100
0010
0001
1000
0000
0001
0100
0010
1000
0010
1000
,
0001
0000
0000
0000
0000
0000
0010
0000
0000
0001
0000
0000
1000
0000
0000
0000
0000
0000
0002
0000
0000
0000
0000
0000
0103
0000
0000
0000
0000
0000
0001
0000
0000
0000
0000
0000
0100
0000
0000
0000
0000
0000
0010
0000
1000
0000
0010
0000
,
1000
0000
0000
0001
0000
0000
1000
0000
0000
0200
0000
0000
0301
0000
0000
0200
0000
0000
1300
0000
0000
0001
1000
0001
,
1000
0000
0000
0000
0000
0000
0010
0000
0000
1000
0000
0000
0001
0000
0000
0000
0000
0000
2000
0000
0000
0000
0000
0000
3100
0000
0000
0000
0000
0000
1000
0000
0000
0000
0000
0000
0100
0000
0000
0000
0000
0000
0010
0000
0001
0000
0010
0000
,
0001
0000
0100
0000
1000
0000
0200
0000
0301
0000
1000
0100
0020
0000
0000
0000
,
0031
0000
0000
0000
0000
0000
0010
0000
0000
0001
0000
0000
0100
0000
0000
0000
0000
0000
0002
0000
0000
0000
0000
0000
0103
0000
0000
0000
0000
0000
0010
0000
0000
0000
0000
0000
1000
0000
0000
0000
0000
0000
0001
0000
0010
0000
0001
0000
,
0010
0001
0100
2000
3100
0002
1003
0002
,
0013
0000
0100
1000
0100
0000
0010
0000
0001
0010
0001
0000
1000
0000
2010
0000
,
0000
0000
3010
1000
0010
1000
0002
0000
0000
0000
0013
0001
0010
0001
1000
0010
,
0100
0000
0000
0000
0000
0000
0001
0000
0000
1000
0000
0000
0100
0000
0000
0000
0000
0000
0020
0000
0000
0000
0000
0000
1030
0000
0000
0000
0000
0000
0010
0000
0000
0000
0000
0000
0001
0000
0000
0000
0000
0000
1000
0000
0010
0000
1000
0000
,
0010
0100
0001
1000
0100
0010
0100
0100
,
0010
0000
0100
0000
0100
0000
0010
0000
0100
0000
0100
0000
0100
0000
0010
0100
,
0000
0010
0100
0000
0010
0100
0010
0100
0010
0001
0100
0010
2000
0000
0000
0000
,
3100
0000
0000
0000
0000
0000
1000
0000
0000
0001
0000
0000
0100
0000
0000
0000
0000
0000
0020
0000
0000
0000
0000
0000
0031
0000
0000
0000
0000
0000
0010
0000
0000
0000
0000
0000
1000
0000
0000
0000
0000
0000
0001
0000
0010
0000
0001
0000
,
0010
0100
1000
0001
0100
0010
0100
0100
,
0010
0000
0100
0000
0100
0000
0010
0000
0100
0000
0100
0000
0100
0000
0010
1000
,
0000
1000
0001
0000
1000
0010
1000
0010
1000
0001
1000
0001
1000
0100
0010
0001
,
0200
0000
0310
1000
0200
0000
0310
0001
,
0100
1000
0100
0002
0000
0023
0000
0031
,
0200
0000
0310
1000
0200
0000
1300
0100
,
0001
0000
0100
0000
1000
0000
0010
0000
0100
0000
0000
0000
0110
0000
0100
0002
,
2000
0000
0000
3003
,
0220
0000
0000
0330
,
0022
0000
0033
2200
0000
0000
3300
0022
,
0000
0000
0000
0000
0000
0000
0000
0000
0033
0000
0000
0000
0101
0000
0100
0020
,
2000
0000
0000
3030
;

//---------------dance-single - ----------------
#NOTEDATA:;
#CHARTNAME:;
#STEPSTYPE:dance-single;
#DESCRIPTION:;
#CHARTSTYLE:;
#DIFFICULTY:Hard;
#METER:11;
#RADARVALUES:0.534789,0.568027,0.335957,0.551929,0.039995,468.000000,426.000000,42.000000,69.000000,0.000000,0.000000,0.000000,0.000000,0.000000,0.534789,0.568027,0.335957,0.551929,0.039995,468.000000,426.000000,42.000000,69.000000,0.000000,0.000000,0.000000,0.000000,0.000000;
#CREDIT:;
#NOTES:
0000
0000
0000
0000
,
0000
0000
0000
0000
,
0000
0000
0000
0000
,
0000
0000
0000
0000
,
1002
0000
0100
0203
0000
0010
0310
0000
,
1000
0010
0100
0001
1000
0000
1001
0000
,
2001
0000
0100
3200
0000
0010
0310
0000
,
0100
1000
0010
0100
0001
0000
0100
0000
,
2001
0000
0010
3020
0000
0100
0130
0000
,
0001
0010
0100
1000
0001
0000
1000
0010
,
1000
0000
0011
0000
1010
0000
0001
0012
,
0000
0103
0010
2010
0000
3100
0010
0001
,
1001
0000
0010
1000
0000
1000
0100
0001
,
0000
0001
0100
1000
0001
0000
0110
0000
,
1001
0000
0010
0001
0000
0001
0100
1000
,
0000
1000
0100
0001
1000
0000
0110
0000
,
1001
0000
0100
1000
0000
1000
0010
0001
,
0000
0001
0010
1000
0100
0000
0110
0000
,
1001
0000
0100
0001
0000
0001
0010
0100
,
2200
0000
0000
3300
,
0001
0100
0100
0002
0000
0103
0100
0010
,
1000
0100
0010
0001
0000
0010
0001
1000
,
0001
0100
0100
0002
0000
0103
0100
0001
,
0010
0001
0100
0010
1000
0000
0101
0000
,
1000
0100
0100
2000
0000
3100
0100
0010
,
0001
0100
0010
1000
0000
1000
0100
0010
,
0001
1000
1000
0002
0000
0103
0010
2000
,
0000
3010
1000
0100
0010
0001
0100
0001
,
1000
0010
0010
2000
0000
3010
0010
0100
,
0001
0010
0100
1000
0000
0100
1000
0001
,
1000
0010
0010
2000
0000
3010
0010
1000
,
0100
1000
0010
0100
0001
0000
1010
0000
,
0001
0010
0010
0002
0000
0013
0010
0100
,
1000
0010
0100
0001
0000
0001
0010
0100
,
1000
0001
0001
2000
0000
3010
0100
0002
,
0000
0000
0103
0000
0001
0000
0010
0000
0001
0000
0000
0000
1001
0000
0001
1000
,
0001
0100
0001
0100
0010
1000
0010
1000
,
0001
0100
0001
0100
0010
0100
1000
0100
,
0001
1000
0001
1000
0100
0010
0100
0010
,
0100
0001
0100
0010
0100
1000
0100
1000
,
0001
0100
0001
1000
0100
1000
0001
0100
,
0220
0330
2002
3003
,
2010
0000
3001
0020
0000
0031
0100
0001
,
1000
0100
0010
0100
1100
0000
1100
0000
,
2010
0000
3001
0020
0000
0031
0100
0001
,
1000
0000
0100
0000
0010
0000
0001
0000
0100
0000
0010
1000
0010
0000
0000
0000
,
2010
0000
3001
0020
0000
0031
0100
0001
,
1000
0100
0010
0100
1100
0000
1000
0100
,
0002
0203
2300
3020
,
0032
0000
0000
0000
0023
0000
0000
0000
1030
0000
0001
1000
0001
0000
0000
0000
,
0012
0000
1003
0020
0000
1030
0100
1000
,
0001
0100
0010
0100
0101
0000
0101
0000
,
0012
0000
1003
0020
0000
1030
0100
1000
,
0001
0000
0100
0000
0010
0000
1000
0000
0100
0000
0010
0001
0010
0000
0000
0000
,
0012
0000
1003
0020
0000
1030
0100
1000
,
0001
0100
0010
0100
0101
0000
0001
0100
,
2000
0000
3200
0000
0302
0000
1003
2010
,
0000
3100
0010
0012
0000
0103
0010
1000
,
1002
0000
0010
0023
0000
0100
0130
1000
,
0001
0100
0010
0100
0001
0000
0100
1000
,
0000
0000
0100
0000
0001
0000
0000
0000
0100
0000
1000
0000
0100
0000
0001
0100
,
0000
0001
0100
0000
1000
0000
0100
0000
0001
0000
0100
0000
0110
0000
0000
0000
,
2001
0000
0010
3020
0000
0100
0130
0001
,
1000
0100
0010
0100
1000
0000
0100
0001
,
0000
0000
0100
0000
1000
0000
0000
0000
0100
0000
0001
0000
0100
0000
1000
0100
,
0000
1000
0010
0000
0001
0000
0010
0000
1000
0000
0100
0000
0001
0000
0100
0000
,
2000
0000
3010
1000
0002
0000
0013
0001
,
1000
0010
1000
0200
0000
0320
0000
0031
,
0200
0000
0301
1000
0200
0000
1300
0001
,
0100
0000
0010
0000
1000
0000
0001
0000
0010
0000
0000
0000
0001
0000
1000
0002
,
2000
0000
0000
3003
,
0202
0000
0000
0303
,
2200
0000
3300
0220
0000
0000
0330
0022
,
0000
0000
0000
0000
0000
0000
0000
0000
0033
0000
0000
0000
1000
0000
0001
2000
,
0002
0000
0000
3003
;

//---------------dance-single - ----------------
#NOTEDATA:;
#CHARTNAME:;
#STEPSTYPE:dance-single;
#DESCRIPTION:;
#CHARTSTYLE:;
#DIFFICULTY:Medium;
#METER:9;
#RADARVALUES:0.429659,0.418546,0.215972,0.575926,0.000000,376.000000,349.000000,27.000000,72.000000,0.000000,0.000000,0.000000,0.000000,0.000000,0.429659,0.418546,0.215972,0.575926,0.000000,376.000000,349.000000,27.000000,72.000000,0.000000,0.000000,0.000000,0.000000,0.000000;
#CREDIT:;
#NOTES:
// measure 0
0000
0000
0000
0000
,  // measure 1
0000
0000
0000
0000
,  // measure 2
0000
0000
0000
0000
,  // measure 3
0000
0000
0000
0000
,  // measure 4
1002
0000
0103
0002
0000
0103
0001
0000
,  // measure 5
1000
0000
0100
0010
0100
0000
0100
0000
,  // measure 6
2001
0000
3100
2000
0000
3100
1000
0000
,  // measure 7
0001
0000
0100
0010
1000
0000
0000
0000
,  // measure 8
1002
0000
0013
0002
0000
0013
0001
0000
,  // measure 9
0100
0000
0010
0100
0010
0000
1000
0001
,  // measure 10
1000
0000
0100
0000
0010
0000
0001
0200
,  // measure 11
0000
0310
1000
0200
0000
0310
0001
0000
,  // measure 12
1001
0000
0001
0100
0000
0010
0100
0010
,  // measure 13
0000
0100
0001
1000
0100
0000
0100
0000
,  // measure 14
1001
0000
1000
0100
0000
0010
0100
0010
,  // measure 15
0000
0100
1000
0001
0100
0000
0100
0000
,  // measure 16
1001
0000
1000
0010
0000
0100
0001
0100
,  // measure 17
0000
0010
1000
0001
0010
0000
0010
0000
,  // measure 18
1001
0000
0001
0010
0000
0001
0100
0010
,  // measure 19
2000
0000
0000
3000
,  // measure 20
1002
0000
0103
0001
2000
0000
3100
1000
,  // measure 21
0001
0000
0100
0200
0000
0310
0000
0010
,  // measure 22
2000
0000
3100
1000
0002
0000
0103
0000
,  // measure 23
0001
0010
0100
0010
0001
0000
0011
0000
,  // measure 24
2000
0000
3001
0100
0002
0000
1003
0100
,  // measure 25
1000
0000
0010
0020
0000
0130
0000
0010
,  // measure 26
1000
0000
0010
1000
0000
0001
1000
0001
,  // measure 27
0000
1000
0100
0010
0001
0000
0100
0000
,  // measure 28
2001
0000
3100
1000
0002
0000
0103
0001
,  // measure 29
1000
0000
0100
0200
0000
0310
0000
0010
,  // measure 30
0002
0000
0103
0001
2000
0000
3100
0000
,  // measure 31
1000
0010
0100
0010
1000
0000
1010
0000
,  // measure 32
0002
0000
1003
0100
2000
0000
3001
0100
,  // measure 33
0001
0000
0010
0020
0000
0130
0000
0010
,  // measure 34
0001
0000
0010
0001
0000
1000
0001
1000
,  // measure 35
0000
0001
0100
0001
0100
0000
0010
1000
,  // measure 36
0001
0001
0010
0010
,  // measure 37
1000
0000
0010
0000
0001
0100
0010
0000
,  // measure 38
1000
1000
0100
0100
,  // measure 39
1000
0001
0100
0001
1000
0000
0001
0000
,  // measure 40
0010
0100
1000
0010
,  // measure 41
2002
3003
0220
0330
,  // measure 42
1002
0000
0013
0002
0000
0103
0001
0000
,  // measure 43
1000
0000
0010
1000
0001
0000
0001
0000
,  // measure 44
1002
0000
0013
0002
0000
0103
0001
0000
,  // measure 45
1000
0000
0100
0010
0001
0000
0110
0000
,  // measure 46
2001
0000
3010
2000
0000
3100
1000
0000
,  // measure 47
0001
0000
0010
0001
0100
0000
0001
0100
,  // measure 48
2000
3200
0320
0230
,  // measure 49
0302
0000
0023
0000
0032
1000
1003
0000
,  // measure 50
2001
0000
3010
2000
0000
3100
1000
0000
,  // measure 51
0001
0000
0010
0001
1000
0000
1000
0000
,  // measure 52
2001
0000
3010
2000
0000
3100
1000
0000
,  // measure 53
0001
0000
0100
0010
1000
0000
0110
0000
,  // measure 54
1002
0000
0013
0002
0000
0103
0001
0000
,  // measure 55
1000
0000
0010
1000
0100
0000
1000
0100
,  // measure 56
0002
0000
0203
0000
2300
0000
3010
2000
,  // measure 57
0000
3100
0010
0002
0000
0103
0010
1000
,  // measure 58
0001
0001
0010
0010
,  // measure 59
0100
0010
0001
1000
0010
0000
0100
0010
,  // measure 60
0000
0100
0010
0000
0100
0010
0100
0000
,  // measure 61
0010
0000
0100
0000
0010
1000
0002
0000
,  // measure 62
1003
1000
0010
0010
,  // measure 63
0100
0010
1000
0001
0010
0000
0100
0010
,  // measure 64
0000
0100
0010
0000
0100
0010
0100
0020
,  // measure 65
0000
0000
0031
0100
0010
1000
0001
0100
,  // measure 66
0020
0000
1030
0001
2000
0000
3001
1000
,  // measure 67
0001
0000
1000
2000
0000
3100
0000
0010
,  // measure 68
0002
0000
1003
0001
2000
0000
3001
0000
,  // measure 69
0100
0001
1000
0001
0010
0000
0100
0000
,  // measure 70
0220
0000
0000
0330
,  // measure 71
2002
0000
0000
3003
,  // measure 72
0220
0000
0330
2002
0000
0000
3003
0220
,  // measure 73
0000
0000
0330
0100
,  // measure 74
2002
0000
0000
3003
;

//---------------dance-single - ----------------
#NOTEDATA:;
#CHARTNAME:;
#STEPSTYPE:dance-single;
#DESCRIPTION:;
#CHARTSTYLE:;
#DIFFICULTY:Easy;
#METER:5;
#RADARVALUES:0.289106,0.298962,0.103987,0.383951,0.000000,253.000000,240.000000,13.000000,48.000000,0.000000,0.000000,0.000000,0.000000,0.000000,0.289106,0.298962,0.103987,0.383951,0.000000,253.000000,240.000000,13.000000,48.000000,0.000000,0.000000,0.000000,0.000000,0.000000;
#CREDIT:;
#NOTES:
// measure 0
0000
0000
0000
0000
,  // measure 1
0000
0000
0000
0000
,  // measure 2
0000
0000
0000
0000
,  // measure 3
0000
0000
0000
0000
,  // measure 4
2000
3000
0200
0300
,  // measure 5
1000
0100
0010
0010
,  // measure 6
0002
0003
0200
0300
,  // measure 7
0001
0100
0010
0000
,  // measure 8
2000
3000
0002
0003
,  // measure 9
0010
0001
1000
0001
,  // measure 10
0100
0100
0010
0010
,  // measure 11
2002
3003
0220
0330
,  // measure 12
1000
1000
0100
0100
,  // measure 13
0010
0010
0001
1000
,  // measure 14
0001
0001
0100
0100
,  // measure 15
0010
0010
1000
0001
,  // measure 16
0010
0010
0001
0001
,  // measure 17
0100
0100
0001
1000
,  // measure 18
0010
0010
1000
1000
,  // measure 19
0220
0000
0000
0330
,  // measure 20
2000
3100
0002
0103
,  // measure 21
1000
0010
0100
0000
,  // measure 22
0002
0103
2000
3100
,  // measure 23
0001
0010
0001
0000
,  // measure 24
2000
3010
0002
0013
,  // measure 25
1000
0001
1000
0000
,  // measure 26
1000
1000
0200
0300
,  // measure 27
0010
0001
2000
3000
,  // measure 28
0002
0103
2000
3100
,  // measure 29
0001
0010
0100
0000
,  // measure 30
2000
3100
0002
0103
,  // measure 31
1000
0010
1000
0000
,  // measure 32
0002
0013
2000
3010
,  // measure 33
0001
1000
0001
0000
,  // measure 34
0001
0001
0200
0300
,  // measure 35
0001
0100
0010
1000
,  // measure 36
0001
0001
0010
0010
,  // measure 37
0100
0100
0010
0001
,  // measure 38
1000
1000
0010
0010
,  // measure 39
0100
0001
0010
0001
,  // measure 40
0100
0100
0010
0010
,  // measure 41
2002
3003
0220
0330
,  // measure 42
1000
1000
0100
0100
,  // measure 43
0001
0100
0010
0010
,  // measure 44
0001
0001
0100
0100
,  // measure 45
1000
0100
0001
0110
,  // measure 46
1000
1000
0100
0100
,  // measure 47
0001
0100
0010
0001
,  // measure 48
1000
0010
0100
0001
,  // measure 49
0010
0100
1000
1000
,  // measure 50
0001
0001
0100
0100
,  // measure 51
1000
0100
0010
0010
,  // measure 52
1000
1000
0100
0100
,  // measure 53
0001
0100
1000
0110
,  // measure 54
0001
0001
0100
0100
,  // measure 55
1000
0100
0010
1000
,  // measure 56
0001
0010
0100
1000
,  // measure 57
2002
3003
0220
0330
,  // measure 58
1000
1000
0001
0001
,  // measure 59
0010
0001
0100
0000
,  // measure 60
0100
0000
0100
0100
,  // measure 61
0010
0100
0010
1001
,  // measure 62
0001
0001
1000
1000
,  // measure 63
0010
1000
0100
0000
,  // measure 64
0100
0000
0100
0100
,  // measure 65
1000
0010
0001
0100
,  // measure 66
2000
3100
2000
3001
,  // measure 67
1000
0010
0100
0000
,  // measure 68
0002
0103
0002
1003
,  // measure 69
0010
1000
0100
0000
,  // measure 70
0220
0000
0000
0330
,  // measure 71
2002
0000
0000
3003
,  // measure 72
2000
0000
3000
0002
0000
0000
0003
2000
,  // measure 73
0000
3000
0000
0010
,  // measure 74
2002
0000
0000
3003
;

//---------------dance-single - ----------------
#NOTEDATA:;
#CHARTNAME:;
#STEPSTYPE:dance-single;
#DESCRIPTION:;
#CHARTSTYLE:;
#DIFFICULTY:Beginner;
#METER:3;
#RADARVALUES:0.188547,0.207173,0.063992,0.111986,0.000000,165.000000,157.000000,8.000000,14.000000,0.000000,0.000000,0.000000,0.000000,0.000000,0.188547,0.207173,0.063992,0.111986,0.000000,165.000000,157.000000,8.000000,14.000000,0.000000,0.000000,0.000000,0.000000,0.000000;
#CREDIT:;
#NOTES:
// measure 0
0000
0000
0000
0000
,  // measure 1
0000
0000
0000
0000
,  // measure 2
0000
0000
0000
0000
,  // measure 3
0000
0000
0000
0000
,  // measure 4
1000
0000
1000
0000
,  // measure 5
0001
0001
0001
0000
,  // measure 6
1000
0000
1000
0000
,  // measure 7
0001
0001
0001
0000
,  // measure 8
0001
0000
0001
0000
,  // measure 9
1000
1000
1000
0000
,  // measure 10
0010
0000
0010
0000
,  // measure 11
2002
0000
3003
0000
,  // measure 12
1000
0000
0100
0000
,  // measure 13
0010
0000
0001
0001
,  // measure 14
0001
0000
0100
0000
,  // measure 15
0010
0000
1000
1000
,  // measure 16
1000
0000
0001
0000
,  // measure 17
0010
0000
0100
0100
,  // measure 18
0100
0000
0010
0000
,  // measure 19
2002
0000
3003
0000
,  // measure 20
0001
0000
0001
0000
,  // measure 21
0100
0100
0100
0000
,  // measure 22
0001
0000
0001
0000
,  // measure 23
0010
0010
0010
0000
,  // measure 24
0001
0000
1000
0000
,  // measure 25
0001
0001
0001
0000
,  // measure 26
0100
0000
0010
0000
,  // measure 27
0100
0000
0010
0000
,  // measure 28
1000
0000
1000
0000
,  // measure 29
0100
0100
0100
0000
,  // measure 30
1000
0000
1000
0000
,  // measure 31
0010
0010
0010
0000
,  // measure 32
1000
0000
0001
0000
,  // measure 33
1000
1000
1000
0000
,  // measure 34
0100
0000
0010
0000
,  // measure 35
0100
0000
0010
0000
,  // measure 36
0001
0000
0001
0000
,  // measure 37
0100
0000
0100
0000
,  // measure 38
1000
0000
1000
0000
,  // measure 39
0010
0000
0010
0000
,  // measure 40
0001
0000
0100
0000
,  // measure 41
2002
0000
3003
0000
,  // measure 42
1000
0000
0001
0000
,  // measure 43
0100
0100
0100
0000
,  // measure 44
0001
0000
1000
0000
,  // measure 45
0100
0100
0100
0000
,  // measure 46
1000
0000
0001
0000
,  // measure 47
0100
0100
0100
0000
,  // measure 48
0010
0000
0010
0000
,  // measure 49
1000
0000
0001
0000
,  // measure 50
1000
0000
1000
0000
,  // measure 51
0010
0010
0010
0000
,  // measure 52
1000
0000
0001
0000
,  // measure 53
0010
0010
0010
0000
,  // measure 54
0001
0000
1000
0000
,  // measure 55
0010
0010
0010
0000
,  // measure 56
0100
0000
0001
0000
,  // measure 57
2002
0000
3003
0000
,  // measure 58
1000
0000
0001
0000
,  // measure 59
0010
0010
0010
0000
,  // measure 60
0010
0000
0010
0000
,  // measure 61
0010
0010
0010
0000
,  // measure 62
0001
0000
1000
0000
,  // measure 63
0010
0010
0010
0000
,  // measure 64
0010
0000
0010
0000
,  // measure 65
0010
0010
0010
0010
,  // measure 66
0010
0000
0010
0000
,  // measure 67
1000
1000
1000
0000
,  // measure 68
0001
0000
0001
0000
,  // measure 69
0010
0010
0010
0000
,  // measure 70
2002
0000
3003
0000
,  // measure 71
2002
0000
3003
0000
,  // measure 72
0220
0000
0000
0000
,  // measure 73
0330
0000
0000
0000
,  // measure 74
1001
0000
0000
0000
;
