#VERSION:0.83;
#TITLE:Just Propaganda;
#SUBTITLE:;
#ARTIST:Kontrust;
#TITLETRANSLIT:;
#SUBTITLETRANSLIT:;
#ARTISTTRANSLIT:;
#GENRE:Crossover Metal;
#ORIGIN:;
#CREDIT:;
#BANNER:Just Propaganda.png;
#BACKGROUND:Just Propaganda-bg.png;
#PREVIEWVID:;
#JACKET:Just Propaganda-jacket.png;
#CDIMAGE:;
#DISCIMAGE:;
#LYRICSPATH:;
#CDTITLE:cdtitle.png;
#MUSIC:Just Propaganda.ogg;
#OFFSET:1.897792;
#SAMPLESTART:51.677948;
#SAMPLELENGTH:10.105263;
#SELECTABLE:YES;
#BPMS:0.000=94.000,
76.000=190.000;
#STOPS:76.000=2.222;
#DELAYS:;
#WARPS:;
#TIMESIGNATURES:0.000=4=4;
#TICKCOUNTS:0.000=4;
#COMBOS:0.000=1;
#SPEEDS:0.000=1.000=0.000=0;
#SCROLLS:0.000=1.000;
#FAKES:;
#LABELS:0.000=Song Start;
#LASTSECONDHINT:115.783203;
#BGCHANGES:3.250=Just Propaganda.avi=1.000=1=0=0=StretchNoLoop==CrossFade==,
99999=-nosongbg-=1.000=0=0=0 // don't automatically add -songbackground-
;
#KEYSOUNDS:;
#ATTACKS:
;

//---------------dance-single - ----------------
#NOTEDATA:;
#CHARTNAME:;
#STEPSTYPE:dance-single;
#DESCRIPTION:;
#CHARTSTYLE:;
#DIFFICULTY:Challenge;
#METER:12;
#RADARVALUES:0.615244,0.786620,0.413444,0.137815,0.236869,500.000000,452.000000,48.000000,16.000000,24.000000,0.000000,0.000000,0.000000,0.000000,0.615244,0.786620,0.413444,0.137815,0.236869,500.000000,452.000000,48.000000,16.000000,24.000000,0.000000,0.000000,0.000000,0.000000;
#CREDIT:;
#NOTES:
0000
0000
0000
0000
,
0000
0000
0000
0000
,
0000
0000
0000
0000
,
1000
1010
0000
0011
0000
1010
0000
0001
,
0011
0000
0000
0000
0100
0000
1000
0000
0200
0000
0000
0000
0300
0000
0000
0000
1000
0000
0000
0001
0000
0000
1000
0000
0110
0000
0000
0000
0000
0000
0000
0000
,
0001
0010
0001
0010
0001
0000
1000
0010
0100
0000
0001
1000
1000
0000
0100
0000
,
0210
0000
0000
0301
0100
0000
1000
0000
0010
0000
0100
0001
0010
0000
1001
0000
,
1000
0010
1000
0010
1000
0000
0001
0010
0100
0000
1000
0001
0001
0000
0100
0000
,
0210
0000
0000
1300
0100
0000
0001
0000
0010
0000
0100
1000
0010
0000
1001
0000
,
1000
0100
0100
0000
0000
1000
0001
0001
0100
0000
0000
0010
0120
0000
1030
0000
,
0001
0001
0100
0000
0000
0001
1000
1000
0100
0000
0000
0100
1000
0001
1000
0001
,
0100
0010
0100
0010
1000
0001
0010
0000
0100
0000
0100
0000
0010
0000
0001
0000
,
1002
0000
0000
0103
0001
0000
0010
0000
0100
0000
1000
0001
1000
0000
0001
0000
,
1000
0010
1000
0010
0100
0001
0100
0001
0010
0000
0010
0000
0100
0000
1000
0000
,
2001
0000
0000
3100
1000
0000
0010
0000
0100
0001
1000
0001
1000
0000
0001
0010
,
0100
1000
0001
0100
0001
1000
0100
1000
0001
0000
0001
0000
0100
0000
1000
0000
,
1200
0000
0000
0310
0100
0000
0001
1000
0100
0010
0001
0100
0010
0000
1000
0000
,
0001
0010
0001
1000
0010
1000
0001
0010
0100
0000
0100
0000
1000
0000
0100
0000
,
0201
0000
0000
0310
0100
0000
1000
0000
0001
0100
0010
1000
0001
0000
1000
0000
,
0100
0100
0100
0100
,
0100
0100
0100
0100
,
0100
0000
1000
0010
M00M
0010
0001
0000
,
0101
0000
0001
0010
M00M
0010
1000
0000
,
1100
0000
0101
0000
1000
0010
0001
0010
,
1000
0000
0001
0010
0000
0100
1000
0001
,
0100
0000
0001
0010
M00M
0010
1000
0000
,
1100
0000
1000
0010
M00M
0010
0001
0000
,
0101
0000
1100
0000
0001
0010
1000
0010
,
0001
0000
1000
0010
0100
0001
0010
0100
,
1000
0000
0001
0100
M00M
0100
1000
0000
,
0110
0000
0000
0000
1000
0000
0010
M00M
0010
0000
0001
0000
1000
0000
0000
0000
,
0110
0000
1001
0000
0001
0010
1000
0010
,
0001
0000
1000
0010
0000
0001
0010
1000
,
0010
0000
1000
0100
M00M
0100
0001
0000
,
0110
0000
0001
0010
M00M
0010
1000
0000
,
0110
0000
1001
0000
1000
0100
0001
0100
,
1000
0000
0001
0100
0010
1000
0100
0010
,
0001
0100
0010
1000
0000
1000
0010
0000
,
1001
0000
0010
0001
0000
0001
0010
0000
,
1001
0000
1020
0000
0000
0031
0020
0000
,
0000
1030
0100
0000
0100
0010
0100
0000
,
1000
0010
0100
0001
0000
0001
0100
0000
,
1001
0000
0100
1000
0000
1000
0100
0000
,
1001
0000
0021
0000
0000
1030
0020
0000
,
0000
0031
0100
0000
0100
0010
0100
0000
,
0010
1000
0001
0010
0000
0010
0001
0000
,
0110
0000
1000
0010
0000
0010
1000
0000
,
0110
0000
1002
0000
0000
0103
2000
0000
,
0000
3100
0001
0000
0001
1000
0001
0000
,
0010
0001
1000
0010
0001
0010
1000
0010
,
0001
0010
1000
0010
0001
0010
1000
0010
,
0001
0010
1000
0100
0001
0100
1000
0100
,
0001
0100
1000
0100
0001
0100
1000
0100
,
0010
0000
0001
0100
0000
0001
0100
0000
,
0110
0000
1000
0100
0000
1000
0100
0000
,
0110
0000
1001
0000
1000
0010
0100
0001
,
1000
0000
0001
0010
0000
0100
1000
0001
,
0100
0010
1000
0100
M00M
0100
0001
0000
,
0011
0000
0001
0010
M00M
0010
1000
0000
,
1100
0000
0101
0000
1000
0010
0001
0010
,
1000
0000
0001
0010
1000
0010
1000
0010
,
0001
0000
1000
0010
M00M
0010
0001
0000
,
0101
0000
0000
0000
0001
0000
0100
M00M
0100
0000
1000
0000
0010
0000
0000
0000
,
1010
0000
0011
0000
1000
0100
0001
0100
,
1000
0000
0001
0010
0000
1000
0010
0001
,
1000
0000
0001
0100
1000
0001
0010
0000
,
1010
0000
1000
0100
0001
1000
0010
0000
,
0011
0000
1001
0000
1000
0010
0001
0010
,
1000
0000
0001
0010
1000
0010
0001
0100
,
1000
2200
0000
0000
,
0000
3300
0000
0000
;

//---------------dance-single - ----------------
#NOTEDATA:;
#CHARTNAME:;
#STEPSTYPE:dance-single;
#DESCRIPTION:;
#CHARTSTYLE:;
#DIFFICULTY:Hard;
#METER:10;
#RADARVALUES:0.518035,0.574838,0.335923,0.180882,0.068907,421.000000,382.000000,39.000000,21.000000,0.000000,0.000000,0.000000,0.000000,0.000000,0.518035,0.574838,0.335923,0.180882,0.068907,421.000000,382.000000,39.000000,21.000000,0.000000,0.000000,0.000000,0.000000,0.000000;
#CREDIT:;
#NOTES:
0000
0000
0000
0000
,
0000
0000
0000
0000
,
0000
0000
0000
0000
,
0100
1001
0000
1001
0000
2002
0000
3003
,
0001
0100
1010
0000
1000
0100
0011
0000
,
0001
0000
0100
0000
1000
0000
0100
0000
0001
0000
0000
0001
0010
0000
0100
0000
,
2100
0000
0000
3010
0100
0000
0001
0000
0010
0000
1000
0000
0010
0000
0001
0000
,
1000
0000
0100
0000
0001
0000
0100
0000
1000
0000
0000
1000
0010
0000
0100
0000
,
0102
0000
0000
0013
0100
0000
1000
0000
0010
0000
0001
0000
0010
0000
1000
0000
,
0100
1000
0100
0000
0000
0000
0100
1000
0100
0000
0000
0100
0020
0000
0031
0000
,
0100
0001
0100
0000
0000
0000
0100
0001
0100
0000
0000
0010
1000
0000
0001
0000
,
0010
0010
0100
0100
1000
0001
0100
1000
,
1200
0000
0000
0310
0100
0000
0001
0000
1000
0000
0100
0000
0100
0000
0010
0000
,
0001
0001
1000
1000
0010
1000
0100
0001
,
0201
0000
0000
0310
0100
0000
1000
0000
0001
0000
0100
0000
0100
0000
0010
0000
,
1000
0100
0001
1000
0010
0001
0100
1000
,
1200
0000
0000
0310
2000
0000
0000
3001
0010
0000
0100
0000
1000
0000
1000
0000
,
0001
0100
1000
0001
0010
1000
0100
0001
,
0201
0000
0000
0310
0001
0000
1000
0000
0000
0001
0100
0000
0010
0000
1000
0000
,
0001
0100
0100
0100
,
0100
0100
0100
0100
,
0100
0000
0001
0010
0000
0001
0010
0000
,
1100
0000
1000
0010
0000
1000
0010
0000
,
0101
0000
1100
0000
0001
0010
0001
0010
,
0001
0000
1000
0010
0000
1000
0010
1000
,
0010
0000
1000
0100
0000
1000
0100
0000
,
0011
0000
0001
0100
0000
0001
0100
0000
,
1010
0000
0011
0000
1000
0010
1000
0010
,
1000
0000
0001
0010
0001
0010
0001
0010
,
0001
0000
1000
0010
0000
1000
0010
0000
,
0101
0000
0001
0010
0001
0010
0001
0000
,
1100
0000
1010
0000
0001
0100
0001
0100
,
0001
0000
1000
0100
0000
1000
0100
1000
,
0100
0000
0010
0001
0000
0001
0100
0000
,
0101
0000
0010
1000
0000
1000
0100
0000
,
1100
0000
0011
0000
1000
0100
1000
0100
,
1000
0000
0001
0100
0001
0100
0001
0100
,
0001
0000
1000
0100
0000
0100
1000
0000
,
1000
0000
0001
0100
0000
0100
0001
0000
,
0001
0000
0020
0000
0000
0130
2000
0000
,
0000
3001
0100
0000
0001
1000
0200
0000
,
0310
0000
0001
0100
0000
0100
0001
0000
,
0001
0000
1000
0100
0000
0100
1000
0000
,
1000
0000
0020
0000
0000
0130
0002
0000
,
0000
1003
0100
0000
1000
0001
0100
0000
,
0010
0000
1000
0001
0000
0001
1000
0000
,
0100
0000
1000
0001
0000
0001
1000
0000
,
0010
0000
0200
0000
0000
0301
2000
0000
,
0000
3100
0010
0000
0100
0010
0100
0000
,
1000
2001
0010
0001
,
0010
0001
0010
0001
,
3010
1002
0010
1000
,
0010
1000
0010
1000
,
0013
0001
0101
0000
,
0101
1000
1100
0000
,
1100
0001
0101
0000
,
0101
1000
0100
0100
,
0100
0000
0010
0001
0000
0001
0100
0000
,
1001
0000
0010
1000
0000
1000
0100
0000
,
1001
0000
0110
0000
1000
0010
1000
0010
,
1000
0000
0001
0010
0001
0010
0001
0010
,
0001
0000
0100
0001
0000
0001
0010
0000
,
1001
0000
0100
1000
0100
1000
0010
0000
,
1001
0000
0110
0000
0001
0010
0001
0010
,
0001
0000
1000
0010
0000
1000
0010
1000
,
0010
0000
1000
0100
1000
0100
0010
0000
,
0010
0000
0001
0100
0001
0100
0010
0000
,
0010
0000
1001
0000
1000
0001
1000
0001
,
0100
0000
0001
1000
0001
1000
0001
1000
,
0100
0220
0000
0000
,
0000
0330
0000
0000
;

//---------------dance-single - ----------------
#NOTEDATA:;
#CHARTNAME:;
#STEPSTYPE:dance-single;
#DESCRIPTION:;
#CHARTSTYLE:;
#DIFFICULTY:Medium;
#METER:7;
#RADARVALUES:0.356841,0.453819,0.310083,0.370377,0.000000,290.000000,254.000000,36.000000,43.000000,0.000000,0.000000,0.000000,0.000000,0.000000,0.356841,0.453819,0.310083,0.370377,0.000000,290.000000,254.000000,36.000000,43.000000,0.000000,0.000000,0.000000,0.000000,0.000000;
#CREDIT:;
#NOTES:
// measure 0
0000
0000
0000
0000
,  // measure 1
0000
0000
0000
0000
,  // measure 2
0000
0000
0000
0000
,  // measure 3
0000
1001
0000
1001
0000
2002
0000
3003
,  // measure 4
0000
0001
0011
0000
1000
0000
1010
0000
,  // measure 5
0001
0010
0001
0010
0001
0000
0100
0000
,  // measure 6
1002
0000
0013
0000
0001
0100
0001
0000
,  // measure 7
1000
0010
1000
0010
1000
0000
0100
0000
,  // measure 8
2001
0000
3010
0000
1000
0100
1000
0000
,  // measure 9
0001
0001
0000
0001
0001
0000
0110
0000
,  // measure 10
1000
1000
0000
1000
1000
0000
0110
0000
,  // measure 11
0001
0010
0100
0010
0001
0000
1000
0000
,  // measure 12
1020
0000
0130
0000
0001
0010
0100
0000
,  // measure 13
1000
0010
0100
0010
1000
0000
0001
0000
,  // measure 14
0021
0000
0130
0000
1000
0010
0100
0000
,  // measure 15
0001
0100
1000
0100
0001
0000
0010
0000
,  // measure 16
1100
0000
0011
0000
0001
0100
0001
0000
,  // measure 17
1000
0100
0001
0100
1000
0000
0010
0000
,  // measure 18
0101
0000
1010
0000
1000
0100
1000
0000
,  // measure 19
1001
0001
1000
0001
,  // measure 20
1000
0001
1000
0001
,  // measure 21
1000
0001
0010
2200
,  // measure 22
3300
1000
0010
0202
,  // measure 23
0303
1000
0010
1000
,  // measure 24
0010
1000
0001
0010
,  // measure 25
0001
1000
0010
0202
,  // measure 26
0303
0001
0010
2200
,  // measure 27
3300
0001
0010
0001
,  // measure 28
0010
0001
1000
0010
,  // measure 29
1000
0001
0100
0202
,  // measure 30
0303
1000
0100
2200
,  // measure 31
3300
0001
0010
0001
,  // measure 32
0010
0100
1000
0010
,  // measure 33
0100
0001
0010
2002
,  // measure 34
3003
1000
0010
2002
,  // measure 35
3003
0001
0001
1000
,  // measure 36
1000
0001
0010
0100
,  // measure 37
1000
0001
0000
0001
,  // measure 38
0100
1000
0000
1000
,  // measure 39
0100
0002
0000
0023
,  // measure 40
0000
0031
1000
0010
,  // measure 41
0010
1000
0000
1000
,  // measure 42
0100
0001
0000
0001
,  // measure 43
0100
2000
0000
3020
,  // measure 44
0000
1030
0001
0010
,  // measure 45
0010
0001
0000
1000
,  // measure 46
0010
0001
0000
0001
,  // measure 47
0010
2000
0000
3200
,  // measure 48
0000
0310
0001
0100
,  // measure 49
0010
2000
0100
0100
,  // measure 50
0100
0100
0100
0100
,  // measure 51
0100
3002
0100
0100
,  // measure 52
0100
0100
0100
0100
,  // measure 53
0103
0000
1001
0000
,  // measure 54
1001
0010
1001
0000
,  // measure 55
1001
0100
1001
0000
,  // measure 56
1001
0010
0100
0010
,  // measure 57
0000
1000
0100
0220
,  // measure 58
0330
0001
0100
0220
,  // measure 59
0330
1000
0010
1000
,  // measure 60
0010
0100
0001
0010
,  // measure 61
0001
1000
0010
2020
,  // measure 62
3030
0001
0010
0022
,  // measure 63
0033
0100
1000
0100
,  // measure 64
1000
0010
0100
0001
,  // measure 65
0010
0001
0100
2200
,  // measure 66
3300
1000
0010
0022
,  // measure 67
0033
0001
0001
1000
,  // measure 68
1000
0001
0100
0010
,  // measure 69
1000
0200
0000
0000
,  // measure 70
0000
0300
0000
0000
;

//---------------dance-single - ----------------
#NOTEDATA:;
#CHARTNAME:;
#STEPSTYPE:dance-single;
#DESCRIPTION:;
#CHARTSTYLE:;
#DIFFICULTY:Easy;
#METER:4;
#RADARVALUES:0.227640,0.302546,0.025840,0.258402,0.000000,185.000000,182.000000,3.000000,30.000000,0.000000,0.000000,0.000000,0.000000,0.000000,0.227640,0.302546,0.025840,0.258402,0.000000,185.000000,182.000000,3.000000,30.000000,0.000000,0.000000,0.000000,0.000000,0.000000;
#CREDIT:;
#NOTES:
// measure 0
0000
0000
0000
0000
,  // measure 1
0000
0000
0000
0000
,  // measure 2
0000
0000
0000
0000
,  // measure 3
1000
1000
0001
0001
,  // measure 4
0100
0100
0010
1001
,  // measure 5
1000
1000
1000
0100
,  // measure 6
0001
0010
1000
1000
,  // measure 7
0001
0001
0001
0100
,  // measure 8
1000
0010
0001
0001
,  // measure 9
0100
0000
0100
0010
,  // measure 10
0100
0000
0100
0100
,  // measure 11
0001
0010
0001
0000
,  // measure 12
0020
0031
0100
0001
,  // measure 13
1000
0010
1000
0000
,  // measure 14
0020
1030
0100
1000
,  // measure 15
0001
0100
1000
0000
,  // measure 16
2000
3100
0010
0010
,  // measure 17
1000
0100
0002
0003
,  // measure 18
0001
0100
0010
0010
,  // measure 19
0001
0000
0000
0000
,  // measure 20
0000
0000
0000
0000
,  // measure 21
0000
1000
0010
2000
,  // measure 22
3000
0001
0010
0002
,  // measure 23
0003
1000
0000
0001
,  // measure 24
0000
1000
0001
1000
,  // measure 25
0000
0001
0100
0002
,  // measure 26
0003
1000
0100
2000
,  // measure 27
3000
0001
0000
1000
,  // measure 28
0000
0001
1000
0001
,  // measure 29
0000
0100
0010
2000
,  // measure 30
3000
0100
0010
0002
,  // measure 31
0003
0100
0000
0010
,  // measure 32
0000
0100
0010
0100
,  // measure 33
0000
0001
0010
0200
,  // measure 34
0300
0010
0100
2000
,  // measure 35
3000
0010
0000
0100
,  // measure 36
0000
0010
0100
0010
,  // measure 37
0000
1000
0000
1000
,  // measure 38
1000
0001
0000
0001
,  // measure 39
0001
0020
0000
0230
,  // measure 40
0000
0310
0010
0010
,  // measure 41
0000
0001
0000
0001
,  // measure 42
0001
1000
0000
1000
,  // measure 43
1000
0020
0000
0230
,  // measure 44
0000
0310
0010
0010
,  // measure 45
0000
1000
0000
0001
,  // measure 46
0001
0010
0000
0001
,  // measure 47
0001
0200
0000
0320
,  // measure 48
0000
1030
1000
1000
,  // measure 49
0100
0220
0000
0000
,  // measure 50
0000
0000
0000
0000
,  // measure 51
0330
2002
0000
0000
,  // measure 52
0000
0000
0000
0000
,  // measure 53
0000
3003
0100
0000
,  // measure 54
0100
0000
0100
0000
,  // measure 55
0100
0000
0100
0000
,  // measure 56
0100
0000
0100
0200
,  // measure 57
0300
0001
0010
0002
,  // measure 58
0003
1000
0010
2000
,  // measure 59
3000
0100
0000
0010
,  // measure 60
0000
0100
0010
0100
,  // measure 61
0000
1000
0010
0200
,  // measure 62
0300
0010
0100
0002
,  // measure 63
0003
0010
0000
0100
,  // measure 64
0000
0010
0100
0010
,  // measure 65
0000
0001
0100
2000
,  // measure 66
3000
1000
0100
0002
,  // measure 67
0003
0010
0000
0100
,  // measure 68
0000
1000
0010
0100
,  // measure 69
0001
0200
0000
0000
,  // measure 70
0000
0300
0000
0000
;

//---------------dance-single - ----------------
#NOTEDATA:;
#CHARTNAME:;
#STEPSTYPE:dance-single;
#DESCRIPTION:;
#CHARTSTYLE:;
#DIFFICULTY:Beginner;
#METER:2;
#RADARVALUES:0.135354,0.214043,0.051680,0.051680,0.000000,110.000000,104.000000,6.000000,6.000000,0.000000,0.000000,0.000000,0.000000,0.000000,0.135354,0.214043,0.051680,0.051680,0.000000,110.000000,104.000000,6.000000,6.000000,0.000000,0.000000,0.000000,0.000000,0.000000;
#CREDIT:;
#OFFSET:1.897792;
#BPMS:0.000000=94.000000
,76.000000=189.141006
,84.000000=190.000000
;
#STOPS:;
#DELAYS:;
#WARPS:;
#TIMESIGNATURES:0.000000=4=4
;
#TICKCOUNTS:0.000000=4
;
#COMBOS:0.000000=1
;
#SPEEDS:0.000000=1.000000=0.000000=0
;
#SCROLLS:0.000000=2.021276
,76.000000=1.004542
,84.000000=1.000000
;
#FAKES:;
#LABELS:0.000000=Song Start
;
#NOTES:
// measure 0
0000
0000
0000
0000
,  // measure 1
0000
0000
0000
0000
,  // measure 2
0000
0000
0000
0000
,  // measure 3
1000
0000
1000
0000
,  // measure 4
0001
0000
0001
0000
,  // measure 5
1000
1000
1000
0000
,  // measure 6
0010
0010
0010
0000
,  // measure 7
0001
0001
0001
0000
,  // measure 8
0010
0010
0010
0000
,  // measure 9
1000
0000
1000
0000
,  // measure 10
0001
0000
0001
0000
,  // measure 11
1000
1000
1000
0000
,  // measure 12
0100
0000
0010
0000
,  // measure 13
0001
0001
0001
0000
,  // measure 14
0100
0000
0010
0000
,  // measure 15
1000
0001
1000
0000
,  // measure 16
0001
0000
0010
0000
,  // measure 17
0001
1000
0001
0000
,  // measure 18
1000
0000
0010
0000
,  // measure 19
0100
0000
0000
0000
,  // measure 20
0000
0000
0000
0000
,  // measure 21
0200
0000
0000
0000
,  // measure 22
0000
0000
0300
0000
,  // measure 23
0001
0000
0000
0000
,  // measure 24
0001
0000
0000
0000
,  // measure 25
1000
0000
1000
0000
,  // measure 26
0001
0000
0001
0000
,  // measure 27
1000
0000
0000
0000
,  // measure 28
1000
0000
0000
0000
,  // measure 29
0001
0000
0001
0000
,  // measure 30
1000
0000
1000
0000
,  // measure 31
0001
0000
0000
0000
,  // measure 32
0001
0000
0000
0000
,  // measure 33
0010
0000
0010
0000
,  // measure 34
0001
0000
0001
0000
,  // measure 35
1000
0000
0000
0000
,  // measure 36
1000
0000
0000
0000
,  // measure 37
0010
0000
0010
0000
,  // measure 38
1000
0000
1000
0000
,  // measure 39
0001
0000
0000
0000
,  // measure 40
0001
0000
0000
0000
,  // measure 41
0020
0000
0030
0000
,  // measure 42
0100
0000
0000
0000
,  // measure 43
1000
0000
0000
0000
,  // measure 44
1000
0000
0000
0000
,  // measure 45
0020
0000
0030
0000
,  // measure 46
0100
0000
0000
0000
,  // measure 47
0001
0000
0000
0000
,  // measure 48
0001
0000
0000
0000
,  // measure 49
2000
0000
3000
0000
,  // measure 50
0100
0000
0000
0000
,  // measure 51
0020
0000
0000
0000
,  // measure 52
0000
0000
0030
0000
,  // measure 53
0200
0000
0000
0000
,  // measure 54
0000
0000
0300
0000
,  // measure 55
1001
0000
0000
0000
,  // measure 56
1001
0000
0000
0000
,  // measure 57
1001
0000
0000
0000
,  // measure 58
1001
0000
1001
0000
,  // measure 59
1000
0000
0000
0000
,  // measure 60
1000
0000
0000
0000
,  // measure 61
0010
0000
0010
0000
,  // measure 62
0100
0000
0100
0000
,  // measure 63
0001
0000
0000
0000
,  // measure 64
0001
0000
0000
0000
,  // measure 65
1000
0000
1000
0000
,  // measure 66
0001
0000
0001
0000
,  // measure 67
0010
0000
0000
0000
,  // measure 68
0010
0000
0000
0000
,  // measure 69
0010
0000
0100
0000
,  // measure 70
0010
0000
0100
0000
,  // measure 71
0110
0000
0000
0000
;
