#VERSION:0.83;
#TITLE:Jazzy Glitch Machine;
#SUBTITLE:;
#ARTIST:提供;
#TITLETRANSLIT:;
#SUBTITLETRANSLIT:;
#ARTISTTRANSLIT:Teikyou;
#GENRE:Jazz Hop;
#ORIGIN:;
#CREDIT:;
#BANNER:Jazzy Glitch Machine.png;
#BACKGROUND:Jazzy Glitch Machine-bg.png;
#PREVIEWVID:;
#JACKET:Jazzy Glitch Machine-jacket.png;
#CDIMAGE:;
#DISCIMAGE:;
#LYRICSPATH:;
#CDTITLE:cdtitle.png;
#MUSIC:Jazzy Glitch Machine.ogg;
#OFFSET:-2.027596;
#SAMPLESTART:34.047596;
#SAMPLELENGTH:15.980000;
#SELECTABLE:YES;
#DISPLAYBPM:120.000000;
#BPMS:0.000=120.000,
55.000=240.000,
55.500=120.000,
55.750=60.000,
56.000=120.000,
58.000=60.000,
58.500=30.000,
58.750=120.000,
60.000=240.000,
60.250=120.000,
60.375=60.000,
60.500=240.000,
61.750=120.000,
61.875=60.000,
62.000=240.000,
62.250=120.000,
62.375=60.000,
62.500=240.000,
63.750=120.000,
63.875=60.000,
64.000=240.000,
64.750=120.000,
64.875=60.000,
65.000=240.000,
65.750=120.000,
65.875=60.000,
66.000=240.000,
66.250=120.000,
66.375=60.000,
66.500=240.000,
67.250=120.000,
67.375=60.000,
67.625=120.000,
67.750=240.000,
68.000=120.000,
68.500=240.000,
68.750=120.000,
68.875=60.000,
69.000=240.000,
69.750=120.000,
69.875=60.000,
70.000=240.000,
70.250=120.000,
70.375=60.000,
70.500=240.000,
71.750=120.000,
71.875=60.000,
72.000=120.000,
76.000=240.000,
76.250=120.000,
76.375=60.000,
76.500=240.000,
77.750=120.000,
77.875=60.000,
78.000=240.000,
78.250=120.000,
78.375=60.000,
78.500=240.000,
79.750=120.000,
79.875=60.000,
80.000=240.000,
80.750=120.000,
80.875=60.000,
81.000=240.000,
81.750=120.000,
81.875=60.000,
82.000=240.000,
82.167=120.000,
82.250=60.000,
82.333=240.000,
83.250=120.000,
83.375=60.000,
83.625=120.000,
83.750=240.000,
84.000=120.000,
84.500=240.000,
84.750=120.000,
84.875=60.000,
85.083=120.000,
85.167=240.000,
85.333=60.000,
85.417=120.000,
85.500=240.000,
85.667=60.000,
85.750=120.000,
85.833=240.000,
86.250=120.000,
86.375=60.000,
86.500=120.000,
87.000=240.000,
87.500=60.000,
87.625=120.000,
87.750=240.000,
88.000=120.000,
158.000=240.000,
158.500=120.000,
158.750=60.000,
159.000=240.000,
159.250=120.000,
159.375=60.000,
159.625=120.000,
159.750=240.000,
162.500=60.000,
162.625=120.000,
162.750=240.000,
163.250=120.000,
163.375=60.000,
163.583=120.000,
163.667=240.000,
163.833=480.000,
166.000=60.000,
166.083=120.000,
166.167=240.000,
166.500=60.000,
166.625=120.000,
166.750=240.000,
167.250=120.000,
167.375=60.000,
167.625=120.000,
167.750=240.000,
168.167=120.000,
168.250=60.000,
168.333=240.000,
170.000=480.000,
171.500=120.000,
172.000=60.000,
173.000=120.000,
174.000=240.000,
174.250=120.000,
174.375=60.000,
174.625=120.000,
174.750=240.000,
175.167=120.000,
175.250=60.000,
175.333=180.000,
177.000=60.000,
177.083=120.000,
177.167=240.000,
177.500=60.000,
177.625=120.000,
177.750=240.000,
178.250=120.000,
178.375=60.000,
178.583=120.000,
178.667=240.000,
178.833=480.000,
181.000=60.000,
181.083=120.000,
181.167=240.000,
181.500=60.000,
181.625=120.000,
181.750=240.000,
182.250=120.000,
182.375=60.000,
182.625=120.000,
182.750=240.000,
183.000=120.000,
186.000=40.000,
187.000=120.000,
188.000=240.000,
188.250=120.000,
188.375=60.000,
188.500=240.000,
189.750=120.000,
189.875=60.000,
190.000=240.000,
190.250=120.000,
190.375=60.000,
190.500=240.000,
191.750=120.000,
191.875=60.000,
192.000=240.000,
192.750=120.000,
192.875=60.000,
193.000=240.000,
193.750=120.000,
193.875=60.000,
194.000=240.000,
194.250=120.000,
194.375=60.000,
194.500=240.000,
195.250=120.000,
195.375=60.000,
195.625=120.000,
195.750=240.000,
196.000=120.000,
196.500=240.000,
196.750=120.000,
196.875=60.000,
197.000=240.000,
197.750=120.000,
197.875=60.000,
198.000=240.000,
198.250=120.000,
198.375=60.000,
198.500=240.000,
199.750=120.000,
199.875=60.000,
200.000=120.000,
204.000=240.000,
204.250=120.000,
204.375=60.000,
204.500=240.000,
204.750=120.000,
204.875=60.000,
205.083=120.000,
205.167=240.000,
205.333=60.000,
205.417=120.000,
205.500=240.000,
205.667=60.000,
205.750=120.000,
205.833=240.000,
206.000=60.000,
206.083=120.000,
206.167=240.000,
206.333=60.000,
206.417=120.000,
206.500=240.000,
206.667=60.000,
206.750=120.000,
206.833=240.000,
207.250=120.000,
207.375=60.000,
207.625=120.000,
207.750=240.000,
208.750=120.000,
208.875=60.000,
209.000=240.000,
209.750=120.000,
209.875=60.000,
210.000=240.000,
210.250=120.000,
210.375=60.000,
210.500=240.000,
211.250=120.000,
211.375=60.000,
211.625=120.000,
211.750=240.000,
212.250=120.000,
212.375=60.000,
212.500=240.000,
213.750=120.000,
213.875=60.000,
214.000=240.000,
214.250=120.000,
214.375=60.000,
214.500=240.000,
215.750=120.000,
215.875=60.000,
216.000=120.000;
#STOPS:58.750=1.375,
60.500=0.083,
60.833=0.042,
61.000=0.083,
61.333=0.042,
62.500=0.042,
62.667=0.041,
62.833=0.042,
63.000=0.083,
63.333=0.042,
64.000=0.083,
64.333=0.042,
65.000=0.083,
65.333=0.042,
66.500=0.042,
66.667=0.041,
66.833=0.042,
69.000=0.083,
69.333=0.042,
70.500=0.042,
70.667=0.041,
70.833=0.042,
71.000=0.083,
71.333=0.042,
76.500=0.083,
76.833=0.042,
77.000=0.083,
77.333=0.042,
78.500=0.042,
78.667=0.041,
78.833=0.042,
79.000=0.083,
79.333=0.042,
80.000=0.083,
80.333=0.042,
81.000=0.042,
81.167=0.041,
81.333=0.042,
82.333=0.042,
82.500=0.041,
82.667=0.042,
82.833=0.042,
87.000=0.041,
87.167=0.042,
87.333=0.042,
158.000=0.500,
160.000=0.083,
160.333=0.042,
160.500=0.083,
160.833=0.042,
161.000=0.083,
161.333=0.042,
161.500=0.083,
161.833=0.042,
162.000=0.083,
162.333=0.042,
163.833=0.062,
164.000=0.063,
164.167=0.062,
164.333=0.063,
164.500=0.062,
164.667=0.063,
164.833=0.062,
165.000=0.063,
165.167=0.062,
165.333=0.063,
165.500=0.062,
165.667=0.063,
165.833=0.062,
166.333=0.042,
168.333=0.042,
168.500=0.083,
168.833=0.042,
169.000=0.083,
169.333=0.042,
169.500=0.083,
169.833=0.042,
170.000=0.062,
170.167=0.063,
170.333=0.062,
170.500=0.063,
170.667=0.062,
170.833=0.063,
171.438=0.187,
175.333=0.028,
175.500=0.028,
175.667=0.027,
175.833=0.028,
176.000=0.028,
176.167=0.028,
176.333=0.028,
176.500=0.027,
176.667=0.028,
176.833=0.028,
177.333=0.042,
178.833=0.062,
179.000=0.063,
179.167=0.062,
179.333=0.063,
179.500=0.062,
179.667=0.063,
179.833=0.062,
180.000=0.063,
180.167=0.062,
180.333=0.063,
180.500=0.062,
180.667=0.063,
180.833=0.062,
181.333=0.042,
188.500=0.083,
188.833=0.042,
189.000=0.083,
189.333=0.042,
190.500=0.041,
190.667=0.042,
190.833=0.042,
191.000=0.083,
191.333=0.042,
192.000=0.083,
192.333=0.042,
193.000=0.083,
193.333=0.042,
194.500=0.041,
194.667=0.042,
194.833=0.042,
197.000=0.083,
197.333=0.042,
198.500=0.041,
198.667=0.042,
198.833=0.042,
199.000=0.083,
199.333=0.042,
208.000=0.083,
208.333=0.042,
209.000=0.083,
209.333=0.042,
210.500=0.041,
210.667=0.042,
210.833=0.042,
212.500=0.083,
212.833=0.042,
213.000=0.083,
213.333=0.042,
214.500=0.041,
214.667=0.042,
214.833=0.042,
215.000=0.083,
215.333=0.042;
#DELAYS:;
#WARPS:;
#TIMESIGNATURES:0.000=4=4;
#TICKCOUNTS:0.000=4;
#COMBOS:0.000=1;
#SPEEDS:0.000=1.000=0.000=0;
#SCROLLS:0.000=1.000;
#FAKES:;
#LABELS:0.000=Song Start;
#BGCHANGES:;
#KEYSOUNDS:;
#ATTACKS:
;

//---------------dance-single - ----------------
#NOTEDATA:;
#CHARTNAME:;
#STEPSTYPE:dance-single;
#DESCRIPTION:;
#CHARTSTYLE:;
#DIFFICULTY:Challenge;
#METER:16;
#RADARVALUES:0.763479,0.918258,0.470901,0.411104,0.870794,715.000000,652.000000,63.000000,55.000000,4.000000,0.000000,0.000000,0.000000,0.000000,0.763479,0.918258,0.470901,0.411104,0.870794,715.000000,652.000000,63.000000,55.000000,4.000000,0.000000,0.000000,0.000000,0.000000;
#CREDIT:;
#OFFSET:-2.027596;
#BPMS:0.000000=120.000000
,55.000000=240.000000
,55.500000=120.000000
,55.750000=60.000000
,56.000000=120.000000
,58.000000=60.000000
,58.500000=30.000000
,58.750000=120.000000
,60.000000=240.000000
,60.250000=120.000000
,60.375000=60.000000
,60.500000=240.000000
,61.750000=120.000000
,61.875000=60.000000
,62.000000=240.000000
,62.250000=120.000000
,62.375000=60.000000
,62.500000=240.000000
,63.750000=120.000000
,63.875000=60.000000
,64.000000=240.000000
,64.750000=120.000000
,64.875000=60.000000
,65.000000=240.000000
,65.750000=120.000000
,65.875000=60.000000
,66.000000=240.000000
,66.250000=120.000000
,66.375000=60.000000
,66.500000=240.000000
,67.250000=120.000000
,67.375000=60.000000
,67.625000=120.000000
,67.750000=240.000000
,68.000000=120.000000
,68.500000=240.000000
,68.750000=120.000000
,68.875000=60.000000
,69.000000=240.000000
,69.750000=120.000000
,69.875000=60.000000
,70.000000=240.000000
,70.250000=120.000000
,70.375000=60.000000
,70.500000=240.000000
,71.750000=120.000000
,71.875000=60.000000
,72.000000=120.000000
,76.000000=240.000000
,76.250000=120.000000
,76.375000=60.000000
,76.500000=240.000000
,77.750000=120.000000
,77.875000=60.000000
,78.000000=240.000000
,78.250000=120.000000
,78.375000=60.000000
,78.500000=240.000000
,79.750000=120.000000
,79.875000=60.000000
,80.000000=240.000000
,80.750000=120.000000
,80.875000=60.000000
,81.000000=240.000000
,81.750000=120.000000
,81.875000=60.000000
,82.000000=240.000000
,82.166664=120.000000
,82.250000=60.000000
,82.333336=240.000000
,83.250000=120.000000
,83.375000=60.000000
,83.625000=120.000000
,83.750000=240.000000
,84.000000=120.000000
,84.500000=240.000000
,84.750000=120.000000
,84.875000=60.000000
,85.083336=120.000000
,85.166664=240.000000
,85.333336=60.000000
,85.416664=120.000000
,85.500000=240.000000
,85.666664=60.000000
,85.750000=120.000000
,85.833336=240.000000
,86.250000=120.000000
,86.375000=60.000000
,86.500000=120.000000
,87.000000=240.000000
,87.500000=60.000000
,87.625000=120.000000
,87.750000=240.000000
,88.000000=120.000000
,158.000000=240.000000
,158.500000=120.000000
,158.750000=60.000000
,159.000000=240.000000
,159.250000=120.000000
,159.375000=60.000000
,159.625000=120.000000
,159.750000=240.000000
,162.500000=60.000000
,162.625000=120.000000
,162.750000=240.000000
,163.250000=120.000000
,163.375000=60.000000
,163.583328=120.000000
,163.666672=240.000000
,163.833328=480.000000
,166.000000=60.000000
,166.083328=120.000000
,166.166672=240.000000
,166.500000=60.000000
,166.625000=120.000000
,166.750000=240.000000
,167.250000=120.000000
,167.375000=60.000000
,167.625000=120.000000
,167.750000=240.000000
,168.166672=120.000000
,168.250000=60.000000
,168.333328=240.000000
,170.000000=480.000000
,171.500000=120.000000
,172.000000=60.000000
,173.000000=120.000000
,174.000000=240.000000
,174.250000=120.000000
,174.375000=60.000000
,174.625000=120.000000
,174.750000=240.000000
,175.166672=120.000000
,175.250000=60.000000
,175.333328=180.000000
,177.000000=60.000000
,177.083328=120.000000
,177.166672=240.000000
,177.500000=60.000000
,177.625000=120.000000
,177.750000=240.000000
,178.250000=120.000000
,178.375000=60.000000
,178.583328=120.000000
,178.666672=240.000000
,178.833328=480.000000
,181.000000=60.000000
,181.083328=120.000000
,181.166672=240.000000
,181.500000=60.000000
,181.625000=120.000000
,181.750000=240.000000
,182.250000=120.000000
,182.375000=60.000000
,182.625000=120.000000
,182.750000=240.000000
,183.000000=120.000000
,186.000000=40.000000
,187.000000=120.000000
,188.000000=240.000000
,188.250000=120.000000
,188.375000=60.000000
,188.500000=240.000000
,189.750000=120.000000
,189.875000=60.000000
,190.000000=240.000000
,190.250000=120.000000
,190.375000=60.000000
,190.500000=240.000000
,191.750000=120.000000
,191.875000=60.000000
,192.000000=240.000000
,192.750000=120.000000
,192.875000=60.000000
,193.000000=240.000000
,193.750000=120.000000
,193.875000=60.000000
,194.000000=240.000000
,194.250000=120.000000
,194.375000=60.000000
,194.500000=240.000000
,195.250000=120.000000
,195.375000=60.000000
,195.625000=120.000000
,195.750000=240.000000
,196.000000=120.000000
,196.500000=240.000000
,196.750000=120.000000
,196.875000=60.000000
,197.000000=240.000000
,197.750000=120.000000
,197.875000=60.000000
,198.000000=240.000000
,198.250000=120.000000
,198.375000=60.000000
,198.500000=240.000000
,199.750000=120.000000
,199.875000=60.000000
,200.000000=120.000000
,204.000000=240.000000
,204.250000=120.000000
,204.375000=60.000000
,204.500000=240.000000
,204.750000=120.000000
,204.875000=60.000000
,205.083328=120.000000
,205.166672=240.000000
,205.333328=60.000000
,205.416672=120.000000
,205.500000=240.000000
,205.666672=60.000000
,205.750000=120.000000
,205.833328=240.000000
,206.000000=60.000000
,206.083328=120.000000
,206.166672=240.000000
,206.333328=60.000000
,206.416672=120.000000
,206.500000=240.000000
,206.666672=60.000000
,206.750000=120.000000
,206.833328=240.000000
,207.250000=120.000000
,207.375000=60.000000
,207.625000=120.000000
,207.750000=240.000000
,208.750000=120.000000
,208.875000=60.000000
,209.000000=240.000000
,209.750000=120.000000
,209.875000=60.000000
,210.000000=240.000000
,210.250000=120.000000
,210.375000=60.000000
,210.500000=240.000000
,211.250000=120.000000
,211.375000=60.000000
,211.625000=120.000000
,211.750000=240.000000
,212.250000=120.000000
,212.375000=60.000000
,212.500000=240.000000
,213.750000=120.000000
,213.875000=60.000000
,214.000000=240.000000
,214.250000=120.000000
,214.375000=60.000000
,214.500000=240.000000
,215.750000=120.000000
,215.875000=60.000000
,216.000000=120.000000
;
#STOPS:58.750000=1.375000
,60.500000=0.083332
,60.833332=0.041668
,61.000000=0.083332
,61.333332=0.041668
,62.500000=0.041668
,62.666668=0.041664
,62.833332=0.041664
,63.000000=0.083332
,63.333332=0.041668
,64.000000=0.083332
,64.333336=0.041668
,65.000000=0.083332
,65.333336=0.041668
,66.500000=0.041668
,66.666664=0.041664
,66.833336=0.041664
,69.000000=0.083332
,69.333336=0.041668
,70.500000=0.041668
,70.666664=0.041664
,70.833336=0.041664
,71.000000=0.083332
,71.333336=0.041668
,76.500000=0.083332
,76.833336=0.041668
,77.000000=0.083332
,77.333336=0.041668
,78.500000=0.041668
,78.666664=0.041664
,78.833336=0.041664
,79.000000=0.083332
,79.333336=0.041668
,80.000000=0.083332
,80.333336=0.041668
,81.000000=0.041668
,81.166664=0.041664
,81.333336=0.041664
,82.333336=0.041668
,82.500000=0.041664
,82.666664=0.041664
,82.833336=0.041664
,87.000000=0.041668
,87.166664=0.041664
,87.333336=0.041664
,158.000000=0.500004
,160.000000=0.083340
,160.333328=0.041668
,160.500000=0.083340
,160.833328=0.041668
,161.000000=0.083340
,161.333328=0.041668
,161.500000=0.083340
,161.833328=0.041668
,162.000000=0.083340
,162.333328=0.041668
,163.833328=0.062504
,164.000000=0.062504
,164.166672=0.062504
,164.333328=0.062504
,164.500000=0.062504
,164.666672=0.062504
,164.833328=0.062504
,165.000000=0.062504
,165.166672=0.062504
,165.333328=0.062504
,165.500000=0.062504
,165.666672=0.062504
,165.833328=0.062504
,166.333328=0.041675
,168.333328=0.041668
,168.500000=0.083340
,168.833328=0.041668
,169.000000=0.083340
,169.333328=0.041668
,169.500000=0.083340
,169.833328=0.041668
,170.000000=0.062504
,170.166672=0.062504
,170.333328=0.062504
,170.500000=0.062504
,170.666672=0.062504
,170.833328=0.062504
,171.437500=0.187504
,175.333328=0.027782
,175.500000=0.027782
,175.666672=0.027782
,175.833328=0.027782
,176.000000=0.027782
,176.166672=0.027782
,176.333328=0.027782
,176.500000=0.027782
,176.666672=0.027782
,176.833328=0.027782
,177.333328=0.041675
,178.833328=0.062504
,179.000000=0.062504
,179.166672=0.062504
,179.333328=0.062504
,179.500000=0.062504
,179.666672=0.062504
,179.833328=0.062504
,180.000000=0.062504
,180.166672=0.062504
,180.333328=0.062504
,180.500000=0.062504
,180.666672=0.062504
,180.833328=0.062504
,181.333328=0.041675
,188.500000=0.083340
,188.833328=0.041668
,189.000000=0.083340
,189.333328=0.041668
,190.500000=0.041668
,190.666672=0.041675
,190.833328=0.041675
,191.000000=0.083340
,191.333328=0.041668
,192.000000=0.083340
,192.333328=0.041668
,193.000000=0.083340
,193.333328=0.041668
,194.500000=0.041668
,194.666672=0.041675
,194.833328=0.041675
,197.000000=0.083340
,197.333328=0.041668
,198.500000=0.041668
,198.666672=0.041675
,198.833328=0.041675
,199.000000=0.083340
,199.333328=0.041668
,208.000000=0.083340
,208.333328=0.041668
,209.000000=0.083340
,209.333328=0.041668
,210.500000=0.041668
,210.666672=0.041675
,210.833328=0.041675
,212.500000=0.083324
,212.833328=0.041668
,213.000000=0.083324
,213.333328=0.041668
,214.500000=0.041668
,214.666672=0.041653
,214.833328=0.041653
,215.000000=0.083324
,215.333328=0.041668
;
#DELAYS:;
#WARPS:;
#TIMESIGNATURES:0.000000=4=4
;
#TICKCOUNTS:0.000000=4
;
#COMBOS:0.000000=1
;
#SPEEDS:0.000000=1.000000=0.000000=0
;
#SCROLLS:0.000000=1.000000
;
#FAKES:;
#LABELS:0.000000=Song Start
;
#DISPLAYBPM:120.000000;
#NOTES:
0000
0000
0000
0000
,
0000
0000
0000
0000
,
0000
0000
0000
0000
,
0000
0000
0000
0000
,
1000
0000
0000
0100
0000
0000
0010
0000
0000
0100
0000
0000
1000
0000
0000
0100
0000
0010
0000
0000
0001
1000
0000
0000
,
0001
0000
0000
0100
0000
0000
0010
0000
0000
0100
0000
0000
0001
0000
0000
0100
0000
0010
0000
0000
1000
0001
0000
0000
,
0010
0000
0000
0100
0000
0000
0010
0000
0000
0001
0000
0000
1000
0000
0000
0010
0000
0100
0000
0000
0010
1000
0000
0000
,
0001
0000
1000
0001
0000
1000
0001
0000
0010
0000
0000
0200
0000
0000
0000
0310
0000
0001
0000
0000
0001
0100
0000
0000
,
1001
0000
0000
1000
0000
0000
0010
0000
0000
0100
0000
0000
1000
0000
0000
0100
0000
0010
0000
0000
0010
1000
0000
0000
,
1001
0000
0000
0001
0000
0000
0010
0000
0000
0100
0000
0000
0001
0000
0000
0100
0000
0010
0000
0000
0010
0001
0000
0000
,
1001
0000
0000
1000
0000
0000
0010
0000
0000
0001
0000
0000
0010
0000
0000
1000
0000
0100
0000
0000
0100
0010
0000
0000
,
0001
0000
0010
0100
0000
0010
0100
0000
0010
0000
0000
2000
0000
0000
0000
3010
0000
0100
0000
0000
0010
0001
0000
0000
,
1001
0000
0000
1000
0000
0000
1010
0000
0000
1000
0000
0000
1100
0000
0000
1000
0000
0010
0100
0000
0001
1000
0000
0000
,
1001
0000
0000
0001
0000
0000
0011
0000
0000
0001
0000
0000
0101
0000
0000
1000
0000
0100
0010
0000
0000
0000
0000
0000
,
0001
0000
0010
0000
0001
0000
1000
0000
0010
0000
1000
0000
0001
0000
0100
0000
0001
0000
1000
0000
0100
0000
1000
0000
0002
0000
0000
0000
0000
0000
0203
0000
0000
1300
0000
0000
1001
0000
0000
0000
0000
0000
0100
0000
0000
0000
0000
0000
,
1001
0000
0000
1000
0000
1000
0100
0000
0100
0010
0000
0000
0100
0000
0000
0010
0001
0100
0010
0000
0010
0100
0000
0000
,
1000
0000
1000
0100
0000
0000
0001
0000
0001
0100
0000
0000
0010
0000
0000
1000
0001
0010
0200
0000
0000
1000
0000
0000
,
0310
0000
0000
0001
0000
0000
0100
0000
0001
1000
0000
0000
0100
0000
0000
0010
0100
1000
0001
0000
0001
0100
0000
0000
,
1002
0000
0000
0000
0000
0000
0000
0000
0000
0000
0000
0000
0000
0000
0000
0000
0000
0000
0000
0000
0000
0000
0000
0000
1000
0000
0000
0000
0000
0000
0000
0000
0000
0000
0000
0000
0000
0000
0000
0000
0103
0000
0000
0000
0000
0000
0000
0000
0002
0000
0000
0000
0000
0000
0000
0000
0000
0000
0000
0000
0000
0000
0000
0000
0000
0000
0003
0000
0000
0000
0000
0000
0020
0000
0000
0000
0000
0000
0000
0000
0000
0000
0000
0000
0000
0000
0000
0000
0000
0000
0030
0000
0000
0000
0000
0000
2100
0000
0000
0000
0000
0000
0000
0000
0000
0000
0000
0000
0000
0000
0000
0000
0000
0000
0000
0000
0000
0000
0000
0000
0010
0000
0000
0000
0000
0000
0000
0000
0000
0000
0000
0000
0000
0000
0000
0000
0000
0000
3000
0000
0000
0000
0000
0000
0102
0000
0000
0000
0000
0000
0000
0000
0000
0000
0000
0000
0000
0000
0000
0000
0000
0000
0000
0000
0000
0000
0000
0000
0010
0000
0000
0000
0000
0000
0000
0000
0000
0000
0000
0000
0000
0000
0000
0000
0000
0000
0003
0000
0000
0000
0000
0000
,
1001
0000
0000
0001
0000
0001
0100
0000
0100
0010
0000
0000
0100
0000
0000
0010
1000
0100
0010
0000
0010
0100
0000
0000
,
0001
0000
0001
0100
0000
0000
1000
0100
1000
0100
0000
0000
0010
0000
0010
0001
1000
0010
0200
0000
0000
0001
0000
0000
,
0310
0000
0000
1000
0000
0000
2001
0000
0010
0000
3010
0000
1001
0000
0000
1000
0000
0000
1000
0010
1000
0100
0000
0000
,
0002
0000
2003
0000
3020
0032
0203
0000
0320
0000
0000
0000
2000
0000
3030
0000
,
1001
0000
0000
0001
0000
0000
0010
0000
0100
0020
0000
0000
0001
0000
0000
0000
0000
0000
0031
0000
0010
0100
0000
1000
,
0001
0000
1000
0001
0000
0100
0010
0000
0100
0010
0000
1000
0001
0000
0010
0000
0000
0100
0000
0000
0010
0000
0000
0000
,
0001
1000
0002
0000
0100
0000
0000
0000
0103
0000
0000
0000
0001
0000
0100
0000
,
0001
0000
0000
0000
0000
0000
1000
0000
0000
0001
0000
0000
2000
0000
0000
0000
0000
0000
0000
0000
0000
0000
0000
0000
3100
0000
0000
0000
0000
0000
1000
0000
0000
0000
0100
0000
1000
0000
0000
0000
1000
0000
0001
0000
0000
0000
0000
0000
,
1001
0000
0000
1000
0000
0000
0010
0000
0100
0010
0000
0000
0001
0000
0000
0001
0000
0010
0100
0000
0010
1000
0000
1000
,
0001
0000
0000
0010
0000
0000
0100
0000
0100
0010
0000
0000
1000
0000
0000
1000
0000
0010
0100
0000
0010
0001
0000
0001
,
1000
0000
0000
0001
0000
0100
0010
0000
0000
1000
0000
0100
0020
0000
0000
0000
0000
0031
2000
0000
0000
0000
0000
3010
,
0002
0000
0000
0000
0000
0000
2003
0000
0000
0000
0000
3100
0000
0000
0100
0001
0000
0010
0100
0000
0000
1000
0000
0000
,
1001
0000
0000
0001
0000
0000
0100
0000
0000
0010
0000
0010
0100
0000
1000
0000
0000
1000
0100
0000
0000
0010
0000
0100
,
0001
0000
0000
1000
0000
0000
0001
0000
0001
0010
0000
2000
0000
0000
0000
3010
0000
0000
0001
0000
0000
0100
0000
0000
,
0010
0000
0000
1000
0000
0000
0100
0000
0000
0010
0000
0010
0100
0000
0001
0000
0000
0001
0100
0000
0000
0010
0000
0100
,
1000
0000
0000
0001
0000
0000
1000
0000
0001
0100
0000
2000
0000
0000
0000
3001
0000
0000
0010
0000
0010
1000
0000
0000
,
1001
0000
0000
0101
0000
0000
1001
0000
0000
1100
0000
0001
0010
0000
1000
0000
0000
1000
0010
0000
0000
0100
0000
0010
,
0001
0000
0000
1001
0000
0000
0001
0000
0001
0100
0000
1000
0100
0000
0000
0110
0000
0010
0100
0000
0000
0001
0000
0000
,
1001
0000
0000
1100
0000
0000
1001
0000
0000
0101
0000
1000
0010
0000
0001
0000
0000
0001
0010
0000
0000
0100
0000
0010
,
1000
0000
0010
0100
0000
0010
1000
0000
0010
0100
0000
0001
1000
0000
0100
0010
0000
0100
1000
0000
0100
0010
0000
0001
,
1000
0010
1000
0010
0100
0010
0100
0001
0100
0001
1000
0100
0010
0000
0000
0000
0000
0000
0012
0000
0000
0203
0000
0000
,
1300
0000
1000
0100
0000
0100
0001
0000
0010
0100
0000
0010
0001
0000
0001
1000
0000
0000
2001
0000
0000
3100
0000
1000
,
0100
0010
0100
0010
0100
1000
0010
0100
0010
1000
0100
0010
0001
0000
1000
0010
0000
0000
1001
0000
0000
0110
0000
0000
,
0001
0000
0010
0100
0000
0100
0010
0000
0001
1000
0000
0001
0100
0010
1000
0100
0010
0001
1000
0000
0000
MMMM
0000
0000
,
0002
0000
0000
0000
0000
0000
0103
0000
0000
0010
0000
0000
2010
0000
0000
3200
0000
0000
0301
0000
0001
0100
0010
0100
,
1000
0001
1000
0010
0100
0010
1000
0000
0001
0010
0000
0000
1002
0000
0000
0103
0000
0001
0100
0010
0100
0010
0100
0001
,
0010
0100
0010
0001
0100
0010
1000
0000
0001
0010
0000
0000
0011
0000
0000
1100
0000
0000
0011
0000
0001
0100
0000
1010
,
0000
0000
0000
0000
1000
0000
0100
0000
0000
0000
0010
0000
0001
0000
0100
0000
0010
0000
1000
0000
0000
0000
0000
0000
2002
0000
0000
0000
0000
0000
0000
0000
0000
3003
0000
0000
1000
0000
0000
0000
0000
0000
0001
0000
0000
0000
0000
0000
,
1001
0000
0000
0001
0000
1000
0100
0000
0001
0100
0000
0000
0210
0000
0000
0301
0100
0010
0100
0000
1000
0100
0000
0000
,
1100
0000
1000
0010
0000
0000
0101
0000
0001
0010
0000
0000
1001
0000
0000
0001
0100
0010
2000
0000
0000
0010
0000
0000
,
3001
0000
0001
0010
0000
0000
1000
0000
0010
0001
0000
0000
0110
0000
0000
0001
0010
0100
1000
0000
0010
0100
0000
0000
,
1002
0000
0000
0000
0000
0000
0000
0000
0000
0000
0000
0000
0000
0000
0000
0000
0000
0000
0000
0000
0000
0000
0000
0000
1000
0000
0000
0000
0000
0000
0000
0000
0000
0000
0000
0000
0000
0000
0000
0000
0103
0000
0000
0000
0000
0000
0000
0000
0002
0000
0000
0000
0000
0000
0000
0000
0000
0000
0000
0000
0000
0000
0000
0000
0000
0000
0003
0000
0000
0000
0000
0000
0020
0000
0000
0000
0000
0000
0000
0000
0000
0000
0000
0000
0000
0000
0000
0000
0000
0000
0030
0000
0000
0000
0000
0000
2100
0000
0000
0000
0000
0000
0000
0000
0000
0000
0000
0000
0000
0000
0000
0000
0000
0000
0000
0000
0000
0000
0000
0000
0010
0000
0000
0000
0000
0000
0000
0000
0000
0000
0000
0000
0000
0000
0000
0000
0000
0000
3000
0000
0000
0000
0000
0000
0102
0000
0000
0000
0000
0000
0000
0000
0000
0000
0000
0000
0000
0000
0000
0000
0000
0000
0000
0000
0000
0000
0000
0000
0010
0000
0000
0000
0000
0000
0000
0000
0000
0000
0000
0000
0000
0000
0000
0000
0000
0000
0003
0000
0000
0000
0000
0000
,
1001
0000
0000
0010
0000
0000
1002
0000
0010
0000
0013
0000
2001
0000
0010
0000
3010
0000
1002
0000
0000
0103
0000
0000
,
0101
0000
0001
0010
0000
0000
1100
0000
1000
0010
0000
0000
1001
0000
0000
1000
0100
0010
0002
0000
0000
0010
0000
0000
,
1003
0000
0000
0010
0000
0001
0010
0000
1000
0010
0000
0000
0110
0000
0000
0001
1000
0100
0010
0000
0010
0100
0000
0000
,
0002
0000
2003
0000
3020
0032
0203
0000
0320
0000
0000
0000
2000
0000
3030
0000
,
0001
0000
0000
0100
0000
0000
0110
0000
0000
0100
0000
0000
0001
0000
0000
0100
0000
1000
0000
0000
1000
0100
0000
0000
,
0001
0000
0000
0010
0000
0000
0110
0000
0000
0010
0000
0000
0001
0000
0000
0010
0000
1000
0000
0000
0010
0100
0000
0010
,
0001
0000
0000
0100
0000
0000
0110
0000
0000
0100
0000
0000
1000
0000
0001
0000
0000
0010
0000
0000
1000
0001
0000
0000
,
1000
0000
0000
0100
0000
0000
0110
0000
0000
0100
0000
0000
0001
0000
0000
1000
0000
0010
0000
0000
0100
0010
0000
0000
,
0001
0000
1000
0001
0000
0000
0100
0000
0000
0001
0000
0000
1000
0000
0001
0000
0000
0100
0000
0000
0001
1000
0000
0000
,
0001
0000
0000
0010
0000
0000
0100
0000
0000
0010
0000
0000
0001
0000
0000
0010
0000
0100
0000
0000
0010
0001
0000
1000
,
0010
0000
0000
0100
0000
0000
0010
0000
0000
1000
0000
0000
0010
0000
0100
0000
0000
0010
0000
0000
1000
0001
0000
0000
,
0010
0000
0000
0001
0000
0000
1000
0000
0000
0001
0000
0000
0010
0000
0000
0001
0000
1000
0000
0000
0001
0100
0000
0000
,
0110
0000
0000
0000
;

//---------------dance-single - ----------------
#NOTEDATA:;
#CHARTNAME:;
#STEPSTYPE:dance-single;
#DESCRIPTION:;
#CHARTSTYLE:;
#DIFFICULTY:Hard;
#METER:12;
#RADARVALUES:0.537105,0.588627,0.358782,0.441003,0.179391,503.000000,455.000000,48.000000,59.000000,0.000000,0.000000,0.000000,0.000000,0.000000,0.537105,0.588627,0.358782,0.441003,0.179391,503.000000,455.000000,48.000000,59.000000,0.000000,0.000000,0.000000,0.000000,0.000000;
#CREDIT:;
#OFFSET:-2.027596;
#BPMS:0.000000=120.000000
,55.000000=240.000000
,55.500000=120.000000
,55.750000=60.000000
,56.000000=120.000000
,58.000000=60.000000
,58.500000=30.000000
,58.750000=120.000000
,60.000000=240.000000
,60.250000=120.000000
,60.375000=60.000000
,60.500000=240.000000
,61.750000=120.000000
,61.875000=60.000000
,62.000000=240.000000
,62.250000=120.000000
,62.375000=60.000000
,62.500000=240.000000
,63.750000=120.000000
,63.875000=60.000000
,64.000000=240.000000
,64.750000=120.000000
,64.875000=60.000000
,65.000000=240.000000
,65.750000=120.000000
,65.875000=60.000000
,66.000000=240.000000
,66.250000=120.000000
,66.375000=60.000000
,66.500000=240.000000
,67.250000=120.000000
,67.375000=60.000000
,67.625000=120.000000
,67.750000=240.000000
,68.000000=120.000000
,68.500000=240.000000
,68.750000=120.000000
,68.875000=60.000000
,69.000000=240.000000
,69.750000=120.000000
,69.875000=60.000000
,70.000000=240.000000
,70.250000=120.000000
,70.375000=60.000000
,70.500000=240.000000
,71.750000=120.000000
,71.875000=60.000000
,72.000000=120.000000
,76.000000=240.000000
,76.250000=120.000000
,76.375000=60.000000
,76.500000=240.000000
,77.750000=120.000000
,77.875000=60.000000
,78.000000=240.000000
,78.250000=120.000000
,78.375000=60.000000
,78.500000=240.000000
,79.750000=120.000000
,79.875000=60.000000
,80.000000=240.000000
,80.750000=120.000000
,80.875000=60.000000
,81.000000=240.000000
,81.750000=120.000000
,81.875000=60.000000
,82.000000=240.000000
,82.166664=120.000000
,82.250000=60.000000
,82.333336=240.000000
,83.250000=120.000000
,83.375000=60.000000
,83.625000=120.000000
,83.750000=240.000000
,84.000000=120.000000
,84.500000=240.000000
,84.750000=120.000000
,84.875000=60.000000
,85.083336=120.000000
,85.166664=240.000000
,85.333336=60.000000
,85.416664=120.000000
,85.500000=240.000000
,85.666664=60.000000
,85.750000=120.000000
,85.833336=240.000000
,86.250000=120.000000
,86.375000=60.000000
,86.500000=120.000000
,87.000000=240.000000
,87.500000=60.000000
,87.625000=120.000000
,87.750000=240.000000
,88.000000=120.000000
,158.000000=240.000000
,158.500000=120.000000
,158.750000=60.000000
,159.000000=240.000000
,159.250000=120.000000
,159.375000=60.000000
,159.625000=120.000000
,159.750000=240.000000
,162.500000=60.000000
,162.625000=120.000000
,162.750000=240.000000
,163.250000=120.000000
,163.375000=60.000000
,163.583328=120.000000
,163.666672=240.000000
,163.833328=480.000000
,166.000000=60.000000
,166.083328=120.000000
,166.166672=240.000000
,166.500000=60.000000
,166.625000=120.000000
,166.750000=240.000000
,167.250000=120.000000
,167.375000=60.000000
,167.625000=120.000000
,167.750000=240.000000
,168.166672=120.000000
,168.250000=60.000000
,168.333328=240.000000
,170.000000=480.000000
,171.500000=120.000000
,172.000000=60.000000
,173.000000=120.000000
,174.000000=240.000000
,174.250000=120.000000
,174.375000=60.000000
,174.625000=120.000000
,174.750000=240.000000
,175.166672=120.000000
,175.250000=60.000000
,175.333328=180.000000
,177.000000=60.000000
,177.083328=120.000000
,177.166672=240.000000
,177.500000=60.000000
,177.625000=120.000000
,177.750000=240.000000
,178.250000=120.000000
,178.375000=60.000000
,178.583328=120.000000
,178.666672=240.000000
,178.833328=480.000000
,181.000000=60.000000
,181.083328=120.000000
,181.166672=240.000000
,181.500000=60.000000
,181.625000=120.000000
,181.750000=240.000000
,182.250000=120.000000
,182.375000=60.000000
,182.625000=120.000000
,182.750000=240.000000
,183.000000=120.000000
,186.000000=40.000000
,187.000000=120.000000
,188.000000=240.000000
,188.250000=120.000000
,188.375000=60.000000
,188.500000=240.000000
,189.750000=120.000000
,189.875000=60.000000
,190.000000=240.000000
,190.250000=120.000000
,190.375000=60.000000
,190.500000=240.000000
,191.750000=120.000000
,191.875000=60.000000
,192.000000=240.000000
,192.750000=120.000000
,192.875000=60.000000
,193.000000=240.000000
,193.750000=120.000000
,193.875000=60.000000
,194.000000=240.000000
,194.250000=120.000000
,194.375000=60.000000
,194.500000=240.000000
,195.250000=120.000000
,195.375000=60.000000
,195.625000=120.000000
,195.750000=240.000000
,196.000000=120.000000
,196.500000=240.000000
,196.750000=120.000000
,196.875000=60.000000
,197.000000=240.000000
,197.750000=120.000000
,197.875000=60.000000
,198.000000=240.000000
,198.250000=120.000000
,198.375000=60.000000
,198.500000=240.000000
,199.750000=120.000000
,199.875000=60.000000
,200.000000=120.000000
,204.000000=240.000000
,204.250000=120.000000
,204.375000=60.000000
,204.500000=240.000000
,204.750000=120.000000
,204.875000=60.000000
,205.083328=120.000000
,205.166672=240.000000
,205.333328=60.000000
,205.416672=120.000000
,205.500000=240.000000
,205.666672=60.000000
,205.750000=120.000000
,205.833328=240.000000
,206.000000=60.000000
,206.083328=120.000000
,206.166672=240.000000
,206.333328=60.000000
,206.416672=120.000000
,206.500000=240.000000
,206.666672=60.000000
,206.750000=120.000000
,206.833328=240.000000
,207.250000=120.000000
,207.375000=60.000000
,207.625000=120.000000
,207.750000=240.000000
,208.750000=120.000000
,208.875000=60.000000
,209.000000=240.000000
,209.750000=120.000000
,209.875000=60.000000
,210.000000=240.000000
,210.250000=120.000000
,210.375000=60.000000
,210.500000=240.000000
,211.250000=120.000000
,211.375000=60.000000
,211.625000=120.000000
,211.750000=240.000000
,212.250000=120.000000
,212.375000=60.000000
,212.500000=240.000000
,213.750000=120.000000
,213.875000=60.000000
,214.000000=240.000000
,214.250000=120.000000
,214.375000=60.000000
,214.500000=240.000000
,215.750000=120.000000
,215.875000=60.000000
,216.000000=120.000000
;
#STOPS:58.750000=1.375000
,60.500000=0.083332
,60.833332=0.041668
,61.000000=0.083332
,61.333332=0.041668
,62.500000=0.041668
,62.666668=0.041664
,62.833332=0.041664
,63.000000=0.083332
,63.333332=0.041668
,64.000000=0.083332
,64.333336=0.041668
,65.000000=0.083332
,65.333336=0.041668
,66.500000=0.041668
,66.666664=0.041664
,66.833336=0.041664
,69.000000=0.083332
,69.333336=0.041668
,70.500000=0.041668
,70.666664=0.041664
,70.833336=0.041664
,71.000000=0.083332
,71.333336=0.041668
,76.500000=0.083332
,76.833336=0.041668
,77.000000=0.083332
,77.333336=0.041668
,78.500000=0.041668
,78.666664=0.041664
,78.833336=0.041664
,79.000000=0.083332
,79.333336=0.041668
,80.000000=0.083332
,80.333336=0.041668
,81.000000=0.041668
,81.166664=0.041664
,81.333336=0.041664
,82.333336=0.041668
,82.500000=0.041664
,82.666664=0.041664
,82.833336=0.041664
,87.000000=0.041668
,87.166664=0.041664
,87.333336=0.041664
,158.000000=0.500004
,160.000000=0.083340
,160.333328=0.041668
,160.500000=0.083340
,160.833328=0.041668
,161.000000=0.083340
,161.333328=0.041668
,161.500000=0.083340
,161.833328=0.041668
,162.000000=0.083340
,162.333328=0.041668
,163.833328=0.062504
,164.000000=0.062504
,164.166672=0.062504
,164.333328=0.062504
,164.500000=0.062504
,164.666672=0.062504
,164.833328=0.062504
,165.000000=0.062504
,165.166672=0.062504
,165.333328=0.062504
,165.500000=0.062504
,165.666672=0.062504
,165.833328=0.062504
,166.333328=0.041675
,168.333328=0.041668
,168.500000=0.083340
,168.833328=0.041668
,169.000000=0.083340
,169.333328=0.041668
,169.500000=0.083340
,169.833328=0.041668
,170.000000=0.062504
,170.166672=0.062504
,170.333328=0.062504
,170.500000=0.062504
,170.666672=0.062504
,170.833328=0.062504
,171.437500=0.187504
,175.333328=0.027782
,175.500000=0.027782
,175.666672=0.027782
,175.833328=0.027782
,176.000000=0.027782
,176.166672=0.027782
,176.333328=0.027782
,176.500000=0.027782
,176.666672=0.027782
,176.833328=0.027782
,177.333328=0.041675
,178.833328=0.062504
,179.000000=0.062504
,179.166672=0.062504
,179.333328=0.062504
,179.500000=0.062504
,179.666672=0.062504
,179.833328=0.062504
,180.000000=0.062504
,180.166672=0.062504
,180.333328=0.062504
,180.500000=0.062504
,180.666672=0.062504
,180.833328=0.062504
,181.333328=0.041675
,188.500000=0.083340
,188.833328=0.041668
,189.000000=0.083340
,189.333328=0.041668
,190.500000=0.041668
,190.666672=0.041675
,190.833328=0.041675
,191.000000=0.083340
,191.333328=0.041668
,192.000000=0.083340
,192.333328=0.041668
,193.000000=0.083340
,193.333328=0.041668
,194.500000=0.041668
,194.666672=0.041675
,194.833328=0.041675
,197.000000=0.083340
,197.333328=0.041668
,198.500000=0.041668
,198.666672=0.041675
,198.833328=0.041675
,199.000000=0.083340
,199.333328=0.041668
,208.000000=0.083340
,208.333328=0.041668
,209.000000=0.083340
,209.333328=0.041668
,210.500000=0.041668
,210.666672=0.041675
,210.833328=0.041675
,212.500000=0.083324
,212.833328=0.041668
,213.000000=0.083324
,213.333328=0.041668
,214.500000=0.041668
,214.666672=0.041653
,214.833328=0.041653
,215.000000=0.083324
,215.333328=0.041668
;
#DELAYS:;
#WARPS:;
#TIMESIGNATURES:0.000000=4=4
;
#TICKCOUNTS:0.000000=4
;
#COMBOS:0.000000=1
;
#SPEEDS:0.000000=1.000000=0.000000=0
;
#SCROLLS:0.000000=1.000000
;
#FAKES:;
#LABELS:0.000000=Song Start
;
#DISPLAYBPM:120.000000;
#NOTES:
// measure 0
0000
0000
0000
0000
,  // measure 1
0000
0000
0000
0000
,  // measure 2
0000
0000
0000
0000
,  // measure 3
0000
0000
0000
0000
,  // measure 4
0001
0100
0010
0100
0001
0010
0100
0000
,  // measure 5
1000
0100
0010
0100
1000
0010
0100
0000
,  // measure 6
0001
0010
0100
1000
0010
0100
0001
0000
,  // measure 7
1000
0000
0000
1000
0000
0000
1000
0000
0000
0000
0000
1000
0001
0000
0000
0010
0000
0000
0100
0000
0000
1000
0000
0000
,  // measure 8
0001
0100
1000
0100
0001
0010
0110
0000
,  // measure 9
1000
0100
0001
0100
1000
0010
0110
0000
,  // measure 10
0001
0100
0010
1000
0100
0010
0110
0000
,  // measure 11
0001
0000
0000
0001
0000
0000
0001
0000
0000
0000
0000
0001
1000
0000
0000
0010
0000
0000
0100
0000
0000
0001
0000
0000
,  // measure 12
1000
0100
0001
0100
1000
0100
0001
0100
,  // measure 13
1000
0010
0001
0010
1000
0010
0110
0000
,  // measure 14
0001
0000
0100
0000
1000
0000
0001
0000
0020
0000
2030
3001
0001
0000
1000
0000
,  // measure 15
1001
0000
0000
1000
0000
0100
0010
0000
0100
0010
0000
0000
0001
0000
0000
0100
0000
0010
0100
0000
0010
0100
0000
0000
,  // measure 16
1000
0100
0001
0100
1000
0001
0020
0000
,  // measure 17
1030
0000
0000
0100
0000
0000
0010
0000
0010
0001
0000
0000
0100
0000
0000
0010
0000
1000
0100
0000
0000
0010
0000
0000
,  // measure 18
0012
0000
0203
2300
3200
0000
0002
0303
,  // measure 19
1001
0000
0000
0001
0000
0100
0010
0000
0100
0010
0000
0000
1000
0000
0000
0100
0000
0010
0100
0000
0010
0100
0000
0000
,  // measure 20
0001
0000
0000
0100
0000
0000
1000
0000
1000
0100
0000
0000
0001
0000
0000
1000
0000
0000
0020
0000
0000
0000
0000
0000
,  // measure 21
0031
0000
0000
0100
0000
0000
0010
0000
1000
0000
0010
0000
1000
0000
0000
0001
0000
0000
0110
0000
0000
1001
0000
0000
,  // measure 22
0002
0023
2030
3002
0203
0000
2300
0000
,  // measure 23
3001
0100
0010
0000
1000
0100
0010
0000
,  // measure 24
0001
0100
1000
0100
0001
1000
0001
1000
,  // measure 25
0001
0010
0200
0000
0001
0000
0310
0100
,  // measure 26
1000
0010
0200
0000
1300
0100
0001
0001
,  // measure 27
1000
0000
0000
0100
0000
0000
0001
0000
0000
0100
0000
0000
1000
0000
0000
0010
0000
1000
0010
0000
0000
0100
0000
0000
,  // measure 28
0001
0000
0000
0100
0000
0000
1000
0000
0000
0100
0000
0000
0001
0000
0000
0010
0000
0001
0010
0000
0000
0100
0000
0000
,  // measure 29
1000
0010
0001
0010
2020
3030
2002
3003
,  // measure 30
0022
0033
2002
3003
0001
0010
0100
1000
,  // measure 31
0001
0000
0000
0100
0000
0000
0010
0000
0000
0100
0000
0000
0001
0000
0100
0000
0000
1000
0000
0000
0000
1000
0000
0000
,  // measure 32
1000
0000
0000
0100
0000
0000
0001
0000
0000
0000
0000
0010
0000
0000
0000
0100
0000
0000
0010
0000
0000
0001
0000
0000
,  // measure 33
1000
0000
0000
0100
0000
0000
0010
0000
0000
0100
0000
0000
1000
0000
0100
0000
0000
0001
0000
0000
0000
0001
0000
0000
,  // measure 34
0001
0000
0000
0100
0000
0000
1000
0000
0000
0000
0000
0010
0000
0000
0000
0001
0000
0000
0010
0000
0000
1000
0000
0000
,  // measure 35
0001
0000
0000
0010
0000
0000
1000
0000
0000
0001
0000
0000
0100
0000
1000
0000
0000
1100
0000
0000
0000
1000
0000
0000
,  // measure 36
1000
0000
0000
0100
0000
0000
0010
0000
0000
0000
0000
0011
0000
0000
0000
0001
0000
0000
0100
0000
0000
0010
0000
0000
,  // measure 37
1000
0000
0000
0010
0000
0000
0001
0000
0000
1000
0000
0000
0100
0000
0001
0000
0000
0101
0000
0000
0000
0001
0000
0000
,  // measure 38
0001
0100
1000
0100
0001
0010
1000
0010
,  // measure 39
0011
1001
1010
1001
0011
0000
0002
0203
,  // measure 40
1300
0000
0000
1000
0000
0000
1100
0000
0000
1000
0000
0000
0100
0000
0100
0001
0000
0000
0020
0000
0000
0230
0000
0000
,  // measure 41
0301
1000
0010
0001
0011
0011
2000
3020
,  // measure 42
0031
0000
0000
0010
0000
0000
1000
0000
0000
0100
0000
0000
0010
0001
0010
0002
0000
0000
2000
0000
0000
3003
0000
0000
,  // measure 43
0002
0000
2003
3020
2030
3200
0301
0001
,  // measure 44
0101
0000
0000
0001
0000
0000
0100
0000
0100
1000
0000
0000
0020
0000
0000
0230
0000
0000
1300
0000
0000
0001
0000
0000
,  // measure 45
0010
0000
0000
1000
0000
0000
1010
0000
0000
1010
0000
0000
0002
0000
0000
0023
0000
0000
0130
0000
0000
1000
0000
0001
,  // measure 46
0000
0000
0001
1000
0000
0000
0010
0100
0010
0200
0000
0000
0301
0000
0000
0000
0000
0000
1000
0000
0000
0001
0000
0000
,  // measure 47
1001
1000
1100
0011
0001
0100
0101
1010
,  // measure 48
1000
0110
0001
0110
1000
0001
2002
3003
,  // measure 49
0010
0000
0000
1001
0000
0000
0100
0000
0000
1001
0000
0000
1001
0000
0000
0010
0000
0000
1000
0000
0100
0010
0000
0000
,  // measure 50
0012
0000
0203
2300
3200
0000
0002
0303
,  // measure 51
1001
0000
0000
0001
0000
0000
1000
0000
0100
0000
0010
0000
0001
0000
0100
0000
0010
0000
1002
0000
0000
0013
0000
0000
,  // measure 52
0100
0110
1000
0110
0001
1000
2002
3003
,  // measure 53
0001
0000
0000
0011
0000
0000
0100
0000
0000
1010
0000
0000
1010
0000
0000
1000
0000
0010
0100
0000
0001
1000
0000
0000
,  // measure 54
0002
0023
2030
3002
0203
0000
2300
0000
,  // measure 55
3001
0100
0010
0100
1000
0100
0010
0100
,  // measure 56
0001
0010
0100
0010
1000
0010
0100
0010
,  // measure 57
0001
0100
1000
0001
0010
1000
0001
1000
,  // measure 58
0100
0001
1000
0010
0001
1000
0001
0100
,  // measure 59
0010
0000
0000
0010
0000
0000
1000
0000
0000
0000
0000
0000
0010
0000
0000
0000
0000
1000
0000
0000
0000
0001
0000
0000
,  // measure 60
1000
0000
0000
1000
0000
0000
0100
0000
0000
0000
0000
0000
1000
0000
0000
0000
0000
0100
0000
0000
0000
0100
0000
0000
,  // measure 61
0010
0000
0000
0010
0000
0000
0001
0000
0000
0000
0000
0000
0010
0000
0000
0000
0000
0001
0000
0000
0000
1000
0000
0000
,  // measure 62
0001
0000
0000
0001
0000
0000
0100
0000
0000
0000
0000
0000
0001
0000
0000
0000
0000
0100
0000
0000
0000
0010
0000
0000
,  // measure 63
0110
0000
0000
0000
;

//---------------dance-single - ----------------
#NOTEDATA:;
#CHARTNAME:;
#STEPSTYPE:dance-single;
#DESCRIPTION:;
#CHARTSTYLE:;
#DIFFICULTY:Medium;
#METER:9;
#RADARVALUES:0.386545,0.698036,0.164442,0.284036,0.048585,362.000000,340.000000,22.000000,38.000000,0.000000,0.000000,0.000000,0.000000,0.000000,0.386545,0.698036,0.164442,0.284036,0.048585,362.000000,340.000000,22.000000,38.000000,0.000000,0.000000,0.000000,0.000000,0.000000;
#CREDIT:;
#OFFSET:-2.027596;
#BPMS:0.000000=120.000000
,58.000000=60.000000
,59.000000=120.000000
,159.000000=60.000000
,166.000000=30.000000
,166.500000=60.000000
,173.000000=120.000000
;
#STOPS:59.000000=1.000000
,166.000000=0.500004
;
#DELAYS:;
#WARPS:;
#TIMESIGNATURES:0.000000=4=4
;
#TICKCOUNTS:0.000000=4
;
#COMBOS:0.000000=1
;
#SPEEDS:0.000000=1.000000=0.000000=0
;
#SCROLLS:0.000000=1.000000
,159.000000=0.000000
,159.500000=1.000000
,173.000000=0.000000
,175.500000=1.000000
;
#FAKES:;
#LABELS:0.000000=Song Start
;
#DISPLAYBPM:120.000000;
#NOTES:
// measure 0
0000
0000
0000
0000
,  // measure 1
0000
0000
0000
0000
,  // measure 2
0000
0000
0000
0000
,  // measure 3
0000
0000
0000
0000
,  // measure 4
1000
0000
0100
0000
0010
0001
0100
0000
,  // measure 5
0001
0000
0100
0000
0010
1000
0100
0000
,  // measure 6
1000
0000
0001
0000
0100
0010
1000
0000
,  // measure 7
0001
0001
0001
0000
0010
0100
1000
0000
,  // measure 8
0001
0000
0100
0000
1000
0100
0001
0000
,  // measure 9
1000
0000
0100
0000
0001
0100
1000
0000
,  // measure 10
0001
0000
0010
0000
1000
0010
0001
0000
,  // measure 11
1000
1000
1000
0000
0010
0001
0010
0000
,  // measure 12
1000
0100
1000
0100
1000
0100
0010
0000
,  // measure 13
0001
0100
0001
0100
0001
0100
0010
0000
,  // measure 14
1000
0100
0010
0001
0200
0010
0310
0000
,  // measure 15
1000
0001
1000
0000
1000
0100
0001
0000
,  // measure 16
0001
0100
1000
0000
0100
0000
1000
0100
,  // measure 17
0110
0000
0001
0010
1000
0010
0001
0000
,  // measure 18
1000
0001
0200
0000
2300
0000
3020
0000
,  // measure 19
0032
0000
1003
0000
0001
0100
1000
0000
,  // measure 20
1000
0100
0001
0000
0100
0000
0001
0100
,  // measure 21
0110
0000
1000
0010
0001
0010
1000
0000
,  // measure 22
1001
0000
2000
3200
0320
0032
2003
0000
,  // measure 23
3020
0130
1010
0100
,  // measure 24
0011
0000
0001
1000
0001
0000
0100
0010
,  // measure 25
0100
0002
0010
0103
,  // measure 26
0001
0001
2000
0000
0010
0000
3100
1000
,  // measure 27
1000
0000
0001
0100
0001
0100
0010
1000
,  // measure 28
0100
0000
1000
0100
1000
0100
0010
0001
,  // measure 29
0100
0000
0010
1000
0001
0100
0020
0000
,  // measure 30
2030
0000
3200
0000
0302
0000
0103
0010
,  // measure 31
0100
0000
1000
0010
0100
0010
1000
0000
,  // measure 32
1010
0000
0010
1000
0100
0000
0010
0001
,  // measure 33
0100
0000
0001
0010
0100
0010
0001
0000
,  // measure 34
0011
0000
0001
0100
1000
0000
1000
0100
,  // measure 35
0001
0000
1000
0100
0010
0001
1000
0000
,  // measure 36
0110
0000
0001
0100
0010
0000
1000
0100
,  // measure 37
0010
0000
0001
0100
0010
1000
0001
0000
,  // measure 38
0110
0000
1000
0100
0001
0000
0001
0100
,  // measure 39
1000
0000
1000
0010
0001
0010
1000
0000
,  // measure 40
2001
0000
3100
0100
0010
0001
0001
0000
0012
0000
0013
0001
0100
0010
1000
0000
,  // measure 41
1020
0000
0130
0100
0001
0010
0010
0000
0110
0000
1000
0001
1002
0000
0103
0100
,  // measure 42
0010
1000
1000
0000
2010
0000
3010
1000
0100
0010
0001
0000
1000
0010
0110
0000
,  // measure 43
0001
0010
0110
0000
2000
0000
0000
0000
0000
0000
0000
0000
0000
0000
0000
0000
,  // measure 44
3001
1000
0001
0100
1000
0000
0100
0001
,  // measure 45
0010
0000
0100
0010
0100
0010
0001
0100
,  // measure 46
2000
0000
3100
0001
0010
0001
0010
0000
,  // measure 47
0001
0001
0200
0000
2300
0000
3020
0000
,  // measure 48
0032
0000
1003
0100
0002
0000
0203
0000
,  // measure 49
2300
0000
3010
0010
1000
0010
1000
0100
,  // measure 50
0002
0000
0103
1000
0010
1000
0010
0000
,  // measure 51
1000
1000
0002
0023
0230
2300
3002
0000
,  // measure 52
0023
0000
0031
0000
0011
0000
0100
0010
,  // measure 53
0001
0000
1000
0000
1010
0000
0100
0010
,  // measure 54
1000
0000
0001
0000
1001
0000
0010
1000
,  // measure 55
0100
0000
1000
0000
1001
0000
0010
0001
,  // measure 56
0100
0000
0010
0000
1000
0000
0010
1000
,  // measure 57
0010
0000
1000
0000
0100
0000
1000
0100
,  // measure 58
1000
0000
0001
0000
0010
0000
0001
0010
,  // measure 59
0001
0000
0100
0000
0001
0000
0100
0001
,  // measure 60
0100
1001
0000
0000
;

//---------------dance-single - ----------------
#NOTEDATA:;
#CHARTNAME:;
#STEPSTYPE:dance-single;
#DESCRIPTION:;
#CHARTSTYLE:;
#DIFFICULTY:Easy;
#METER:5;
#RADARVALUES:0.260544,0.327015,0.201815,0.231713,0.000000,244.000000,217.000000,27.000000,31.000000,0.000000,0.000000,0.000000,0.000000,0.000000,0.260544,0.327015,0.201815,0.231713,0.000000,244.000000,217.000000,27.000000,31.000000,0.000000,0.000000,0.000000,0.000000,0.000000;
#CREDIT:;
#OFFSET:-2.027596;
#BPMS:0.000000=120.000000
,58.000000=60.000000
,59.000000=120.000000
,171.000000=60.000000
,172.000000=120.000000
;
#STOPS:59.000000=1.500000
,158.000000=0.500004
,171.000000=0.500004
,185.000000=1.500004
;
#DELAYS:;
#WARPS:;
#TIMESIGNATURES:0.000000=4=4
;
#TICKCOUNTS:0.000000=4
;
#COMBOS:0.000000=1
;
#SPEEDS:0.000000=1.000000=0.000000=0
;
#SCROLLS:0.000000=1.000000
;
#FAKES:;
#LABELS:0.000000=Song Start
;
#DISPLAYBPM:120.000000;
#NOTES:
// measure 0
0000
0000
0000
0000
,  // measure 1
0000
0000
0000
0000
,  // measure 2
0000
0000
0000
0000
,  // measure 3
0000
0000
0000
0000
,  // measure 4
1000
1000
0100
0010
,  // measure 5
0001
0001
0100
0010
,  // measure 6
1000
1000
0001
0010
,  // measure 7
0001
0001
1000
0010
,  // measure 8
1000
0100
0001
0010
,  // measure 9
0001
0100
1000
0010
,  // measure 10
1000
0100
0010
0001
,  // measure 11
0100
0100
0010
1000
,  // measure 12
0001
0001
0011
0011
,  // measure 13
1000
1000
1010
1010
,  // measure 14
0002
2003
3200
0300
,  // measure 15
1000
0100
0010
0100
,  // measure 16
1000
0100
0001
0110
,  // measure 17
1000
1000
0100
0010
,  // measure 18
0002
0203
0320
2030
,  // measure 19
3001
0100
0010
0100
,  // measure 20
0001
0100
1000
0110
,  // measure 21
0001
0001
0100
0010
,  // measure 22
2000
3002
0023
0032
,  // measure 23
2003
3000
1000
0000
,  // measure 24
0001
0100
0010
1000
,  // measure 25
0002
0003
1000
0001
,  // measure 26
2000
3000
0001
1000
,  // measure 27
0100
0100
0010
0001
,  // measure 28
0100
0100
0010
1000
,  // measure 29
0001
0010
1000
0010
,  // measure 30
0001
0100
1000
0100
,  // measure 31
0001
0001
0011
1001
,  // measure 32
1000
0001
0100
0010
,  // measure 33
1000
1000
1010
1001
,  // measure 34
0001
0010
0100
1000
,  // measure 35
0001
0100
1001
0110
,  // measure 36
1000
0010
1000
0001
,  // measure 37
1000
0100
1001
0110
,  // measure 38
0001
0001
1000
1000
,  // measure 39
1010
0011
1010
2002
,  // measure 40
3003
1000
0100
0002
,  // measure 41
0003
0001
0110
2002
,  // measure 42
3003
0001
0100
0110
,  // measure 43
0010
2002
3003
0001
,  // measure 44
0010
2000
3000
1000
,  // measure 45
0110
1001
0001
1000
,  // measure 46
1000
0020
1030
0010
,  // measure 47
0001
0010
1000
0100
,  // measure 48
0001
0101
0100
1000
,  // measure 49
0010
0100
0002
0203
,  // measure 50
0320
2030
3001
0010
,  // measure 51
1000
0010
0001
0100
,  // measure 52
1000
1100
0100
0001
,  // measure 53
0010
0100
2000
3002
,  // measure 54
0023
0032
1003
1000
,  // measure 55
0010
0010
0100
0100
,  // measure 56
0001
0001
0010
0010
,  // measure 57
1000
1000
0010
0010
,  // measure 58
0001
0001
1000
0000
,  // measure 59
0001
0000
1000
0000
,  // measure 60
0001
0000
0100
0000
,  // measure 61
0010
0000
0100
0000
,  // measure 62
0010
0000
1001
0000
;

//---------------dance-single - ----------------
#NOTEDATA:;
#CHARTNAME:;
#STEPSTYPE:dance-single;
#DESCRIPTION:;
#CHARTSTYLE:;
#DIFFICULTY:Beginner;
#METER:2;
#RADARVALUES:0.139882,0.194340,0.052322,0.037373,0.000000,131.000000,124.000000,7.000000,5.000000,0.000000,0.000000,0.000000,0.000000,0.000000,0.139882,0.194340,0.052322,0.037373,0.000000,131.000000,124.000000,7.000000,5.000000,0.000000,0.000000,0.000000,0.000000,0.000000;
#CREDIT:;
#OFFSET:-2.027596;
#BPMS:0.000000=120.000000
;
#STOPS:;
#DELAYS:;
#WARPS:;
#TIMESIGNATURES:0.000000=4=4
;
#TICKCOUNTS:0.000000=4
;
#COMBOS:0.000000=1
;
#SPEEDS:0.000000=1.000000=0.000000=0
;
#SCROLLS:0.000000=1.000000
;
#FAKES:;
#LABELS:0.000000=Song Start
;
#DISPLAYBPM:120.000000;
#NOTES:
0000
0000
0000
0000
,
0000
0000
0000
0000
,
0000
0000
0000
0000
,
0000
0000
0000
0000
,
1000
0000
1000
0000
,
0100
0000
0100
0000
,
0010
0000
0010
0000
,
0001
0000
0001
0000
,
0100
0000
0010
0000
,
0100
0000
0010
0000
,
1000
0000
0001
0000
,
1000
0000
0001
0000
,
0010
0000
0100
0000
,
1000
0000
0001
0000
,
0200
0000
0000
0000
,
0300
0000
0000
0000
,
0001
0000
0001
0000
,
0010
0000
0001
0000
,
1000
0000
1000
0000
,
0010
0010
0010
0000
,
1000
0000
1000
0000
,
0010
0000
1000
0000
,
0001
0000
0001
0000
,
0010
0010
0010
0000
,
0001
0000
0001
0000
,
0100
0000
0100
0000
,
0010
0000
0010
0000
,
1000
0000
1000
0000
,
0100
0000
0010
0000
,
0001
0000
1000
0000
,
0010
0000
0100
0000
,
0010
0000
0100
0000
,
0001
0001
0001
0000
,
0010
0000
0100
0000
,
1000
1000
1000
0000
,
0010
0000
0100
0000
,
0001
0001
0001
0000
,
1000
0000
0100
0000
,
0010
0010
0010
0000
,
0001
0000
1000
0000
,
0010
0010
0010
0000
,
1001
0000
1000
0000
,
0110
0000
0001
0000
,
1001
0000
0001
0000
,
0100
0000
0000
0000
,
1001
0000
0001
0000
,
0110
0000
1000
0000
,
1001
0000
0001
0001
,
0001
0000
0000
0000
,
1000
0000
1000
0000
,
0010
0000
0001
0000
,
0010
0000
0010
0000
,
1000
1000
1000
0000
,
0001
0000
0001
0000
,
0010
0000
1000
0000
,
0010
0000
0010
0000
,
0001
0001
0001
0000
,
1000
0000
0010
0000
,
0100
0000
0001
0000
,
1000
0000
0100
0000
,
0010
0000
0001
0000
,
0200
0000
0300
0000
,
0020
0000
0030
0000
,
2000
0000
3000
0000
,
0002
0000
0003
0000
,
1001
0000
0000
0000
;
