#VERSION:0.83;
#TITLE:異空間ギミック feat. Yukacco;
#SUBTITLE:;
#ARTIST:t+pazolite;
#TITLETRANSLIT:Ikukan Gimmick feat. Yukacco;
#SUBTITLETRANSLIT:;
#ARTISTTRANSLIT:;
#GENRE:Future Pop;
#ORIGIN:;
#CREDIT:;
#BANNER:Ikukan Gimmick feat. Yukacco.png;
#BACKGROUND:Ikukan Gimmick feat. Yukacco-bg.png;
#PREVIEWVID:;
#JACKET:Ikukan Gimmick feat. Yukacco-jacket.png;
#CDIMAGE:;
#DISCIMAGE:;
#LYRICSPATH:;
#CDTITLE:cdtitle.png;
#MUSIC:Ikukan Gimmick feat. Yukacco.ogg;
#OFFSET:-0.052971;
#SAMPLESTART:41.431488;
#SAMPLELENGTH:13.221378;
#SELECTABLE:YES;
#BPMS:0.000=145.000,
68.000=72.500,
76.000=145.000,
172.000=72.500,
180.000=145.000;
#STOPS:;
#DELAYS:;
#WARPS:;
#TIMESIGNATURES:0.000=4=4;
#TICKCOUNTS:0.000=4;
#COMBOS:0.000=1;
#SPEEDS:0.000=1.000=0.000=0;
#SCROLLS:0.000=1.000;
#FAKES:;
#LABELS:0.000=Song Start;
#BGCHANGES:;
#KEYSOUNDS:;
#ATTACKS:
;

//---------------dance-single - ----------------
#NOTEDATA:;
#CHARTNAME:;
#STEPSTYPE:dance-single;
#DESCRIPTION:;
#CHARTSTYLE:;
#DIFFICULTY:Challenge;
#METER:14;
#RADARVALUES:0.669165,0.838448,0.186655,0.862169,0.764397,527.000000,506.000000,21.000000,97.000000,0.000000,0.000000,0.000000,0.000000,2.000000,0.669165,0.838448,0.186655,0.862169,0.764397,527.000000,506.000000,21.000000,97.000000,0.000000,0.000000,0.000000,0.000000,2.000000;
#CREDIT:;
#OFFSET:-0.052971;
#BPMS:0.000000=145.000000
,68.000000=72.500000
,76.000000=145.000000
,172.000000=72.500000
,180.000000=145.000000
;
#STOPS:;
#DELAYS:;
#WARPS:90.000000=16.000000
,198.000000=16.000000
;
#TIMESIGNATURES:0.000000=4=4
;
#TICKCOUNTS:0.000000=4
;
#COMBOS:0.000000=1
;
#SPEEDS:0.000000=1.000000=0.000000=0
;
#SCROLLS:0.000000=1.000000
,106.000000=0.000000
,107.000000=-1.000000
,107.250000=-0.500000
,107.500000=0.000000
,107.750000=1.500000
,108.000000=1.000000
,214.000000=0.000000
,215.000000=-1.000000
,215.250000=-0.500000
,215.500000=-0.000000
,215.750000=1.500000
,216.000000=1.000000
;
#FAKES:;
#LABELS:0.000000=Song Start
;
#NOTES:
0000
0000
0000
0000
,
0001
0000
1000
0010
0000
0010
0000
1000
0001
0000
1000
0010
0000
0010
0000
1000
,
0001
0000
1000
0010
0000
0010
0000
1000
0100
0000
0010
0000
0001
0000
0000
0000
,
0001
0000
1000
0010
0000
0010
0000
1000
0001
0000
1000
0010
0000
0010
0000
1000
,
0002
0000
0000
0023
0000
0000
0230
0000
0302
0000
0203
0000
0310
0001
1000
0010
,
1000
0000
0001
0010
0000
0010
0000
0001
1000
0000
0001
0010
0000
0010
0000
0001
,
1000
0000
0001
0010
0000
0010
0000
0001
0100
0000
0010
0000
1000
0000
0000
0000
,
0001
0000
1000
0100
1000
0000
0001
0100
0001
0000
1000
0000
0001
0010
0001
0010
,
0200
0000
0000
0300
,
0010
0000
0001
0000
1000
0010
0000
0200
0000
0000
0310
0000
1000
0000
0001
0000
,
0010
0100
0010
0001
0100
0000
1020
0000
,
0130
0000
0001
0000
1000
0100
0000
0020
0000
0000
0031
0000
1000
0000
0010
0000
,
0210
0000
0000
0302
0000
0000
2003
0000
3200
0000
0320
0000
0130
1000
0001
1000
,
0010
0000
1000
0000
0001
0010
0000
0200
0000
0000
0310
0000
0001
0000
1000
0000
,
0010
0100
0010
1000
0100
0000
0011
0000
,
1002
0000
0100
0000
0103
0001
1000
0100
,
1100
0011
1010
0101
,
2001
0000
0000
0000
0000
0000
0000
0000
3100
0000
1000
0000
0001
0000
0100
0000
0020
0000
0000
2030
0000
0000
3002
0000
0200
0000
0000
0000
0303
0000
0000
0000
,
2000
0000
0000
0000
3200
0000
0000
0000
0302
0000
0000
0000
0023
0000
0000
0000
2030
0000
0000
3200
0000
0000
0320
0000
0002
0000
0000
0000
0033
0000
0000
0000
,
0002
0000
0000
1003
0001
0000
0100
0000
0001
0000
0010
0000
1000
0000
0010
0000
,
0001
0000
0000
0001
0100
0000
0010
0000
1000
0000
0000
1000
0100
0000
0010
0000
,
0001
0001
1000
1000
0010
1000
0001
0010
,
0100
0010
0100
0010
0001
1000
0001
1000
0010
0000
0000
0000
0000
0000
0000
0000
,
0000
0000
0000
0000
,
0000
0000
0000
0000
,
0000
0000
0000
0000
,
0000
0000
0010
0000
,
1000
0000
0100
0000
0010
0001
0000
0200
0000
0000
1300
0000
0100
0000
0001
0000
,
0101
0000
0000
1001
0000
0000
0021
0000
0000
0000
0130
0000
1000
0010
0000
0010
,
0100
0000
0001
0000
1000
0100
0000
0020
0000
0000
0130
0000
1000
0000
0010
0000
,
0110
0000
0000
1010
0000
0000
1002
0000
0000
0000
0013
0000
0001
1000
0000
1000
,
0010
0000
1000
0000
0001
0010
0000
0200
0000
0000
0301
0000
0100
0000
1000
0000
,
1100
0000
0000
1001
0000
0000
1020
0000
0000
0000
0130
0000
0001
0010
0000
0010
,
0100
0000
1000
0000
0001
0100
0000
0020
0000
0000
1030
0000
0100
0010
0000
0020
,
0001
0000
0030
0001
0100
0000
0000
0100
0010
1000
0000
1000
0001
0010
0100
0010
,
0002
0000
0000
1003
0000
0000
0002
0000
0203
0000
0000
2300
0000
0000
3200
0000
,
0302
0000
0000
0023
0000
0000
0230
0000
2300
0000
3001
0000
0000
0001
0100
0010
,
2000
0000
0000
3200
0000
0000
0320
0000
0230
0000
0000
0302
0000
0000
0203
0000
,
0320
0000
0000
0032
0000
0000
2003
0000
3020
0000
0030
0000
1010
0000
0000
0000
,
0021
0000
0000
0130
0000
0000
0020
0000
0032
0000
0000
0203
0000
0000
2300
0000
,
3200
0000
0310
1000
0000
1000
0002
0000
0013
0000
0100
0000
2000
0000
3020
0000
,
0032
0000
0000
2003
0000
0000
3200
0000
0302
0000
0000
2003
0000
0000
3200
0000
,
0010
0000
0000
0310
0100
0000
1000
0000
0001
0100
0001
0100
0010
1000
0000
1000
,
0002
0000
0000
0000
0000
0000
0000
0000
0103
0000
0001
0000
1000
0000
0100
0000
0020
0000
0000
0032
0000
0000
2003
0000
0200
0000
0000
0000
3300
0000
0000
0000
,
0002
0000
0000
0000
0203
0000
0000
0000
2300
0000
0000
0000
3020
0000
0000
0000
0032
0000
0000
0203
0000
0000
0320
0000
2000
0000
0000
0000
3030
0000
0000
0000
,
2000
0000
0000
3001
1000
0000
0100
0000
1000
0000
0010
0000
0001
0000
0010
0000
,
1000
0000
0000
1000
0100
0000
0010
0000
0001
0000
0000
0001
0100
0000
0010
0000
,
1000
1000
0001
0001
0010
0001
1000
0010
,
0100
0010
0100
0010
1000
0001
1000
0001
1000
0100
1000
0100
0010
0001
0010
0001
,
1000
0010
0000
1000
0010
1000
0010
1000
0001
0000
0000
0000
0000
0000
0000
0000
,
0000
0000
0000
0000
,
0000
0000
0000
0000
,
0000
0000
0000
0000
,
0000
0000
0001
0000
,
0001
0000
0100
0000
0010
1000
0000
1000
0100
0000
0010
0000
0001
0000
0100
0000
,
0010
0000
1000
0001
1000
0000
0002
0000
0013
0000
0100
0000
0010
0001
0000
1000
,
0010
0000
1000
0000
0100
0010
0000
0010
0001
0000
0100
0000
0001
0000
0010
0000
,
1000
0000
0010
0100
0010
0000
0002
0000
1003
0010
0000
1000
0001
0010
0000
0010
,
0100
0000
0010
0000
0001
0100
0000
0100
0010
0000
0100
0000
1000
0000
0100
0000
,
0001
0000
1000
0010
1000
0000
0200
0000
0301
0000
0200
0000
0310
0000
0200
0000
,
1300
0000
0001
0000
0100
0010
0000
0010
1000
0000
0001
0000
1000
0010
0000
0010
,
0001
0000
0010
0000
1000
0000
0100
0000
0010
0001
0000
1000
0010
0100
0000
0001
,
1000
0000
0001
0010
0000
0010
0000
0001
1000
0000
0001
0010
0000
0010
0000
0001
,
1000
0000
0001
0010
0000
0010
0000
0001
0100
0000
0010
0000
1000
0000
0000
0000
,
1000
0000
0001
0010
0000
0010
0000
0001
1000
0000
0001
0010
0000
0010
0000
0001
,
2000
0000
0000
3020
0000
0000
0230
0000
2300
0000
3200
0000
0310
1000
0001
0010
,
0001
0000
1000
0010
0000
0010
0000
1000
0001
0000
1000
0010
0000
0010
0000
1000
,
0001
0000
1000
0010
0000
0010
0000
1000
0100
0000
0010
0000
0001
0000
0000
0000
,
1000
0000
0001
0100
0001
0000
1000
0100
1000
0000
0001
0000
1000
0010
1000
0010
,
0200
0000
0000
0000
0000
0000
0300
1001
;

//---------------dance-single - ----------------
#NOTEDATA:;
#CHARTNAME:;
#STEPSTYPE:dance-single;
#DESCRIPTION:;
#CHARTSTYLE:;
#DIFFICULTY:Hard;
#METER:10;
#RADARVALUES:0.479970,0.492969,0.195543,0.435528,0.306648,378.000000,356.000000,22.000000,49.000000,0.000000,0.000000,0.000000,0.000000,0.000000,0.479970,0.492969,0.195543,0.435528,0.306648,378.000000,356.000000,22.000000,49.000000,0.000000,0.000000,0.000000,0.000000,0.000000;
#CREDIT:;
#OFFSET:-0.052971;
#BPMS:0.000000=145.000000
,68.000000=72.500000
,76.000000=145.000000
,156.000000=72.500000
,164.000000=145.000000
;
#STOPS:182.000000=0.413796
;
#DELAYS:;
#WARPS:;
#TIMESIGNATURES:0.000000=4=4
;
#TICKCOUNTS:0.000000=4
;
#COMBOS:0.000000=1
;
#SPEEDS:0.000000=1.000000=0.000000=0
;
#SCROLLS:0.000000=1.000000
;
#FAKES:;
#LABELS:0.000000=Song Start
;
#NOTES:
0000
0000
0000
0000
,
0001
0000
0000
0100
0000
0100
0000
0000
0001
0000
0000
0100
0000
0100
0000
0000
,
0001
0000
0000
0100
0000
0100
0000
0000
0010
0000
1000
0000
0001
0000
0000
0000
,
1000
0000
0000
0100
0000
0100
0000
0000
1000
0000
0000
0100
0000
0100
0000
0000
,
0020
0000
0000
0032
0000
0000
1003
0000
0001
0000
0100
0000
0010
0000
1000
0000
,
0001
0000
0000
0010
0000
0010
0000
0000
0001
0000
0000
0010
0000
0010
0000
0000
,
0001
0000
0000
0010
0000
0010
0000
0000
0100
0000
1000
0000
0001
0000
0000
0000
,
1000
0010
1000
0001
0010
0001
1000
0010
,
0200
0000
0000
0300
,
0010
0000
1000
0000
0001
0000
0000
2000
0000
0000
0100
0000
3100
0000
0000
0000
,
1000
0100
0010
0001
0100
0000
2001
0000
,
3010
0000
1000
0000
0001
0000
0000
2000
0000
0000
0100
0000
3100
0000
0010
0000
,
0002
0000
0000
0203
0000
0000
0310
0000
1000
0000
0001
0000
1000
0000
0100
0000
,
0010
0000
0001
0000
1000
0000
0000
0002
0000
0000
0100
0000
0103
0000
0000
0000
,
0001
0100
0010
1000
0001
0000
0101
0000
,
2200
0000
3300
0000
1000
0100
0010
0001
,
0100
0100
1001
0110
,
1002
0000
0000
0000
0103
0000
0010
0000
1000
0000
0001
1000
0200
0000
0300
0000
,
1000
0000
0100
0000
0001
0000
0100
0000
1000
0000
0010
0100
0002
0000
0003
0000
,
2001
0000
0100
0000
3001
0100
0001
0010
,
0001
0000
0000
0100
0000
0000
0010
0000
1000
0000
0000
0100
0000
0000
1000
0000
,
0002
0000
0100
0000
1003
0010
0100
0001
,
0010
0001
0100
0010
1000
0000
1001
0000
,
0000
0000
1000
0000
0100
0000
0000
0020
0000
0000
0100
0000
0130
0000
0010
0000
,
0001
0000
0000
1000
0000
0000
0002
0000
0000
0000
0000
0000
0103
0000
0000
0000
,
0000
0000
0001
0000
0100
0000
0000
0020
0000
0000
1000
0000
1030
0000
0001
0000
,
0010
0000
0000
0100
0000
0000
2000
0000
0000
0000
0000
0000
3001
0000
0000
0000
,
0000
0000
1000
0000
0001
0000
0000
0200
0000
0000
0001
0000
0301
0000
1000
0000
,
0100
0000
0000
0010
0000
0000
0002
0000
0000
0000
0000
0000
1003
0000
0000
0000
,
0000
0000
0001
0000
0100
0000
0000
2000
0000
0000
3100
0000
0001
0000
0000
0000
,
0201
0000
0301
0000
0100
0001
1000
0100
,
0020
0000
0000
0000
0030
0000
0010
0000
0001
0000
0000
1000
0000
0000
0001
0000
,
0100
0000
0000
0010
0000
0000
1000
0000
0002
0000
0000
0000
1003
0000
0100
0000
,
0010
0000
0000
0001
0000
0000
1000
0000
0001
0000
0000
0100
0000
0000
0010
0000
,
0100
0000
0000
0010
0000
0000
1000
0000
0001
0000
0000
0000
1100
0000
0000
0000
,
0022
0000
0000
0000
0033
0000
0010
0000
0001
0000
0000
0100
0000
0000
0010
0000
,
1000
0000
0000
0001
0000
0000
2002
0000
0000
0000
3003
0000
0001
0000
0010
0000
,
1000
0000
0000
1000
0000
0000
0010
0000
0001
0000
0000
0100
0000
0000
0220
0000
,
0000
0000
0330
0000
1000
0010
0100
0001
,
2000
0000
0000
0000
3100
0000
0010
0000
0001
0000
1000
0001
0200
0000
0300
0000
,
0001
0000
0100
0000
1000
0000
0100
0000
0001
0000
0010
0100
2000
0000
3000
0000
,
1002
0000
0100
0000
1003
0100
1000
0010
,
1000
0000
0000
0100
0000
0000
0010
0000
0001
0000
0000
0100
0000
0000
0001
0000
,
2000
0000
0100
0000
3001
0010
0100
1000
,
0010
1000
0100
0010
0001
0100
0001
0100
,
0010
1000
0010
1000
0100
0000
0001
0100
,
0010
0000
0000
2000
0000
0000
3010
0000
1000
0000
0100
0000
0010
0000
0000
0011
,
0000
0102
0000
1000
1003
0000
1000
0100
,
0010
0000
0000
0002
0000
0000
0013
0000
0100
0000
1000
0000
0010
0000
0000
1010
,
0000
0000
0102
0000
0000
0000
1003
0000
0100
0000
0000
0010
0000
0000
0001
0000
,
1000
0000
0001
0000
1000
0000
0010
0000
0001
0000
0010
0000
1000
0000
0000
1001
,
0000
0012
0000
0203
0000
0320
0000
1030
,
0100
0000
0000
0002
0000
0000
0103
0000
1000
0000
0000
0000
2001
0000
0000
0000
,
3001
0000
0000
0000
1000
0000
0010
0000
0100
0000
0001
0000
1000
0000
0000
0100
,
0000
0100
0000
0000
1000
0000
0000
0100
0000
0100
0000
0000
1000
0000
0000
0100
,
0000
0100
0000
0000
0010
0000
0001
0000
1000
0000
0000
0000
0001
0000
0000
0100
,
0000
0100
0000
0000
0001
0000
0000
0100
0000
0100
0000
0000
0020
0000
0000
2030
,
0000
0000
3001
0000
1000
0000
0100
0000
0010
0000
0001
0000
1000
0000
0000
0010
,
0000
0010
0000
0000
1000
0000
0000
0010
0000
0010
0000
0000
1000
0000
0000
0010
,
0000
0010
0000
0000
0100
0000
0001
0000
1000
0000
0000
0000
0001
0000
0010
0000
,
0001
1000
0010
1000
0001
0010
0200
0000
,
0000
0000
0000
0000
0300
1001
0000
0000
;

//---------------dance-single - ----------------
#NOTEDATA:;
#CHARTNAME:;
#STEPSTYPE:dance-single;
#DESCRIPTION:;
#CHARTSTYLE:;
#DIFFICULTY:Medium;
#METER:7;
#RADARVALUES:0.372040,0.410808,0.168878,0.231097,0.000000,293.000000,274.000000,19.000000,26.000000,0.000000,0.000000,0.000000,0.000000,0.000000,0.372040,0.410808,0.168878,0.231097,0.000000,293.000000,274.000000,19.000000,26.000000,0.000000,0.000000,0.000000,0.000000,0.000000;
#CREDIT:;
#OFFSET:-0.052971;
#BPMS:0.000000=145.000000
,68.000000=72.500000
,76.000000=145.000000
,156.000000=72.500000
,164.000000=145.000000
;
#STOPS:182.000000=0.413796
;
#DELAYS:;
#WARPS:;
#TIMESIGNATURES:0.000000=4=4
;
#TICKCOUNTS:0.000000=4
;
#COMBOS:0.000000=1
;
#SPEEDS:0.000000=1.000000=0.000000=0
;
#SCROLLS:0.000000=1.000000
;
#FAKES:;
#LABELS:0.000000=Song Start
;
#NOTES:
// measure 0
0000
0000
0000
0000
,  // measure 1
1000
1000
0001
0001
,  // measure 2
1000
0000
1000
0000
0010
1000
0100
0000
,  // measure 3
1000
1000
0001
0001
,  // measure 4
0101
0000
1100
0000
0001
0100
0010
1000
,  // measure 5
0001
0001
1000
1000
,  // measure 6
0001
0000
0001
0000
0010
0001
0100
0000
,  // measure 7
1000
0000
0010
0000
0001
0000
0100
0010
,  // measure 8
2000
0000
0000
3000
,  // measure 9
0001
1000
0100
0000
0100
0000
1000
0000
,  // measure 10
0001
0100
0010
1000
0001
0000
1001
0000
,  // measure 11
0001
1000
0100
0000
0100
0000
0010
0000
,  // measure 12
0011
1100
1010
0101
,  // measure 13
1000
0001
0100
0000
0100
0000
0001
0000
,  // measure 14
1000
0100
0010
0001
0100
0000
0110
0000
,  // measure 15
2002
0000
3003
0000
1000
0000
0010
1000
,  // measure 16
0010
1001
0011
1001
,  // measure 17
0102
0000
1003
0000
0010
1000
0200
0300
,  // measure 18
1000
1000
0001
0001
0100
0010
2000
3000
,  // measure 19
0002
0100
0103
0001
,  // measure 20
0010
0000
0100
1000
0001
0000
0100
0001
,  // measure 21
2000
0001
3001
1000
,  // measure 22
0001
0100
0010
1000
0100
0000
0000
0000
,  // measure 23
1000
0010
1000
0000
0001
0000
0100
0000
,  // measure 24
0010
1000
0002
0003
,  // measure 25
1000
0100
1000
0000
0010
0000
1000
0000
,  // measure 26
0100
0010
0002
0003
,  // measure 27
1000
0010
1000
0000
0001
0000
0100
0000
,  // measure 28
0001
1000
0200
0300
,  // measure 29
0010
0001
0010
0000
0100
1000
0100
0000
,  // measure 30
2002
0000
3003
0000
1000
0000
0001
0100
,  // measure 31
0020
0030
1000
0010
,  // measure 32
0001
0010
2000
3000
,  // measure 33
1000
0100
0001
0100
,  // measure 34
1000
0010
0100
0001
,  // measure 35
2002
3003
0001
0010
,  // measure 36
1000
0010
0002
0003
,  // measure 37
0001
0100
1000
0100
,  // measure 38
0002
0003
1000
0001
,  // measure 39
2100
0000
3001
0000
0010
0001
0200
0300
,  // measure 40
0001
0001
1000
1000
0100
0010
0002
0003
,  // measure 41
2000
0100
3100
1000
,  // measure 42
0010
0000
0100
0001
1000
0000
0100
1000
,  // measure 43
0002
1000
1003
0001
,  // measure 44
1000
0100
0010
0001
0100
0000
0010
0000
,  // measure 45
1000
0000
0001
0000
1000
0000
0001
0010
,  // measure 46
0001
1000
0001
0100
,  // measure 47
0010
0000
1000
0000
1000
0000
0001
0100
,  // measure 48
0001
1000
0100
0010
,  // measure 49
0001
0010
1000
0010
,  // measure 50
0001
1000
0001
0000
0100
0000
0010
0000
,  // measure 51
1000
0000
0001
0000
0001
0000
1000
0100
,  // measure 52
1000
0000
0001
0100
0001
0000
2000
0000
,  // measure 53
0001
0000
3001
0010
0100
0010
0001
0000
,  // measure 54
0001
1000
1000
0001
,  // measure 55
0001
0000
0010
0001
0100
0000
0001
0000
,  // measure 56
0001
1000
1000
1100
,  // measure 57
0101
0000
1000
0100
0010
0001
1000
0000
,  // measure 58
1000
0001
0001
1000
,  // measure 59
1000
0000
0010
1000
0100
0000
0001
0000
,  // measure 60
0010
0000
1000
0000
0100
0010
0002
0000
,  // measure 61
0000
0000
0000
0003
0000
0110
0000
0000
;

//---------------dance-single - ----------------
#NOTEDATA:;
#CHARTNAME:;
#STEPSTYPE:dance-single;
#DESCRIPTION:;
#CHARTSTYLE:;
#DIFFICULTY:Easy;
#METER:4;
#RADARVALUES:0.220939,0.246485,0.000000,0.204432,0.000000,174.000000,174.000000,0.000000,23.000000,0.000000,0.000000,0.000000,0.000000,0.000000,0.220939,0.246485,0.000000,0.204432,0.000000,174.000000,174.000000,0.000000,23.000000,0.000000,0.000000,0.000000,0.000000,0.000000;
#CREDIT:;
#OFFSET:-0.052971;
#BPMS:0.000000=145.000000
,68.000000=72.500000
,76.000000=145.000000
,156.000000=72.500000
,164.000000=145.000000
;
#STOPS:182.000000=0.413796
;
#DELAYS:;
#WARPS:;
#TIMESIGNATURES:0.000000=4=4
;
#TICKCOUNTS:0.000000=4
;
#COMBOS:0.000000=1
;
#SPEEDS:0.000000=1.000000=0.000000=0
;
#SCROLLS:0.000000=1.000000
;
#FAKES:;
#LABELS:0.000000=Song Start
;
#NOTES:
0000
0000
0000
0000
,
1000
0000
1000
0000
,
1000
0000
0001
0000
,
1000
0000
1000
0000
,
0010
1000
0100
0010
,
0001
0000
0001
0000
,
0001
0000
1000
0000
,
0001
0100
0010
1000
,
0200
0000
0000
0300
,
1000
0000
1000
0000
,
0010
1000
0100
0000
,
1000
0000
1000
0000
,
0010
1000
0100
0010
,
0001
0000
0001
0000
,
0010
0001
0100
0010
,
2000
0000
3000
0001
,
1000
0100
0010
0001
,
2000
3001
1000
0100
,
1000
0010
0001
0100
,
2000
0000
3001
0000
,
1000
0010
0100
0001
,
2000
0000
3100
0000
,
0010
0010
0001
1000
,
0000
0001
0001
0000
,
0100
0100
0001
1000
,
0000
1000
1000
0000
,
0100
0100
1000
0001
,
0000
0100
0100
0000
,
0010
0010
1000
0001
,
0000
1000
0100
0010
,
0002
0000
1003
0001
,
0200
0300
0020
0030
,
1000
0001
2000
3000
,
0002
0003
0020
0030
,
0100
0010
0001
1000
,
0020
0030
0200
0300
,
0010
1000
0002
0003
,
1000
0100
0010
0001
,
2000
0000
3000
0000
,
0002
1003
0001
0100
,
0001
0010
1000
0100
,
0002
0000
1003
0000
,
0001
0010
0100
1000
,
0002
0000
0103
0000
,
0010
0010
1000
0001
,
0010
0000
0010
0001
,
1000
0001
0000
0001
,
0100
0020
0030
1000
,
0001
1000
0000
0010
,
1000
0200
0300
0010
,
0001
1000
0000
0010
,
1000
0002
0003
1000
,
0100
0010
0001
2000
,
0000
3001
0100
0001
,
0000
0001
0000
0001
,
0000
1000
0000
0001
,
0000
0001
0000
0010
,
0001
0100
0010
1000
,
0000
1000
0000
1000
,
0000
0001
0000
1000
,
0100
0010
0001
0200
,
0000
0000
0000
0300
0000
0100
0000
0000
;

//---------------dance-single - ----------------
#NOTEDATA:;
#CHARTNAME:;
#STEPSTYPE:dance-single;
#DESCRIPTION:;
#CHARTSTYLE:;
#DIFFICULTY:Beginner;
#METER:1;
#RADARVALUES:0.097772,0.146380,0.000000,0.133325,0.000000,77.000000,77.000000,0.000000,15.000000,0.000000,0.000000,0.000000,0.000000,0.000000,0.097772,0.146380,0.000000,0.133325,0.000000,77.000000,77.000000,0.000000,15.000000,0.000000,0.000000,0.000000,0.000000,0.000000;
#CREDIT:;
#OFFSET:-0.052971;
#BPMS:0.000000=145.000000
;
#STOPS:;
#DELAYS:;
#WARPS:;
#TIMESIGNATURES:0.000000=4=4
;
#TICKCOUNTS:0.000000=4
;
#COMBOS:0.000000=1
;
#SPEEDS:0.000000=1.000000=0.000000=0
;
#SCROLLS:0.000000=1.000000
;
#FAKES:;
#LABELS:0.000000=Song Start
;
#NOTES:
0000
0000
0000
0000
,
1000
0000
0000
0000
,
1000
0000
0000
0000
,
1000
0000
0000
0000
,
0010
0000
1000
0000
,
0001
0000
0000
0000
,
0001
0000
0000
0000
,
0010
0000
0010
0000
,
0010
0000
0000
0000
,
0001
0000
0000
0000
,
0100
0000
0000
0000
,
0010
0000
0000
0000
,
1000
0000
0001
0000
,
1000
0000
0000
0000
,
0100
0000
0000
0000
,
0010
0000
0000
0000
,
0001
0000
1000
0000
,
0002
0000
0003
0000
,
0200
0000
0300
0000
,
0020
0000
0030
0000
,
2000
0000
3000
0000
,
0001
0000
0000
0000
,
1000
0000
0000
0000
,
0001
0000
1000
0000
,
0100
0000
0100
0000
,
0100
0000
0000
0000
,
2000
0000
3000
0000
,
0010
0000
0000
0000
,
2000
0000
3000
0000
,
0001
0000
0000
0000
,
0020
0000
0030
0000
,
0001
0000
0000
0000
,
0200
0000
0300
0000
,
0010
0000
0000
0000
,
1000
0000
0000
0000
,
0001
0000
0000
0000
,
0010
0000
0001
0000
,
1000
0000
0000
0000
,
0010
0000
0000
0000
,
0100
0000
0100
0000
,
0002
0000
0003
0000
,
2000
0000
3000
0000
,
0200
0000
0300
0000
,
0020
0000
0030
0000
,
0002
0000
0003
0000
,
1000
0000
0000
0000
,
0001
0000
0000
0000
,
1000
0000
0001
0000
,
0100
0000
0100
0000
,
0100
0000
0000
0000
,
0001
0000
0000
0000
,
0010
0000
0000
0000
,
0001
0000
0000
0000
,
0100
0000
0000
0000
,
1000
0000
0000
0000
,
0100
0000
0000
0000
,
0001
0000
0000
0000
,
0020
0000
0030
0000
,
0001
0000
0000
0000
,
0001
0000
0000
0000
,
0001
0000
0000
0000
,
0010
0000
0001
0000
,
1000
0000
0000
0000
,
1000
0000
0000
0000
,
0010
0000
0010
0000
,
0020
0000
0000
0000
0000
0000
0000
0030
;
