#VERSION:0.83;
#TITLE:INVISIBLE STRIX;
#SUBTITLE:;
#ARTIST:L.E.D.;
#TITLETRANSLIT:;
#SUBTITLETRANSLIT:;
#ARTISTTRANSLIT:;
#GENRE:Neurofunk;
#ORIGIN:;
#CREDIT:;
#BANNER:;
#BACKGROUND:;
#PREVIEWVID:;
#JACKET:;
#CDIMAGE:;
#DISCIMAGE:;
#LYRICSPATH:;
#CDTITLE:cdtitle.png;
#MUSIC:INVISIBLE STRIX.ogg;
#OFFSET:-0.047004;
#SAMPLESTART:15.700178;
#SAMPLELENGTH:10.434784;
#SELECTABLE:YES;
#BPMS:0.000=184.000;
#STOPS:44.000=0.978,
73.000=0.326,
104.000=0.326,
209.000=0.652,
224.875=0.326,
289.000=1.304;
#DELAYS:;
#WARPS:;
#TIMESIGNATURES:0.000=4=4;
#TICKCOUNTS:0.000=4;
#COMBOS:0.000=1;
#SPEEDS:0.000=1.000=0.000=0;
#SCROLLS:0.000=1.000;
#FAKES:;
#LABELS:0.000=Song Start;
#BGCHANGES:;
#KEYSOUNDS:;
#ATTACKS:
;

//---------------dance-single - ----------------
#NOTEDATA:;
#CHARTNAME:;
#STEPSTYPE:dance-single;
#DESCRIPTION:;
#CHARTSTYLE:;
#DIFFICULTY:Challenge;
#METER:17;
#RADARVALUES:0.864928,1.188658,0.401534,0.732208,0.803067,769.000000,718.000000,51.000000,93.000000,114.000000,2.000000,0.000000,0.000000,0.000000,0.864928,1.188658,0.401534,0.732208,0.803067,769.000000,718.000000,51.000000,93.000000,114.000000,2.000000,0.000000,0.000000,0.000000;
#CREDIT:;
#OFFSET:-0.048688;
#BPMS:0.000000=184.000000
;
#STOPS:44.000000=0.978261
,73.000000=0.326088
,104.000000=0.326089
,209.000000=0.652166
,224.875000=0.326086
,289.000000=1.304349
;
#DELAYS:;
#WARPS:;
#TIMESIGNATURES:0.000000=4=4
;
#TICKCOUNTS:0.000000=4
;
#COMBOS:0.000000=1
;
#SPEEDS:0.000000=1.000000=0.000000=0
;
#SCROLLS:0.000000=1.000000
;
#FAKES:;
#LABELS:0.000000=Song Start
;
#NOTES:
// measure 0
0000
0000
0000
0000
,  // measure 1
0000
0000
0000
0000
,  // measure 2
0000
0000
0000
0000
,  // measure 3
0000
0000
0000
0000
,  // measure 4
2002
0000
3003
0000
0010
2002
0000
3003
,  // measure 5
2200
0000
3300
0002
0200
0000
0303
0000
,  // measure 6
0220
0000
0330
0000
1000
0220
0000
0330
,  // measure 7
2002
0000
3003
0002
0020
0000
0033
0000
,  // measure 8
1100
0001
0101
1000
,  // measure 9
1010
0001
0011
1000
,  // measure 10
0001
0000
0100
0000
0010
0000
1000
0000
0001
0100
0010
1000
0001
1000
0100
0010
,  // measure 11
0001
0000
0000
0000
1000
0000
0100
M00M
0200
0000
0301
0000
0010
M00M
0020
0000
,  // measure 12
1030
0000
0100
M00M
0200
0000
0301
0000
0010
0000
0002
0000
0103
0000
0010
1000
,  // measure 13
0001
0000
0000
0000
0001
0000
0010
M00M
0020
0000
1030
0000
0100
M00M
0200
0000
,  // measure 14
0301
0000
0010
M00M
0020
0000
1030
0000
0100
0000
2000
0000
3001
0000
0100
0010
,  // measure 15
1000
0000
0100
0010
0001
0000
0100
M00M
0200
0000
1300
0000
0010
M00M
0020
0000
,  // measure 16
0031
0000
0100
M00M
0200
0000
1300
0000
0010
0000
0200
0000
0301
0000
0010
0100
,  // measure 17
1000
0000
0000
0000
1000
0000
0010
M00M
0020
0000
0031
0000
0100
0000
0010
1000
,  // measure 18
0100
0000
0010
0001
0200
0000
0300
0000
0010
0100
0001
1000
0100
0010
0001
1000
,  // measure 19
0010
0000
0001
0MM0
0002
0000
0103
0000
1000
0MM0
2000
0000
3010
0000
0001
0MM0
,  // measure 20
0002
0000
0103
0000
0010
0000
2000
0000
3001
0000
1000
0100
0010
0000
0100
0000
,  // measure 21
0010
0000
1000
0MM0
2000
0000
3100
0000
0001
0MM0
0002
0000
0013
0000
1000
0MM0
,  // measure 22
2000
0000
3100
0000
0010
0000
0002
0000
1003
0000
0010
1000
0100
0000
0010
0001
,  // measure 23
0100
0000
1000
0MM0
2000
0000
3010
0000
0001
0MM0
0002
0000
0103
0000
1000
0MM0
,  // measure 24
2000
0000
3010
0000
0100
0000
0002
0000
1003
0000
0100
0010
0001
0000
0010
0000
,  // measure 25
0100
0000
0001
0MM0
0002
0000
0013
0000
0100
0000
0010
0001
0100
0000
0010
1000
,  // measure 26
0200
0000
0300
0000
1000
0100
0010
0001
1000
0001
0100
0010
1000
0000
0000
0000
,  // measure 27
0000
0000
00M0
0000
0000
0000
0000
00M0
0000
0000
0000
0000
0000
0000
00M0
0000
,  // measure 28
0000
0000
0000
0000
0001
0100
0010
1000
0001
0010
0100
1000
0001
0000
0010
M00M
,  // measure 29
0020
0000
1030
0001
0100
M00M
0200
0000
1300
0000
0010
M00M
0020
0000
0031
0000
,  // measure 30
0100
0000
0001
1000
0100
0000
1000
0000
0010
0000
0001
0000
0010
0000
1000
0MM0
,  // measure 31
2000
0000
3100
0001
0100
M00M
0200
0000
1300
0000
0010
M00M
0020
0000
0031
0000
,  // measure 32
0100
0000
0010
1000
0001
1000
0100
0000
0010
0000
0100
0010
0001
0000
0100
M00M
,  // measure 33
0200
0000
1300
0001
0010
M00M
0020
0000
1030
0000
0100
M00M
0200
0000
0301
0000
,  // measure 34
0010
0000
0100
0010
0001
0000
1000
0000
0100
0000
0001
0000
0100
0000
1000
0MM0
,  // measure 35
2000
0000
3010
0001
0010
M00M
0020
0000
1030
0000
0010
0000
1010
0000
0000
1001
,  // measure 36
0000
0000
0011
0000
0000
0010
0001
0000
0100
0000
0010
0100
0001
0000
0010
M00M
,  // measure 37
0020
0000
1030
0100
1000
0MM0
2000
0000
3010
0000
0001
0MM0
0002
0000
0103
0000
,  // measure 38
1000
0000
0100
1000
0001
1000
0010
0000
0110
0000
0000
0000
1000
0000
0010
M00M
,  // measure 39
0020
0000
0031
0100
0001
0MM0
0002
0000
0013
0000
1000
0MM0
2000
0000
3100
0000
,  // measure 40
0001
0000
0010
0100
0010
0001
0010
0000
0100
0000
1000
0001
1000
0000
0100
M00M
,  // measure 41
0200
0000
0301
0010
0001
0MM0
0002
0000
0103
0000
1000
0MM0
2000
0000
3010
0000
,  // measure 42
0001
0000
1000
0010
0100
0001
1000
0000
1010
0000
0000
0000
0002
0000
0000
0000
,  // measure 43
M003
0000
0000
00M0
0000
0000
000M
0000
0000
0M00
0000
0000
000M
0000
0000
00M0
,  // measure 44
0000
0000
M000
0000
0001
0000
1000
0100
0010
0000
0001
0100
0010
0000
1000
0000
,  // measure 45
1100
0000
0001
0100
0001
0000
0100
0000
0101
0000
0000
0000
0001
0000
0010
0000
,  // measure 46
0110
0000
0010
0001
1000
0001
0100
0000
0020
0000
0032
0000
0013
0000
1000
0000
,  // measure 47
1010
0000
0001
0100
0001
0000
1000
0000
1100
0000
0000
0000
0100
0000
0010
0000
,  // measure 48
0011
0000
0000
0000
0010
0000
0001
0000
1000
0000
0001
0000
0100
0000
0000
0000
0020
0000
0000
0000
2000
0000
0000
3030
M0M0
0000
0000
0000
0000
0000
0000
0000
,  // measure 49
0011
0000
0001
1000
0001
0000
1000
0000
1010
0000
0000
0000
1000
0000
0010
0000
,  // measure 50
0110
0000
0010
1000
0001
1000
0100
0000
0020
0000
2030
0000
3010
0000
0001
0000
,  // measure 51
1001
0000
1000
0100
1000
0000
0001
0000
0101
0000
0000
0000
1000
0000
0100
0000
,  // measure 52
0001
0000
0100
0000
2000
0000
3000
0000
1001
0000
0100
0010
0100
0000
0010
0000
,  // measure 53
1001
0000
0000
0000
1000
0000
0010
0000
0101
0000
0010
1000
0001
1000
0100
0000
,  // measure 54
0020
0000
2030
0000
3010
0000
0001
0000
0011
0000
0100
1000
0001
0000
0100
0000
,  // measure 55
1010
0000
0000
0000
0001
0000
0100
0000
0110
0000
1000
0010
0100
0010
1000
0000
,  // measure 56
0002
0000
0000
0000
0020
0000
0000
0033
1010
0000
0000
0000
1000
0000
0010
0000
0100
0000
0000
0000
0001
0000
0000
0000
0011
0000
0000
0000
0000
0000
0000
0000
,  // measure 57
0001
0000
0010
0000
1100
0000
0010
0001
1000
0001
0100
0000
0010
0000
1000
0000
,  // measure 58
1001
0001
0100
0000
0001
1000
0100
0000
,  // measure 59
1000
0000
0100
0000
0010
0000
0001
0000
1000
0100
0010
0001
1000
0001
0100
0020
,  // measure 60
2000
0000
0000
000M
0000
0000
0000
000M
,  // measure 61
0000
0000
0000
000M
0000
0000
0000
000M
,  // measure 62
0000
0000
0000
000M
0000
0000
0000
000M
,  // measure 63
0000
0000
0000
000M
0000
0000
3030
000M
,  // measure 64
1000
0000
1010
0001
0000
1000
1010
0001
,  // measure 65
1000
0000
0001
0000
0011
0000
1000
0000
0000
0000
0001
0010
0001
0000
1000
0000
,  // measure 66
0100
0000
1100
0001
0000
1000
1100
0001
,  // measure 67
1000
0000
0001
0000
0101
0000
1000
0000
0000
0000
0000
0000
1001
0000
0001
1000
,  // measure 68
0001
0000
0101
0010
1000
0100
1100
0010
,  // measure 69
0001
0000
0100
0000
1001
0000
0001
0000
0100
0000
0010
0100
0001
0000
1000
0000
,  // measure 70
0100
0010
0100
0010
0100
0010
0100
0010
0001
1000
0001
1000
0001
1000
0001
1000
,  // measure 71
0010
0100
0010
0100
0001
1000
0001
1000
0100
0010
0001
1000
0010
0100
0001
1000
,  // measure 72
0200
0000
0300
0220
0000
0330
0220
0330
,  // measure 73
2002
0000
3003
M01M
0000
0000
2002
0000
,  // measure 74
3003
0000
M01M
0000
0000
0000
0000
0000
0001
0010
0100
1000
0001
1000
0010
0100
,  // measure 75
0001
1000
0010
0000
1000
0000
0010
1000
0001
0000
1000
0000
0001
1000
0100
0000
,  // measure 76
0100
1000
0001
0000
1000
0000
0001
1000
0010
0000
0100
0000
0010
0000
1000
0001
,  // measure 77
0010
0001
1000
0000
0001
0000
1000
0001
0100
0000
0001
0000
0010
0001
0100
0000
,  // measure 78
0100
0001
0010
0000
0001
0000
1000
0100
M00M
0100
0001
0100
0001
0000
1000
0010
,  // measure 79
1000
0001
0010
0000
0001
0000
0010
0001
1000
0000
0001
0000
1000
0001
0100
0000
,  // measure 80
0100
0001
1000
0000
0001
0000
1000
0001
0010
0000
0100
0000
0010
0000
0001
1000
,  // measure 81
0010
1000
0001
0000
1000
0000
0001
1000
0100
0000
1000
0000
0010
1000
0100
0000
,  // measure 82
0100
0000
1000
0000
0010
0000
0000
0000
1000
0000
0000
0000
0001
0000
0100
0000
0000
M00M
0000
0000
0100
0000
1000
0000
0001
0000
0000
0000
0001
0000
1000
0000
,  // measure 83
0100
0010
0100
0000
0001
0000
0100
0010
0100
0000
1000
0000
0100
1000
0010
M00M
,  // measure 84
0010
0001
0100
0000
0001
0000
0100
0001
0010
0000
0001
0000
0001
0000
1000
0001
,  // measure 85
0100
0010
0100
0000
1000
0000
0100
0010
0100
0000
0001
0000
0100
0001
0010
M00M
,  // measure 86
0010
1000
0100
0000
0010
0000
0001
0100
M00M
0100
1000
0100
1000
0000
0010
0100
,  // measure 87
0002
0000
0000
0000
1003
0001
0100
0001
1000
0001
0100
0001
1000
0001
0100
0001
,  // measure 88
1000
0001
1000
0001
0010
0001
1000
0001
0010
0001
1000
0001
0010
0100
1000
0002
,  // measure 89
0200
0000
0000
1303
0000
0000
2200
0000
,  // measure 90
0000
0000
3301
0000
0000
0000
0000
0000
0001
0100
0010
1000
0100
0010
0001
0100
,  // measure 91
0020
0000
0030
0000
;

//---------------dance-single - ----------------
#NOTEDATA:;
#CHARTNAME:;
#STEPSTYPE:dance-single;
#DESCRIPTION:;
#CHARTSTYLE:;
#DIFFICULTY:Hard;
#METER:14;
#RADARVALUES:0.692842,0.720399,0.346421,0.684969,0.299182,616.000000,572.000000,44.000000,87.000000,63.000000,0.000000,0.000000,0.000000,0.000000,0.692842,0.720399,0.346421,0.684969,0.299182,616.000000,572.000000,44.000000,87.000000,63.000000,0.000000,0.000000,0.000000,0.000000;
#CREDIT:;
#OFFSET:-0.047004;
#BPMS:0.000000=184.000000
;
#STOPS:44.000000=0.978261
,73.000000=0.326088
,104.000000=0.326089
,209.000000=0.652166
,224.875000=0.326086
,289.000000=1.304349
;
#DELAYS:;
#WARPS:;
#TIMESIGNATURES:0.000000=4=4
;
#TICKCOUNTS:0.000000=4
;
#COMBOS:0.000000=1
;
#SPEEDS:0.000000=1.000000=0.000000=0
;
#SCROLLS:0.000000=1.000000
;
#FAKES:;
#LABELS:0.000000=Song Start
;
#NOTES:
// measure 0
0000
0000
0000
0000
,  // measure 1
0000
0000
0000
0000
,  // measure 2
0000
0000
0000
0000
,  // measure 3
0000
0000
0000
0000
,  // measure 4
2002
0000
3003
0000
0001
2002
0000
3003
,  // measure 5
2200
0000
3300
0002
0200
0000
0303
0000
,  // measure 6
2002
0000
3003
0000
1000
2002
0000
3003
,  // measure 7
2200
0000
3300
0002
0020
0000
0033
0000
,  // measure 8
1001
0010
1001
0100
,  // measure 9
1001
0001
1001
1000
,  // measure 10
0001
0100
0010
1000
0001
0100
1000
0100
,  // measure 11
0001
0000
1000
0010
0200
0301
1000
0200
,  // measure 12
0310
0001
0200
0310
0100
0002
1003
1000
,  // measure 13
0100
0000
0100
0010
0200
1300
0010
0200
,  // measure 14
0301
1000
0200
0310
0001
2000
3010
0001
,  // measure 15
0010
1000
0001
0010
0200
1300
0001
0200
,  // measure 16
0310
1000
0200
0310
0100
2000
3001
0001
,  // measure 17
0100
0000
0100
0010
2000
3100
0010
0002
,  // measure 18
0103
0010
1001
0000
1000
0100
0001
0100
,  // measure 19
1000
0010
0200
1300
0100
0020
1030
0100
,  // measure 20
0020
1030
0010
0200
1300
1000
0001
0000
,  // measure 21
0001
0100
2000
3100
0010
2000
3100
0010
,  // measure 22
2000
3010
0001
0200
0310
1000
0100
0010
,  // measure 23
0001
0010
0200
0301
0100
0020
0031
0100
,  // measure 24
0020
0031
0010
0200
0301
0001
1000
0000
,  // measure 25
1000
0100
0002
1003
0010
0002
0103
0010
,  // measure 26
1001
0000
1000
0010
0001
0010
1000
0000
,  // measure 27
0000
0000
00M0
0000
0000
0000
0000
00M0
0000
0000
0000
0000
0000
0000
00M0
0000
,  // measure 28
0000
0000
0001
0010
1000
0010
0001
0100
,  // measure 29
0020
0000
0130
0001
0000
000M
0020
0000
0130
0000
0001
0000
2000
0000
3100
0000
,  // measure 30
0010
0000
0001
0100
0000
0000
0100
0000
1001
0000
0000
0000
1000
0000
0010
0000
,  // measure 31
0200
0000
0310
1000
0000
M000
0200
0000
0301
0000
0010
0000
0200
0000
1300
0000
,  // measure 32
0010
0000
0100
0001
0000
0100
0001
0000
1000
0000
0010
0000
1000
0000
0100
0000
,  // measure 33
0020
0000
0130
1000
0000
M000
0020
0000
0130
0000
1000
0000
0002
0000
0103
0000
,  // measure 34
0010
0000
1000
0100
0000
0000
0100
0000
1001
0000
0000
0000
0001
0000
0010
0000
,  // measure 35
0200
0000
0310
0001
0000
000M
0200
0000
1300
0000
0001
0000
0100
0000
0000
1001
,  // measure 36
0000
0100
0000
0100
1001
0000
1000
0010
,  // measure 37
0002
0000
0013
1000
0000
M000
0200
0000
0301
0000
0010
0000
2000
0000
3010
0000
,  // measure 38
0001
0000
1000
0010
0000
0010
0100
0000
0001
0000
0000
0000
1000
0000
0100
0000
,  // measure 39
0002
0000
0103
1000
0000
M000
0020
0000
0031
0000
0100
0000
2000
0000
3100
0000
,  // measure 40
0001
0000
0010
0100
0000
0100
1000
0000
0010
0000
0100
0000
0001
0000
0010
0000
,  // measure 41
2000
0000
3010
0001
0000
000M
0200
0000
1300
0000
0010
0000
0002
0000
0013
0000
,  // measure 42
1000
0000
0001
0010
0000
0010
0100
0000
1000
0000
0001
0000
0200
0000
0000
0000
,  // measure 43
030M
0000
0000
00M0
0000
0000
M000
0000
0000
0M00
0000
0000
000M
0000
0000
00M0
,  // measure 44
0000
M000
0001
0100
0001
0010
0001
0100
,  // measure 45
0110
0000
0100
0001
0000
0000
0100
0000
0110
0000
0000
0000
1000
0000
0010
0000
,  // measure 46
0001
0000
0010
0000
1000
0010
1000
0000
0001
0000
0000
0000
1000
0000
0100
0000
,  // measure 47
0110
0000
0100
1000
0000
0000
0100
0000
0110
0000
0000
0000
0001
0000
0010
0000
,  // measure 48
0100
0000
0000
0000
1000
0000
0010
0000
0000
0000
0010
0000
0100
0000
0000
0000
0002
0000
0000
0000
2000
0000
0000
3003
M00M
0000
0000
0000
0000
0000
0000
0000
,  // measure 49
0101
0000
0001
1000
0000
0000
1000
0000
1100
0000
0000
0000
0001
0000
0010
0000
,  // measure 50
1000
0000
0010
0000
0001
0010
0001
0000
0100
0000
0010
0000
1000
0000
0010
0000
,  // measure 51
0110
0000
0100
0001
0000
0000
0001
0000
1000
0000
0100
0000
0001
0000
0100
0000
,  // measure 52
1000
0000
0010
0000
0200
0000
0300
0000
0101
0000
0001
0010
0000
00M0
1000
0000
,  // measure 53
1100
0000
0000
0000
0001
0000
0100
0000
1000
0000
0100
0000
0001
0100
0001
0000
,  // measure 54
0010
0000
0000
0000
0010
0000
0100
0000
1100
0000
1000
0010
0000
00M0
0001
0000
,  // measure 55
0101
0000
0000
0000
1000
0000
0010
0000
0100
0000
0001
1000
0000
1000
0100
0000
,  // measure 56
0020
0000
0000
0000
0002
0000
0000
0033
1001
0000
0000
0000
0100
0000
0010
0000
0000
0000
0000
0000
0100
0000
0000
0000
1001
0000
0000
0000
0000
0000
0000
0000
,  // measure 57
1000
0000
0100
0000
0001
0000
0100
0000
1000
0100
1000
0000
0010
0000
0100
0000
,  // measure 58
0110
0001
0000
0001
,  // measure 59
1000
0100
0010
0001
1000
0010
0001
0020
,  // measure 60
2000
0000
0000
000M
0000
0000
0000
000M
,  // measure 61
0000
0000
0000
000M
0000
0000
0000
000M
,  // measure 62
0000
0000
0000
000M
0000
0000
0000
000M
,  // measure 63
0000
0000
0000
000M
0000
0000
3030
000M
,  // measure 64
0010
0000
1000
0001
0000
0001
1000
0001
,  // measure 65
0010
0000
0001
0000
1000
0000
0001
0000
0000
0000
1000
0001
1000
0000
0001
0000
,  // measure 66
0100
0000
0001
1000
0000
1000
0010
1000
,  // measure 67
0001
0000
1000
0000
0010
0000
1000
0000
0000
0000
0000
0000
1001
0000
0001
1000
,  // measure 68
0001
0000
1000
0100
0001
0100
1000
0100
,  // measure 69
0001
0000
0100
0000
1000
0000
0100
0000
0001
0000
0100
0010
0100
0000
1000
0000
,  // measure 70
0001
0100
1000
0001
0010
1000
0100
0001
,  // measure 71
1000
0010
0001
0100
1000
0001
0010
1000
,  // measure 72
0220
0000
0330
0220
0000
0330
0220
0330
,  // measure 73
2002
0000
3003
M01M
0000
0000
2002
0000
,  // measure 74
3003
M01M
0000
0000
0001
0010
1000
0010
,  // measure 75
0001
0000
0100
M00M
0100
0000
1000
0000
0010
M00M
0010
0000
0001
0000
1000
0000
,  // measure 76
0001
0000
0100
M00M
0100
0000
1000
0010
0000
1000
0010
0000
0100
0000
0001
0000
,  // measure 77
1000
0000
0100
M00M
0100
0000
0001
0000
0010
M00M
0010
0000
1000
0000
0001
0000
,  // measure 78
1000
0000
0100
0000
0110
0000
0000
0011
0000
0000
1000
0010
1000
0000
0100
0000
,  // measure 79
1000
0000
0010
M00M
0010
0000
0001
0000
0100
M00M
0100
0000
1000
0000
0001
0000
,  // measure 80
1000
0000
0100
M00M
0100
0000
0001
0010
0000
0001
0010
0000
0100
0000
1000
0000
,  // measure 81
0001
0000
0010
M00M
0010
0000
1000
0000
0100
M00M
0100
0000
0001
0000
1000
0000
,  // measure 82
0001
0000
0100
0000
0110
0000
0000
1010
0000
0000
0001
0010
0001
0000
1000
0000
,  // measure 83
0010
0000
0001
0MM0
0001
0000
0100
0000
1000
0MM0
1000
0000
0010
0000
0100
0000
,  // measure 84
0001
0000
0010
M00M
0010
0000
1000
0100
0000
1000
0100
0000
0010
0000
0001
0000
,  // measure 85
0010
0000
1000
0MM0
1000
0000
0100
0000
0001
0MM0
0001
0000
0010
0000
0100
0000
,  // measure 86
1000
0000
0010
0000
1010
0000
0000
0101
0000
0000
0001
1000
0001
0000
0010
0000
,  // measure 87
0002
0000
1003
0001
0100
0001
1000
0001
,  // measure 88
0200
0000
0301
1000
0100
1000
0001
1000
,  // measure 89
2010
0000
0000
3001
0000
0000
0012
0000
,  // measure 90
0000
1003
0000
0000
0010
1000
0100
0001
,  // measure 91
0020
0000
0030
0000
;

//---------------dance-single - ----------------
#NOTEDATA:;
#CHARTNAME:;
#STEPSTYPE:dance-single;
#DESCRIPTION:;
#CHARTSTYLE:;
#DIFFICULTY:Medium;
#METER:11;
#RADARVALUES:0.484765,0.546204,0.338548,0.102352,0.000000,431.000000,388.000000,43.000000,13.000000,0.000000,0.000000,0.000000,0.000000,0.000000,0.484765,0.546204,0.338548,0.102352,0.000000,431.000000,388.000000,43.000000,13.000000,0.000000,0.000000,0.000000,0.000000,0.000000;
#CREDIT:;
#OFFSET:-0.047004;
#BPMS:0.000000=184.000000
;
#STOPS:44.000000=0.978261
,73.000000=0.326088
,104.000000=0.326089
,209.000000=0.652166
,224.500000=0.326086
;
#DELAYS:;
#WARPS:;
#TIMESIGNATURES:0.000000=4=4
;
#TICKCOUNTS:0.000000=4
;
#COMBOS:0.000000=1
;
#SPEEDS:0.000000=1.000000=0.000000=0
;
#SCROLLS:0.000000=1.000000
,289.000000=0.000000
,292.500000=1.000000
;
#FAKES:;
#LABELS:0.000000=Song Start
;
#NOTES:
// measure 0
0000
0000
0000
0000
,  // measure 1
0000
0000
0000
0000
,  // measure 2
0000
0000
0000
0000
,  // measure 3
0000
0000
0000
0000
,  // measure 4
1001
0000
0000
0000
0001
0100
0000
0000
,  // measure 5
0101
0000
0000
1000
0100
0000
0000
0000
,  // measure 6
1001
0000
0000
0000
1000
0010
0000
0000
,  // measure 7
1010
0000
0000
0001
0010
0000
0000
0000
,  // measure 8
0011
0000
1100
0000
,  // measure 9
1010
0000
0101
0000
,  // measure 10
1000
0000
0001
0000
1000
0001
1000
0001
,  // measure 11
1000
0000
0001
1000
0010
0000
0100
0010
,  // measure 12
0000
1000
0010
0000
0100
0001
0100
0000
,  // measure 13
0101
0000
1000
0001
0010
0000
0100
0010
,  // measure 14
0000
0001
0010
0000
0100
1000
0100
0000
,  // measure 15
1100
0000
1000
0010
0100
0000
0001
0100
,  // measure 16
0000
0010
0100
0000
0001
0100
0001
0000
,  // measure 17
1010
0000
0001
0010
0100
0000
1000
0100
,  // measure 18
0000
0010
0001
0000
0110
0000
1001
0000
,  // measure 19
0001
0100
0010
0000
0100
0010
0000
0100
,  // measure 20
1000
0000
0100
0010
0100
0000
0101
0000
,  // measure 21
1000
0100
0010
0000
0100
0010
0000
0100
,  // measure 22
0001
0000
0100
0010
0100
0000
1100
0000
,  // measure 23
1000
0010
1000
0000
0010
0100
0000
0010
,  // measure 24
0001
0000
0010
0100
0010
0000
1010
0000
,  // measure 25
0001
0010
0100
0000
1000
0010
0000
0100
,  // measure 26
0001
0110
1001
0100
,  // measure 27
0000
0000
0000
0000
,  // measure 28
0000
0000
1001
0000
0110
0000
1000
0010
,  // measure 29
0100
0010
1000
0000
0101
0000
0001
0100
,  // measure 30
0001
0000
1000
0100
1000
0000
0001
0010
,  // measure 31
0100
0010
0001
0000
1100
0000
1000
0100
,  // measure 32
1000
0000
0001
0100
0001
0000
1000
0100
,  // measure 33
0010
0100
1000
0000
1001
0000
0001
0010
,  // measure 34
0001
0000
1000
0010
1000
0000
0001
0100
,  // measure 35
0010
0100
0001
0000
1000
0000
0200
0000
,  // measure 36
0000
0000
0000
0000
0300
0000
0010
0001
,  // measure 37
1000
0001
0010
0000
0011
0000
0100
1000
,  // measure 38
0001
0000
0100
0001
1000
0000
0010
1000
,  // measure 39
0001
1000
0010
0000
1010
0000
0100
0001
,  // measure 40
1000
0000
0100
1000
0001
0000
1000
0010
,  // measure 41
0100
0001
1000
0000
1001
0000
0001
0010
,  // measure 42
0100
0000
1000
0010
0100
0000
0002
0000
,  // measure 43
0003
0000
0000
0000
,  // measure 44
0000
0001
0001
1000
,  // measure 45
0010
0000
0001
0010
1000
0000
0001
0000
,  // measure 46
0100
0000
1000
0100
0001
0000
1000
0000
,  // measure 47
0010
0000
0001
0010
1000
0000
0001
0000
,  // measure 48
0100
0000
0001
0100
0010
1000
0001
0000
,  // measure 49
0010
0000
1000
0010
0001
0000
1000
0000
,  // measure 50
0100
0000
0001
0100
1000
0000
0001
0000
,  // measure 51
0010
0000
1000
0010
0001
0000
0100
0000
,  // measure 52
0010
0000
1000
0000
1001
0000
0001
0100
,  // measure 53
1000
0000
0100
0000
0100
0000
1000
0100
,  // measure 54
0001
0000
0010
0000
0010
0000
0001
0010
,  // measure 55
1000
0000
0010
0000
0010
0000
1000
0010
,  // measure 56
0001
0010
1001
0000
1000
0010
0100
0000
,  // measure 57
0001
0000
0001
0000
0010
0100
1000
0000
,  // measure 58
0010
1001
0000
1001
,  // measure 59
0001
0000
1000
0000
0001
1000
0001
1000
,  // measure 60
0002
0000
0000
0000
,  // measure 61
0000
0000
0000
0000
,  // measure 62
0000
0000
0000
0000
,  // measure 63
0000
0000
0000
0003
,  // measure 64
0001
1001
0000
0101
,  // measure 65
0100
0000
1100
0000
0000
0000
1000
0100
,  // measure 66
0001
1001
0000
1100
,  // measure 67
0100
0000
0101
0000
0000
0000
0001
0100
,  // measure 68
1000
0020
1000
1000
,  // measure 69
0100
0100
0001
0001
,  // measure 70
0100
0100
1000
1000
,  // measure 71
0100
0001
0100
1030
,  // measure 72
2002
3003
0000
0000
,  // measure 73
0000
0000
0000
2002
0000
3003
0110
0000
,  // measure 74
2001
0000
0000
3010
0000
0000
1002
0000
,  // measure 75
0000
0013
0000
0000
0001
1000
0001
1000
,  // measure 76
0001
0100
0000
0100
0010
0000
1000
0000
,  // measure 77
0001
0010
0000
0010
0100
0000
0010
0001
,  // measure 78
1000
0010
0000
0010
0100
0000
0001
0000
,  // measure 79
1000
0100
0010
0000
0001
0100
0010
0000
,  // measure 80
1000
0100
0000
0100
0010
0000
0001
0000
,  // measure 81
0100
0010
0000
0010
1000
0000
0001
0010
,  // measure 82
0100
1000
0000
1000
0001
0000
0100
0000
,  // measure 83
0010
1000
0001
0000
0010
0001
1000
0000
,  // measure 84
0001
0100
0000
0001
0100
0000
0010
0000
,  // measure 85
0100
1000
0000
0100
1000
0000
0100
0001
,  // measure 86
1000
0100
0000
1000
0100
0000
0010
0000
,  // measure 87
0100
0001
0000
0100
0001
0000
0100
1000
,  // measure 88
0002
0000
0000
0000
,  // measure 89
2003
0000
0000
0000
,  // measure 90
3010
0000
0000
1001
0000
0000
0010
0000
,  // measure 91
0000
1001
0000
0000
1000
0010
0100
0001
,  // measure 92
0020
0000
0030
0000
;

//---------------dance-single - ----------------
#NOTEDATA:;
#CHARTNAME:;
#STEPSTYPE:dance-single;
#DESCRIPTION:;
#CHARTSTYLE:;
#DIFFICULTY:Easy;
#METER:7;
#RADARVALUES:0.314928,0.365120,0.259816,0.259816,0.000000,280.000000,247.000000,33.000000,33.000000,0.000000,0.000000,0.000000,0.000000,0.000000,0.314928,0.365120,0.259816,0.259816,0.000000,280.000000,247.000000,33.000000,33.000000,0.000000,0.000000,0.000000,0.000000,0.000000;
#CREDIT:;
#OFFSET:-0.047004;
#BPMS:0.000000=184.000000
;
#STOPS:44.000000=0.978261
,73.000000=0.326088
,104.000000=0.326089
,209.000000=0.652166
;
#DELAYS:;
#WARPS:;
#TIMESIGNATURES:0.000000=4=4
;
#TICKCOUNTS:0.000000=4
;
#COMBOS:0.000000=1
;
#SPEEDS:0.000000=1.000000=0.000000=0
;
#SCROLLS:0.000000=1.000000
,290.000000=0.000000
,294.500000=1.000000
;
#FAKES:;
#LABELS:0.000000=Song Start
;
#NOTES:
// measure 0
0000
0000
0000
0000
,  // measure 1
0000
0000
0000
0000
,  // measure 2
0000
0000
0000
0000
,  // measure 3
0000
0000
0000
0000
,  // measure 4
1002
0000
0203
0000
,  // measure 5
1000
0000
0301
0000
,  // measure 6
2000
0000
3200
0000
,  // measure 7
0001
0000
1300
0000
,  // measure 8
1100
0000
0011
0000
,  // measure 9
0101
0000
1010
0000
,  // measure 10
0001
1000
0001
1000
,  // measure 11
0001
1000
0100
1000
,  // measure 12
0100
1000
0000
1000
,  // measure 13
1000
0001
0100
0001
,  // measure 14
0100
0001
0000
0001
,  // measure 15
0001
0010
0001
0010
,  // measure 16
0001
1000
0000
1000
,  // measure 17
1000
0010
1000
0010
,  // measure 18
1000
0001
2002
3003
,  // measure 19
1000
0100
0010
0001
,  // measure 20
0100
0000
0100
0100
,  // measure 21
0001
0100
0010
1000
,  // measure 22
0100
0000
0100
0100
,  // measure 23
1000
0001
0100
0010
,  // measure 24
1000
0000
0001
0001
,  // measure 25
1000
0100
0010
0001
,  // measure 26
1000
2002
3003
0100
,  // measure 27
0000
0000
0000
0000
,  // measure 28
0000
2002
3003
1000
,  // measure 29
0100
0010
0100
1000
,  // measure 30
0000
1000
1100
0001
,  // measure 31
0100
0010
0100
0001
,  // measure 32
0000
0001
0101
1000
,  // measure 33
0010
0100
0010
1000
,  // measure 34
0000
1000
1010
0001
,  // measure 35
0010
0100
1000
0002
,  // measure 36
0000
0003
0001
1000
,  // measure 37
0010
0100
0001
0010
,  // measure 38
0000
0010
1100
0001
,  // measure 39
0010
0100
1000
0010
,  // measure 40
0000
0010
0101
1000
,  // measure 41
0010
1000
0100
0010
,  // measure 42
0000
0010
1001
0200
,  // measure 43
0300
0000
0000
0000
,  // measure 44
0000
0100
1001
1000
,  // measure 45
0010
0000
0010
0100
,  // measure 46
0001
0000
0001
1000
,  // measure 47
0100
0000
0100
0010
,  // measure 48
0001
1000
0020
0030
,  // measure 49
0110
0000
0010
0100
,  // measure 50
0001
0000
0010
0100
,  // measure 51
1000
0000
1000
0010
,  // measure 52
0100
0001
1001
0000
,  // measure 53
0001
0010
1000
0000
,  // measure 54
1000
0010
0001
0000
,  // measure 55
0001
0100
1000
0100
,  // measure 56
0002
0003
0101
0000
,  // measure 57
1000
0010
0100
0000
,  // measure 58
0001
0020
0000
0000
,  // measure 59
0030
0010
0100
1000
,  // measure 60
0001
2002
0000
0000
,  // measure 61
0000
0000
0000
0000
,  // measure 62
0000
0000
0000
0000
,  // measure 63
0000
0000
0000
0000
,  // measure 64
3003
0000
0101
0000
,  // measure 65
0110
0000
0101
0000
,  // measure 66
1001
0000
1100
0000
,  // measure 67
0110
0000
1100
0000
,  // measure 68
1001
1000
0020
0000
,  // measure 69
1000
0000
0100
0000
,  // measure 70
0001
0000
0100
0000
,  // measure 71
1000
0000
0001
0000
,  // measure 72
1030
2002
3003
0000
,  // measure 73
0000
0000
0000
0000
,  // measure 74
0000
0000
0220
0000
0000
0330
0000
0000
,  // measure 75
0220
0000
0000
0330
0000
0000
2002
0000
,  // measure 76
3003
0001
0010
0001
,  // measure 77
0010
0100
0010
0001
,  // measure 78
1000
0001
0100
0001
,  // measure 79
0100
0010
0100
0001
,  // measure 80
0001
1000
0010
1000
,  // measure 81
0010
0100
0010
1000
,  // measure 82
0001
1000
0100
1000
,  // measure 83
0100
0010
0001
1000
,  // measure 84
1000
0001
0100
0010
,  // measure 85
1000
0100
0010
0001
,  // measure 86
0001
1000
0100
0010
,  // measure 87
0001
0100
0010
1000
,  // measure 88
1000
0002
0000
0000
,  // measure 89
0003
2000
0000
0000
,  // measure 90
3000
0000
2002
0000
0000
3003
0000
0000
,  // measure 91
2002
0000
0000
3003
0000
0000
1000
0000
,  // measure 92
0100
0002
0000
0003
;

//---------------dance-single - ----------------
#NOTEDATA:;
#CHARTNAME:;
#STEPSTYPE:dance-single;
#DESCRIPTION:;
#CHARTSTYLE:;
#DIFFICULTY:Beginner;
#METER:4;
#RADARVALUES:0.247444,0.334808,0.244070,0.078732,0.000000,220.000000,189.000000,31.000000,10.000000,0.000000,0.000000,0.000000,0.000000,0.000000,0.247444,0.334808,0.244070,0.078732,0.000000,220.000000,189.000000,31.000000,10.000000,0.000000,0.000000,0.000000,0.000000,0.000000;
#CREDIT:;
#OFFSET:-0.047004;
#BPMS:0.000000=184.000000
;
#STOPS:;
#DELAYS:;
#WARPS:;
#TIMESIGNATURES:0.000000=4=4
;
#TICKCOUNTS:0.000000=4
;
#COMBOS:0.000000=1
;
#SPEEDS:0.000000=1.000000=0.000000=0
;
#SCROLLS:0.000000=1.000000
;
#FAKES:;
#LABELS:0.000000=Song Start
;
#NOTES:
// measure 0
0000
0000
0000
0000
,  // measure 1
0000
0000
0000
0000
,  // measure 2
0000
0000
0000
0000
,  // measure 3
0000
0000
0000
0000
,  // measure 4
1001
0000
0001
0000
,  // measure 5
0110
0000
0000
0000
,  // measure 6
1001
0000
1000
0000
,  // measure 7
0110
0000
0000
0000
,  // measure 8
1001
0000
0001
0000
,  // measure 9
1001
0000
1000
0000
,  // measure 10
0100
0100
0100
0100
,  // measure 11
0100
0000
0000
0000
,  // measure 12
1000
0100
1000
0000
,  // measure 13
0001
0000
1000
0000
,  // measure 14
0001
0100
0001
0000
,  // measure 15
1000
0000
0001
0000
,  // measure 16
1000
0010
1000
0000
,  // measure 17
0001
0000
1000
0000
,  // measure 18
0001
0010
0001
0000
,  // measure 19
1000
0000
1001
0000
,  // measure 20
1000
0010
0100
0000
,  // measure 21
0010
0000
1000
0000
,  // measure 22
0001
0010
0100
0000
,  // measure 23
0010
0000
0001
0000
,  // measure 24
1000
0100
0010
0000
,  // measure 25
0100
0000
1000
0000
,  // measure 26
0001
0100
0010
0000
,  // measure 27
0100
0000
0110
0000
,  // measure 28
0001
0000
0000
0000
,  // measure 29
0000
0000
1001
0000
,  // measure 30
1000
0100
1000
0000
,  // measure 31
0110
0000
0001
0000
,  // measure 32
0001
0100
0001
0000
,  // measure 33
0110
0000
1000
0000
,  // measure 34
1000
0010
1000
0000
,  // measure 35
0110
0000
0001
0000
,  // measure 36
0001
0010
0001
0000
,  // measure 37
0200
0000
0000
0300
,  // measure 38
0001
0100
0010
0000
,  // measure 39
0101
0000
1100
0000
,  // measure 40
1000
0100
0010
0000
,  // measure 41
1100
0000
0101
0000
,  // measure 42
1000
0001
1000
0000
,  // measure 43
0110
0000
1001
0000
,  // measure 44
0020
0030
0000
0000
,  // measure 45
0000
0000
0010
0010
,  // measure 46
1000
0001
0000
0101
,  // measure 47
0000
1000
0000
1100
,  // measure 48
0000
0001
0000
0011
,  // measure 49
0000
1000
0000
0020
,  // measure 50
0030
0010
0000
1001
,  // measure 51
0000
0100
0000
1001
,  // measure 52
0000
1000
0000
0100
,  // measure 53
0100
0000
0020
0000
,  // measure 54
0030
0001
0000
1100
,  // measure 55
0000
0001
0000
1010
,  // measure 56
0000
1000
0000
0101
,  // measure 57
0000
1000
0000
0002
,  // measure 58
0003
0001
0000
0110
,  // measure 59
0000
1000
0000
1000
,  // measure 60
0002
0000
0003
0000
,  // measure 61
0010
0010
0010
0010
,  // measure 62
0020
0000
0000
0000
,  // measure 63
0000
0000
0000
0000
,  // measure 64
0000
0000
0000
0000
,  // measure 65
0000
0000
0000
0030
,  // measure 66
0000
0001
0000
0001
,  // measure 67
0000
1000
0000
1000
,  // measure 68
0000
0001
0000
0001
,  // measure 69
0000
1000
0000
1000
,  // measure 70
1000
0000
0100
0000
,  // measure 71
0010
0000
0001
0000
,  // measure 72
0100
0000
0010
0000
,  // measure 73
1000
0000
0001
0000
,  // measure 74
1001
0000
0000
0000
,  // measure 75
0000
0000
0000
0000
,  // measure 76
0000
0000
0000
0000
,  // measure 77
0000
0000
1001
0000
,  // measure 78
0001
0001
0001
0000
,  // measure 79
0010
0010
0010
0000
,  // measure 80
0100
0100
0100
0000
,  // measure 81
1000
1000
1000
0000
,  // measure 82
0010
0010
0010
0000
,  // measure 83
0100
0100
0100
0000
,  // measure 84
0001
0001
0001
0000
,  // measure 85
1000
0000
0001
0000
,  // measure 86
1000
0100
1000
0000
,  // measure 87
0001
0010
0001
0000
,  // measure 88
1000
0010
1000
0000
,  // measure 89
0001
0100
0001
0000
,  // measure 90
2000
0000
3000
0000
,  // measure 91
0002
0000
0003
0000
,  // measure 92
1001
0000
0000
1001
,  // measure 93
0000
0000
0010
0100
,  // measure 94
0020
0000
0030
0000
;
