#VERSION:0.83;
#TITLE:Howlin' Pumpkin;
#SUBTITLE:;
#ARTIST:brz1128;
#TITLETRANSLIT:;
#SUBTITLETRANSLIT:;
#ARTISTTRANSLIT:;
#GENRE:Handz Up;
#ORIGIN:;
#CREDIT:;
#BANNER:Howlin' Pumpkin.png;
#BACKGROUND:Howlin' Pumpkin-bg.png;
#PREVIEWVID:;
#JACKET:Howlin' Pumpkin-jacket.png;
#CDIMAGE:;
#DISCIMAGE:;
#LYRICSPATH:;
#CDTITLE:cdtitle.png;
#MUSIC:Howlin' Pumpkin.ogg;
#OFFSET:-0.421240;
#SAMPLESTART:68.994675;
#SAMPLELENGTH:13.714287;
#SELECTABLE:YES;
#BPMS:0.000=140.000;
#STOPS:;
#DELAYS:;
#WARPS:;
#TIMESIGNATURES:0.000=4=4;
#TICKCOUNTS:0.000=4;
#COMBOS:0.000=1;
#SPEEDS:0.000=1.000=0.000=0;
#SCROLLS:0.000=1.000;
#FAKES:;
#LABELS:0.000=Song Start;
#BGCHANGES:;
#KEYSOUNDS:;
#ATTACKS:
;

//---------------dance-single - ----------------
#NOTEDATA:;
#CHARTNAME:;
#STEPSTYPE:dance-single;
#DESCRIPTION:;
#CHARTSTYLE:;
#DIFFICULTY:Challenge;
#METER:13;
#RADARVALUES:0.655588,0.702695,0.324742,0.538388,0.239284,537.000000,499.000000,38.000000,63.000000,1.000000,0.000000,4.000000,0.000000,0.000000,0.655588,0.702695,0.324742,0.538388,0.239284,537.000000,499.000000,38.000000,63.000000,1.000000,0.000000,4.000000,0.000000,0.000000;
#CREDIT:;
#NOTES:
// measure 0
0000
0000
0000
0000
,  // measure 1
0000
0000
0000
0000
,  // measure 2
0000
0000
0000
0000
,  // measure 3
0000
0000
0000
0000
,  // measure 4
1001
0000
0000
0000
0000
0000
1000
0000
0000
0001
0000
0000
1000
0000
0000
0000
0000
0000
0001
0000
0001
0010
0000
0000
,  // measure 5
0100
0000
0000
0010
0000
0000
0001
0000
0001
0100
0000
0000
0010
0000
0000
0000
0000
0010
1000
0000
0000
0001
0000
0000
,  // measure 6
0010
0000
0000
0000
0000
0000
0001
0000
1000
0001
0000
1000
0010
0000
0000
0000
0000
0000
1000
0000
0000
0010
0000
0000
,  // measure 7
0001
0000
0000
0010
0000
0000
1000
0000
0000
0100
0000
0000
0010
0000
0001
0010
0000
0001
0010
0000
0000
0100
0000
0000
,  // measure 8
2000
0010
3010
1000
0010
2000
3020
0230
,  // measure 9
0302
0010
0013
0001
0010
0200
2300
3002
,  // measure 10
0203
0010
0310
0100
0010
0200
0302
2003
,  // measure 11
3200
0000
0000
0010
0000
0000
0310
0000
0000
0001
0000
0000
0100
0000
0010
0100
0000
0010
0100
0000
0000
0001
0000
0000
,  // measure 12
2000
0100
3100
0010
0100
0002
0203
0320
,  // measure 13
0032
0100
0103
0010
0100
2000
3200
0320
,  // measure 14
2030
0001
3001
0010
0100
0020
2030
3020
,  // measure 15
0230
0000
0000
0010
0000
0000
0310
0000
0000
0001
0000
0000
1000
0000
0010
0100
0000
0010
0100
0000
0000
0001
0000
0000
,  // measure 16
1001
0000
1000
0100
0010
0000
0010
0100
,  // measure 17
1000
0000
1000
0100
0010
0100
1000
0100
,  // measure 18
0010
0000
0001
0100
0010
0000
0010
0100
,  // measure 19
0001
0000
0001
0100
0010
1000
0100
0010
,  // measure 20
0011
0000
1000
0010
0001
0000
0010
0001
,  // measure 21
0100
0000
0001
0100
1000
0001
1000
0010
,  // measure 22
4000
0040
0000
0000
0000
0000
3000
0030
0400
0004
0000
0000
0000
0000
0300
0003
,  // measure 23
2000
0000
3100
0100
0100
0010
0001
0100
,  // measure 24
1001
0000
0000
0000
0000
0000
0100
0000
0000
0100
0000
0000
1001
0000
0000
0000
0000
0000
1001
0000
1000
0001
0000
0000
,  // measure 25
0010
0000
0000
0100
0000
0000
0010
0000
0010
0100
0000
0000
0010
0000
0000
0011
0000
0000
1001
0000
0000
1010
0000
0000
,  // measure 26
0110
0000
0000
0000
0000
0000
0100
0000
0100
0010
0000
0000
1001
0000
0000
0000
0000
0000
1001
0000
0000
1001
0000
0000
,  // measure 27
1000
0000
0000
0010
0000
0000
0100
0000
0000
0001
0000
0000
1001
0000
1000
0001
0000
0001
1000
0000
0000
0110
0000
0000
,  // measure 28
1001
0000
0000
0000
0000
0000
1000
0000
0000
0100
0000
0000
0001
0000
0000
0000
0000
0000
0001
0000
0001
0100
0000
0000
,  // measure 29
1000
0000
0000
1000
0000
0000
1000
0000
1000
0010
0000
0000
0001
0000
0000
0000
0000
0000
0001
0000
0000
0010
0000
0000
,  // measure 30
1000
0000
0000
0000
0000
0000
0001
0000
0001
0100
0000
0100
1000
0000
0000
0000
0000
0000
1000
0000
0000
0100
0000
0000
,  // measure 31
0001
0000
0000
0010
0000
0000
0100
0000
0000
1000
0000
0000
0001
0000
0100
0001
0000
0100
0001
0000
0000
1000
0000
0000
,  // measure 32
0100
0000
1000
0100
0001
0000
0100
0001
,  // measure 33
0010
0000
0001
0010
1000
0100
0010
0100
,  // measure 34
1000
0000
0001
0010
1000
0000
0010
1000
,  // measure 35
0100
0000
1000
0100
0001
0010
1000
0010
,  // measure 36
0001
0001
0100
0100
0010
0010
1000
1000
,  // measure 37
0100
0100
0010
0010
0001
0001
0100
0100
,  // measure 38
1010
0001
0011
1000
1100
0001
0101
1000
,  // measure 39
0001
0010
0100
1000
0001
0011
0011
0000
,  // measure 40
1002
0000
0000
0000
0000
0000
0103
0000
0000
0010
0000
0000
0101
0000
0000
0000
0000
0000
1000
0000
1000
0100
0000
0000
,  // measure 41
0001
0000
0000
0100
0000
0000
0010
0000
0010
0100
0000
0000
1100
0000
0000
0000
0000
1000
0010
0000
0000
0100
0000
0000
,  // measure 42
0001
0000
0000
0001
0000
0000
0010
0000
0010
0100
0000
0100
1000
0000
0000
1000
0000
0000
0010
0000
0000
0001
0000
0000
,  // measure 43
0010
0000
0000
1000
0000
0000
0100
0000
0000
0010
0000
0001
0100
0000
0001
0100
0000
0001
0100
0000
0000
0010
0000
0000
,  // measure 44
2001
0000
0000
0000
0000
0000
3100
0000
0000
0010
0000
0000
1100
0000
0000
0000
0000
0000
0001
0000
0001
0100
0000
0000
,  // measure 45
1000
0000
0000
0100
0000
0000
0010
0000
0010
0100
0000
0000
0101
0000
0000
0000
0000
0001
0010
0000
0000
0100
0000
0000
,  // measure 46
1000
0000
0000
1000
0000
0000
0010
0000
0010
0100
0000
0100
0001
0000
0000
0001
0000
0000
0010
0000
0000
1000
0000
0000
,  // measure 47
0001
0000
0000
0100
0000
0000
1000
0000
0000
0010
0000
0000
0100
0000
0001
1000
0000
1000
0001
0000
0000
0010
0000
0000
,  // measure 48
2001
0000
0000
0000
0000
0000
3100
0000
0000
1000
0000
0000
0101
0000
0000
0000
0000
0000
1000
0000
1000
0100
0000
0000
,  // measure 49
0010
0000
0000
0001
0000
0000
0100
0000
0100
0010
0000
0000
1010
0000
0000
0000
0000
0001
0010
0000
0000
0100
0000
0000
,  // measure 50
0001
0000
0000
0100
0000
0000
0010
0000
0001
1000
0000
1000
0010
0000
0000
0100
0000
0000
1000
0000
0000
0100
0000
0000
,  // measure 51
0010
0000
0000
0010
0000
0000
1000
0000
0000
0001
0000
0000
0010
0000
0100
0010
0000
0010
0001
0000
0000
0100
0000
0000
,  // measure 52
1002
0000
0000
0000
0000
0000
0103
0000
0000
0001
0000
0000
1100
0000
0000
0000
0000
0000
1000
0000
1000
0010
0000
0000
,  // measure 53
0001
0000
0000
0010
0000
0000
0100
0000
0100
0010
0000
0000
1010
0000
0000
0000
0000
0001
0010
0000
0000
0100
0000
0000
,  // measure 54
1000
0000
0000
1000
0000
0000
0010
0000
0010
0100
0000
0100
0001
0000
0000
0001
0000
0000
0010
0000
0000
1000
0000
0000
,  // measure 55
0020
0030
0200
0300
0020
0030
0002
0003
0020
0030
1100
0000
0011
0000
0101
0000
,  // measure 56
2010
0010
0001
0001
3010
2000
3200
0320
,  // measure 57
0032
0010
1000
1000
0013
0002
2003
3020
,  // measure 58
0230
0001
0010
0010
0301
2000
3200
0320
,  // measure 59
0230
0000
0000
1000
0000
0000
0010
0000
0000
0010
0000
0000
1300
0000
0100
0010
0000
0100
0010
0000
0000
0001
0000
0000
,  // measure 60
0200
0001
0010
1000
1300
0200
0302
2003
,  // measure 61
3020
1000
1000
0100
0031
0020
2030
3002
,  // measure 62
0023
0001
0001
0100
1030
0020
0032
2003
,  // measure 63
3200
0000
0000
0001
0000
0000
0001
0000
0000
0310
0000
0000
0100
0000
1000
0001
0000
1000
0001
0000
0000
0100
0000
0000
,  // measure 64
0010
0010
0010
0100
1000
0100
0001
0010
,  // measure 65
0100
0000
0000
0000
0001
0000
0000
0000
0100
0000
0000
0000
1000
0000
0000
0000
0002
0000
0000
0000
0000
0000
0000
0000
0003
000M
0000
0000
0000
0000
0000
0000
;

//---------------dance-single - ----------------
#NOTEDATA:;
#CHARTNAME:;
#STEPSTYPE:dance-single;
#DESCRIPTION:;
#CHARTSTYLE:;
#DIFFICULTY:Hard;
#METER:11;
#RADARVALUES:0.482230,0.505700,0.145279,0.119642,0.000000,395.000000,378.000000,17.000000,14.000000,0.000000,0.000000,0.000000,0.000000,0.000000,0.482230,0.505700,0.145279,0.119642,0.000000,395.000000,378.000000,17.000000,14.000000,0.000000,0.000000,0.000000,0.000000,0.000000;
#CREDIT:;
#NOTES:
// measure 0
0000
0000
0000
0000
,  // measure 1
0000
0000
0000
0000
,  // measure 2
0000
0000
0000
0000
,  // measure 3
0000
0000
0000
0000
,  // measure 4
1001
0000
1000
0001
1000
0000
0001
0010
,  // measure 5
0100
1000
0010
0100
0001
0000
0100
0001
,  // measure 6
0010
0000
0100
1000
0010
0000
1000
0100
,  // measure 7
0010
0001
0100
0010
1000
1000
0100
0010
,  // measure 8
0002
0000
0013
0000
0001
0100
0001
1000
,  // measure 9
0002
0000
0013
0000
0001
0100
1000
0100
,  // measure 10
0002
0000
0013
0000
0001
0100
0001
1000
,  // measure 11
0002
0000
0013
0000
0100
0100
0010
0001
,  // measure 12
2000
0000
3010
0000
1000
0100
1000
0001
,  // measure 13
2000
0000
3010
0000
1000
0100
0001
0100
,  // measure 14
2000
0000
3010
0000
1000
0100
1000
0001
,  // measure 15
2000
0000
3010
0000
0100
0001
0010
0000
,  // measure 16
1001
0000
0000
1000
0000
0000
1000
0001
,  // measure 17
1000
0000
0000
1000
0000
0000
0100
1000
,  // measure 18
0001
0000
0000
0001
0000
0000
0001
1000
,  // measure 19
0001
0000
0000
0001
0000
0000
0100
0001
,  // measure 20
1001
1000
0100
0100
,  // measure 21
0010
0010
0001
0001
,  // measure 22
1000
0100
0010
0001
1000
0100
0010
0001
,  // measure 23
0200
0000
0301
0100
0010
1000
0100
0010
,  // measure 24
0011
0000
1000
0010
1010
0000
0001
0010
,  // measure 25
0002
0000
1000
0000
1003
0010
0010
0010
,  // measure 26
1001
0000
0001
0100
0101
0000
1000
0100
,  // measure 27
2000
0000
3001
0000
1001
1001
1001
0000
,  // measure 28
1000
0000
0010
1000
0100
0000
1000
0100
,  // measure 29
0010
0001
0100
0010
1000
0000
0010
1000
,  // measure 30
0001
0000
0010
0001
0100
0000
0001
0100
,  // measure 31
0010
1000
0100
0010
0001
0001
0100
0010
,  // measure 32
1000
1000
0100
0100
,  // measure 33
0001
0001
0010
0010
,  // measure 34
1000
1000
0100
0100
,  // measure 35
0001
0001
0010
0010
,  // measure 36
1000
0100
1000
0100
0001
0100
0001
0100
,  // measure 37
1000
0010
1000
0010
0001
0010
0001
0010
,  // measure 38
1000
0010
0001
0010
1000
0001
0100
0010
,  // measure 39
2000
0000
0000
0000
3000
0110
0110
0000
,  // measure 40
1001
0000
1000
0100
0001
0000
0001
0100
,  // measure 41
0010
0100
0010
0100
1000
0000
0100
1000
,  // measure 42
0010
0000
0100
0001
0010
0000
0100
1000
,  // measure 43
0010
1000
0100
0010
0001
0001
0100
0010
,  // measure 44
1010
0000
0001
0100
1000
0000
1000
0100
,  // measure 45
0010
0100
0010
0100
0001
0000
0100
0001
,  // measure 46
0010
0000
0100
1000
0010
0000
1000
0010
,  // measure 47
0001
0010
1000
0100
0010
0010
0001
0100
,  // measure 48
1001
0000
1000
0100
0001
0000
0001
0100
,  // measure 49
1000
0010
0001
0010
1000
0000
0001
0100
,  // measure 50
0001
0100
1000
0100
1000
0100
0001
0010
,  // measure 51
0100
0100
0010
0001
0100
0100
0010
1000
,  // measure 52
1010
0000
0001
0100
1000
0000
1000
0100
,  // measure 53
0010
0100
0010
0100
0001
0000
0001
0010
,  // measure 54
1000
0000
1000
0010
0001
0000
0100
0010
,  // measure 55
2000
0000
0000
0000
3000
0001
0001
0001
,  // measure 56
1000
0100
0010
0001
0100
0010
1000
0001
,  // measure 57
0010
0100
1000
0001
0100
0010
1000
0100
,  // measure 58
0010
0001
1000
0010
0100
0001
0010
0100
,  // measure 59
1000
0001
0100
0010
1000
1000
0100
0010
,  // measure 60
0001
0100
0010
1000
0001
0100
1000
0100
,  // measure 61
0001
0010
0100
1000
0100
0001
0100
1000
,  // measure 62
0001
0100
0010
1000
0010
0001
0010
1000
,  // measure 63
0001
0010
0100
1000
0001
0001
0100
0010
,  // measure 64
2000
0000
0000
0000
,  // measure 65
0000
0000
3000
0110
;

//---------------dance-single - ----------------
#NOTEDATA:;
#CHARTNAME:;
#STEPSTYPE:dance-single;
#DESCRIPTION:;
#CHARTSTYLE:;
#DIFFICULTY:Medium;
#METER:8;
#RADARVALUES:0.360146,0.393322,0.179463,0.222192,0.000000,295.000000,274.000000,21.000000,26.000000,0.000000,0.000000,0.000000,0.000000,0.000000,0.360146,0.393322,0.179463,0.222192,0.000000,295.000000,274.000000,21.000000,26.000000,0.000000,0.000000,0.000000,0.000000,0.000000;
#CREDIT:;
#NOTES:
// measure 0
0000
0000
0000
0000
,  // measure 1
0000
0000
0000
0000
,  // measure 2
0000
0000
0000
0000
,  // measure 3
0000
0000
0000
0000
,  // measure 4
1000
0000
0001
1000
0001
0000
0100
0000
,  // measure 5
0010
1000
0001
0000
1000
0000
0001
0000
,  // measure 6
0010
1000
0010
0001
,  // measure 7
0100
0010
1000
0000
0100
0010
0001
0000
,  // measure 8
2000
0100
3001
0010
,  // measure 9
0002
0100
1003
0010
,  // measure 10
2000
0100
3001
0010
,  // measure 11
0002
0000
0100
0000
1003
0001
1000
0000
,  // measure 12
0002
0010
1003
0100
,  // measure 13
2000
0010
3001
0100
,  // measure 14
0002
0010
1003
0100
,  // measure 15
2000
0000
0010
0000
3001
0001
0001
0000
,  // measure 16
2001
0000
0000
0000
,  // measure 17
3200
0000
0000
0000
,  // measure 18
0320
0000
0000
0000
,  // measure 19
0032
0000
0000
0000
,  // measure 20
1003
1000
0100
0100
,  // measure 21
0010
0010
0001
0001
,  // measure 22
1000
0100
0010
0001
,  // measure 23
0200
0000
0000
0300
,  // measure 24
1001
0000
1000
0010
0100
0000
0001
0010
,  // measure 25
0200
0000
0000
0000
0300
0010
0010
0000
,  // measure 26
1001
0000
1000
0100
0010
0000
0001
0100
,  // measure 27
0020
0000
0000
0000
0130
0010
0100
0000
,  // measure 28
1001
0000
0001
1000
0100
0000
0010
0000
,  // measure 29
0100
1000
0001
0000
0100
0000
0001
1000
,  // measure 30
0001
0000
0010
0001
1000
0000
0010
0000
,  // measure 31
1000
0001
0010
0000
0100
0100
0100
0000
,  // measure 32
1000
1000
0010
0010
,  // measure 33
0100
0100
0001
0001
,  // measure 34
1000
1000
0100
0100
,  // measure 35
0010
0010
0001
0001
,  // measure 36
1000
0100
0010
0001
,  // measure 37
1000
0100
0010
0001
,  // measure 38
1100
0110
0011
1001
,  // measure 39
0200
0000
0000
0000
0300
0010
0010
0000
,  // measure 40
1001
0000
0001
0100
0001
0000
1000
0000
,  // measure 41
0001
0010
0001
0010
0001
0000
1000
0000
,  // measure 42
1010
0001
0011
0001
,  // measure 43
1000
0010
1000
0000
0001
0100
0001
0000
,  // measure 44
1001
0000
1000
0100
1000
0000
0001
0000
,  // measure 45
1000
0010
1000
0010
1000
0000
0001
0000
,  // measure 46
0011
1000
1010
1000
,  // measure 47
0100
0010
0001
0000
1000
1000
1000
0000
,  // measure 48
1001
0000
0001
0010
0100
0000
1000
0010
,  // measure 49
1000
0010
0100
0000
0001
0000
1000
0000
,  // measure 50
0110
0001
0110
1000
,  // measure 51
0100
0010
0001
0000
0100
0010
1000
0000
,  // measure 52
1001
0000
1000
0010
0100
0000
0001
0010
,  // measure 53
0001
0010
0100
0000
1000
0000
0001
0000
,  // measure 54
1001
0000
1000
0000
1001
0000
0001
0100
,  // measure 55
0020
0000
0000
0000
0030
1000
1000
1000
,  // measure 56
0002
0000
0013
0000
0001
1000
0001
1000
,  // measure 57
0002
0000
0103
0000
0001
1000
0001
1000
,  // measure 58
0002
0000
0013
0000
0001
1000
0001
1000
,  // measure 59
0002
0000
0103
0000
0010
1000
0001
0000
,  // measure 60
2000
0000
3010
0000
1000
0001
1000
0001
,  // measure 61
2000
0000
3100
0000
1000
0001
1000
0001
,  // measure 62
2000
0000
3010
0000
1000
0001
1000
0001
,  // measure 63
2000
0000
3100
0000
0010
0001
0100
0000
,  // measure 64
0020
0000
0000
0000
,  // measure 65
0000
0000
0030
1001
;

//---------------dance-single - ----------------
#NOTEDATA:;
#CHARTNAME:;
#STEPSTYPE:dance-single;
#DESCRIPTION:;
#CHARTSTYLE:;
#DIFFICULTY:Easy;
#METER:4;
#RADARVALUES:0.208763,0.309039,0.153825,0.205100,0.000000,171.000000,153.000000,18.000000,24.000000,0.000000,0.000000,0.000000,0.000000,0.000000,0.208763,0.309039,0.153825,0.205100,0.000000,171.000000,153.000000,18.000000,24.000000,0.000000,0.000000,0.000000,0.000000,0.000000;
#CREDIT:;
#NOTES:
// measure 0
0000
0000
0000
0000
,  // measure 1
0000
0000
0000
0000
,  // measure 2
0000
0000
0000
0000
,  // measure 3
0000
0000
0000
0000
,  // measure 4
1000
0000
0001
0000
,  // measure 5
0010
0001
1000
0000
,  // measure 6
0010
0000
0100
0000
,  // measure 7
0010
1000
0001
0000
,  // measure 8
2000
0000
3100
0010
,  // measure 9
0002
0000
0103
0010
,  // measure 10
2000
0000
3100
0010
,  // measure 11
0002
0000
1003
1000
,  // measure 12
0002
0000
0013
0001
,  // measure 13
0200
0000
0310
1000
,  // measure 14
0200
0000
0310
0001
,  // measure 15
0200
0000
0310
0010
,  // measure 16
2001
0000
0000
0000
,  // measure 17
3200
0000
0000
0000
,  // measure 18
0320
0000
0000
0000
,  // measure 19
0032
0000
0000
0000
,  // measure 20
1003
0000
0001
0000
,  // measure 21
1000
0000
0001
0000
,  // measure 22
1000
0001
1000
0001
,  // measure 23
2000
0000
0000
3000
,  // measure 24
1010
0000
0011
0000
,  // measure 25
0001
0001
0001
0000
,  // measure 26
0101
0000
1100
0000
,  // measure 27
1000
0000
1001
0110
,  // measure 28
1001
0000
0001
0000
,  // measure 29
0010
0100
0010
0000
,  // measure 30
0001
0000
1000
0000
,  // measure 31
0010
0100
0010
0000
,  // measure 32
1000
0000
1000
0000
,  // measure 33
1000
0000
1000
0000
,  // measure 34
0001
0000
0001
0000
,  // measure 35
0001
0000
0001
0000
,  // measure 36
1000
0000
0001
0000
,  // measure 37
1000
0000
0001
0000
,  // measure 38
1000
0100
0010
0001
,  // measure 39
0200
0000
0300
1001
,  // measure 40
0001
0000
0010
0000
,  // measure 41
0001
0010
0100
0000
,  // measure 42
0011
0000
1010
0000
,  // measure 43
0100
0001
0100
0010
,  // measure 44
1000
0000
0010
0000
,  // measure 45
1000
0010
0100
0000
,  // measure 46
1010
0000
0011
0000
,  // measure 47
1000
0100
0010
0001
,  // measure 48
1000
0000
0100
0000
,  // measure 49
0010
0001
0100
0000
,  // measure 50
1010
0000
0101
0000
,  // measure 51
0001
0100
0010
1000
,  // measure 52
0001
0000
1000
0000
,  // measure 53
0010
1000
0100
0000
,  // measure 54
0011
0000
1010
0000
,  // measure 55
0002
0000
0003
1001
,  // measure 56
2000
0000
3010
1000
,  // measure 57
0200
0000
1300
0100
,  // measure 58
0020
0000
0130
0010
,  // measure 59
0002
0000
1003
1000
,  // measure 60
0002
0000
0103
0001
,  // measure 61
0020
0000
0031
0010
,  // measure 62
0200
0000
0310
0100
,  // measure 63
2000
0000
3001
0001
,  // measure 64
0200
0000
0000
0000
,  // measure 65
0000
0000
0300
0100
;

//---------------dance-single - ----------------
#NOTEDATA:;
#CHARTNAME:;
#STEPSTYPE:dance-single;
#DESCRIPTION:;
#CHARTSTYLE:;
#DIFFICULTY:Beginner;
#METER:3;
#RADARVALUES:0.178242,0.252850,0.111096,0.068367,0.000000,146.000000,133.000000,13.000000,8.000000,0.000000,0.000000,0.000000,0.000000,0.000000,0.178242,0.252850,0.111096,0.068367,0.000000,146.000000,133.000000,13.000000,8.000000,0.000000,0.000000,0.000000,0.000000,0.000000;
#CREDIT:;
#NOTES:
// measure 0
0000
0000
0000
0000
,  // measure 1
0000
0000
0000
0000
,  // measure 2
0000
0000
0000
0000
,  // measure 3
0000
0000
0000
0000
,  // measure 4
1000
0000
0010
0000
,  // measure 5
1000
1000
1000
0000
,  // measure 6
0001
0000
0010
0000
,  // measure 7
0001
0001
0001
0000
,  // measure 8
1000
0000
1000
0000
,  // measure 9
0010
0000
0010
0000
,  // measure 10
0100
0000
0100
0000
,  // measure 11
0001
0000
0001
0000
,  // measure 12
1000
0000
1000
0000
,  // measure 13
0100
0000
0100
0000
,  // measure 14
0010
0000
0010
0000
,  // measure 15
0001
0000
0001
0000
,  // measure 16
2000
0000
3000
0000
,  // measure 17
0002
0000
0003
0000
,  // measure 18
2000
0000
3000
0000
,  // measure 19
0002
0000
0003
0000
,  // measure 20
1000
0000
1000
0000
,  // measure 21
0001
0000
0001
0000
,  // measure 22
1000
0000
0001
0000
,  // measure 23
2000
0000
3000
0000
,  // measure 24
1001
0000
1001
0000
,  // measure 25
0010
0010
0010
0000
,  // measure 26
1001
0000
1001
0000
,  // measure 27
0100
0000
1001
0000
,  // measure 28
0001
0000
0010
0000
,  // measure 29
0001
0001
0001
0000
,  // measure 30
1000
0000
0010
0000
,  // measure 31
1000
1000
1000
0000
,  // measure 32
0001
0000
0001
0000
,  // measure 33
0001
0000
0001
0000
,  // measure 34
1000
0000
1000
0000
,  // measure 35
1000
0000
1000
0000
,  // measure 36
0001
0000
1000
0000
,  // measure 37
0001
0000
1000
0000
,  // measure 38
0001
0001
0001
0000
,  // measure 39
0002
0000
0003
0000
,  // measure 40
1000
0000
0100
0000
,  // measure 41
1000
0001
1000
0000
,  // measure 42
1001
0000
0110
0000
,  // measure 43
1000
0001
1000
0000
,  // measure 44
0001
0000
0100
0000
,  // measure 45
0001
1000
0001
0000
,  // measure 46
1001
0000
0110
0000
,  // measure 47
0001
1000
0001
0000
,  // measure 48
1000
0000
0010
0000
,  // measure 49
0100
0001
0100
0000
,  // measure 50
0110
0000
1001
0000
,  // measure 51
0001
1000
0001
0000
,  // measure 52
1000
0000
0010
0000
,  // measure 53
1000
0001
1000
0000
,  // measure 54
1001
0000
0110
0000
,  // measure 55
0002
0000
0003
0000
,  // measure 56
0100
0000
0100
0100
,  // measure 57
0100
0000
0100
0100
,  // measure 58
0100
0000
0100
0100
,  // measure 59
0100
0000
0010
0000
,  // measure 60
1000
0000
0001
0001
,  // measure 61
0001
0000
1000
1000
,  // measure 62
1000
0000
0001
0001
,  // measure 63
0001
0000
1000
0000
,  // measure 64
0200
0000
0000
0000
,  // measure 65
0000
0000
0000
0300
;
