#VERSION:0.83;
#TITLE:HER;
#SUBTITLE:;
#ARTIST:Block B;
#TITLETRANSLIT:;
#SUBTITLETRANSLIT:;
#ARTISTTRANSLIT:;
#GENRE:K-Pop;
#ORIGIN:;
#CREDIT:;
#BANNER:HER.png;
#BACKGROUND:HER-bg.png;
#PREVIEWVID:;
#JACKET:HER-jacket.png;
#CDIMAGE:;
#DISCIMAGE:;
#LYRICSPATH:;
#CDTITLE:cdtitle.png;
#MUSIC:HER.ogg;
#OFFSET:1.437403;
#SAMPLESTART:37.076115;
#SAMPLELENGTH:11.851852;
#SELECTABLE:YES;
#BPMS:0.000=162.000,
202.000=81.000,
218.000=162.000;
#STOPS:167.500=0.741,
247.500=0.741;
#DELAYS:;
#WARPS:;
#TIMESIGNATURES:0.000=4=4;
#TICKCOUNTS:0.000=4;
#COMBOS:0.000=1;
#SPEEDS:0.000=1.000=0.000=0;
#SCROLLS:0.000=1.000;
#FAKES:;
#LABELS:0.000=Song Start;
#BGCHANGES:4.000=HER.avi=1.000=1=0=0=StretchNoLoop==CrossFade==,
99999=-nosongbg-=1.000=0=0=0 // don't automatically add -songbackground-
;
#KEYSOUNDS:;
#ATTACKS:
;

//---------------dance-single - ----------------
#NOTEDATA:;
#CHARTNAME:;
#STEPSTYPE:dance-single;
#DESCRIPTION:;
#CHARTSTYLE:;
#DIFFICULTY:Challenge;
#METER:13;
#RADARVALUES:0.621908,0.920553,0.529903,0.358703,0.211961,534.000000,469.000000,65.000000,44.000000,36.000000,0.000000,0.000000,0.000000,0.000000,0.621908,0.920553,0.529903,0.358703,0.211961,534.000000,469.000000,65.000000,44.000000,36.000000,0.000000,0.000000,0.000000,0.000000;
#CREDIT:;
#OFFSET:1.437403;
#BPMS:0.000000=162.000000
,202.000000=81.000000
,218.000000=162.000000
;
#STOPS:167.500000=0.740737
,247.500000=0.740737
;
#DELAYS:;
#WARPS:;
#TIMESIGNATURES:0.000000=4=4
;
#TICKCOUNTS:0.000000=4
;
#COMBOS:0.000000=1
;
#SPEEDS:0.000000=1.000000=0.000000=0
;
#SCROLLS:0.000000=1.000000
;
#FAKES:;
#LABELS:0.000000=Song Start
;
#NOTES:
0000
0000
0000
0000
,
0000
0000
0000
0000
,
0000
0000
0000
0000
,
0000
0000
0000
0000
,
0000
0000
0000
0000
,
1001
0110
1001
0110
,
1000
0100
0010
0001
0000
1000
0000
0001
,
0100
0010
1000
0100
0000
0010
0010
0000
,
0001
0100
0010
1000
0000
0001
0000
1000
,
0100
0010
0001
0100
0000
0010
1000
0001
,
0011
0000
0001
1000
1010
0000
1000
0001
,
0011
0000
0100
1000
0001
0100
0001
1000
,
1100
0000
0010
0001
0100
0001
0100
2000
,
0000
3100
0010
0100
0000
0100
0001
1000
,
1100
0000
1000
0001
0101
0000
0001
1000
,
0100
0000
0010
0000
0001
0000
0100
0000
0010
0000
1000
0001
0000
0001
1000
0000
,
0100
0010
0100
0001
0100
0010
0100
1000
,
0020
0000
0000
0030
0000
0010
0010
0000
,
1000
0010
1000
0010
0100
0001
0010
0200
,
0000
1300
0100
0002
0000
0103
1000
0001
,
1000
0010
1000
0010
0100
1000
0100
0002
,
0000
0013
0100
0010
0100
1000
0010
0100
,
0001
0010
0001
0010
0100
1000
0010
0200
,
0000
0301
0100
2000
0000
3100
0010
0100
,
0102
0000
0000
1000
0000
0000
1003
0000
2000
0000
0000
0001
0000
0000
3001
0000
,
2002
0000
0000
3003
,
0001
0010
0000
0110
0000
0010
0100
0010
,
1000
0010
0000
0110
0000
0010
0100
0010
,
0001
0000
0001
0010
1000
0001
0100
2000
,
0000
3100
0010
0011
0000
0001
0010
0001
,
1000
0010
0000
0110
0000
0010
0100
0010
,
0001
0000
0001
0010
0000
0120
0000
1000
,
1030
0000
1010
0001
0010
0000
0011
1000
,
0010
0000
0100
0001
0000
0010
0001
1000
,
1002
0000
0000
0000
0000
0000
0000
0000
1003
0000
0000
0000
0000
0000
0000
0000
0010
0000
0000
MM0M
0000
0000
0010
0000
0000
0000
0000
0000
0001
0000
0000
0000
,
2001
0000
0000
0000
0000
0000
0000
0000
3001
0000
0000
0000
0000
0000
0000
0000
0010
0000
0000
MM0M
0000
0000
0010
0000
0000
0000
0000
0000
1000
0000
0000
0000
,
1002
0000
0000
0000
0000
0000
0000
0000
1003
0000
0000
0000
0000
0000
0000
0000
0010
0000
0000
MM0M
0000
0000
0010
0000
0000
0000
0000
0000
0002
0000
0003
0000
,
0000
0000
0001
0000
0100
0000
0001
0000
0011
0000
0000
1010
0000
0000
1000
0000
,
2001
0000
0000
0000
0000
0000
0000
0000
3001
0000
0000
0000
0000
0000
0000
0000
0100
0000
0000
M0MM
0000
0000
0100
0000
0000
0000
0000
0000
1000
0000
0000
0000
,
1002
0000
0000
0000
0000
0000
0000
0000
1003
0000
0000
0000
0000
0000
0000
0000
0100
0000
0000
M0MM
0000
0000
0100
0000
0000
0000
0000
0000
0001
0000
0000
0000
,
2001
0000
0000
0000
0000
0000
0000
0000
3001
0000
0000
0000
0000
0000
0000
0000
0100
0000
0000
M0MM
0000
0000
0100
0000
0000
0000
0000
0000
1000
0000
0000
0000
,
0010
0000
0100
0000
0001
0000
0010
0000
1100
0000
0000
0011
0000
0000
2200
0000
,
3300
0000
0000
0000
1000
0010
0100
0010
,
1000
0001
0011
0000
0001
0010
0100
0010
,
0001
1000
1010
0000
0001
0100
0001
1000
,
0100
0010
0001
0100
1000
0100
0001
0010
,
0100
1000
1001
0000
0001
0100
0101
0000
,
0010
1000
1010
0000
1000
0100
1100
0000
,
0100
0010
0001
1000
0010
0001
0010
1000
,
0100
0001
0100
1000
0010
0001
1000
0100
,
0001
0000
0000
0000
0010
0000
0000
0000
0100
0000
0000
0000
1000
0000
0000
0000
1002
0000
0000
0000
0013
0000
0001
0000
0100
0000
0000
0100
0000
0000
0010
0000
,
2001
0000
0000
0000
3010
0000
1000
0000
0100
0000
0000
0100
0000
0000
0010
0000
0001
0000
0000
0000
0001
0000
0100
0000
0010
0000
0000
0100
0000
0000
0010
0000
,
2000
0000
0000
0000
3200
0000
0000
0000
0302
0000
0023
0000
0230
0000
0320
0000
2030
0000
0000
0000
3100
0000
0010
0000
0001
0000
0000
0001
0000
0000
0100
0000
,
0102
0000
0000
0000
0103
0000
0010
0000
1000
0000
0000
1000
0000
0000
0100
0000
1100
0000
0000
0000
0011
0000
0000
0000
1100
0000
0000
0000
0011
0000
0000
0000
,
1000
0100
0010
0002
0000
2000
0000
3003
1000
0000
0010
0000
0000
0000
0110
0000
,
0000
0010
0100
0010
0001
0010
0000
0110
,
0000
0010
0100
0010
1000
0000
1000
0010
,
0001
1000
0100
0002
0000
0103
0010
1010
,
0000
1000
0010
1000
0001
0010
0000
0110
,
0000
0010
0100
0010
1000
0000
1000
0010
,
0000
0120
0000
0001
0031
0000
0011
1000
,
0010
0000
1010
0001
0010
0000
0100
1000
,
0012
0000
0000
0000
0000
0000
0000
0000
1003
0000
0000
0000
0001
0000
0000
0000
0100
0000
0000
M0MM
0000
0000
0100
0000
0000
0000
0000
0000
1000
0000
0000
0000
,
2010
0000
0000
0000
0000
0000
0000
0000
3001
0000
0000
0000
1000
0000
0000
0000
0100
0000
0000
M0MM
0000
0000
0100
0000
0000
0000
0000
0000
0001
0000
0000
0000
,
0012
0000
0000
0000
0000
0000
0000
0000
1003
0000
0000
0000
0001
0000
0000
0000
0100
0000
0000
M0MM
0000
0000
0100
0000
0000
0000
0000
0000
2000
0000
3000
0000
,
0000
0000
1000
0000
0010
0000
1000
0000
1100
0000
0000
0101
0000
0000
0001
0000
,
2001
0000
0000
0000
0000
0000
0000
0000
3001
0000
0000
0000
1000
0000
0000
0000
0010
0000
0000
MM0M
0000
0000
0010
0000
0000
0000
0000
0000
0001
0000
0000
0000
,
0102
0000
0000
0000
0000
0000
0000
0000
1003
0000
0000
0000
0001
0000
0000
0000
0010
0000
0000
MM0M
0000
0000
0010
0000
0000
0000
0000
0000
1000
0000
0000
0000
,
2100
0000
0000
0000
0000
0000
0000
0000
3001
0000
0000
0000
1000
0000
0000
0000
0010
0000
0000
MM0M
0000
0000
0010
0000
0000
0000
0000
0000
0001
0000
0000
0000
,
0100
0000
0010
0000
1000
0000
0100
0000
0011
0000
0000
1100
0000
0000
0011
0000
,
0001
0100
0010
1000
0000
0110
0000
1000
,
0010
0100
0001
1000
0000
0100
0100
0000
,
1000
0100
0010
0001
0000
0110
0000
0001
,
0010
0100
1000
0001
0000
0100
0020
0000
,
1030
0100
0010
0001
0000
0110
0000
0001
,
0100
1000
0100
0001
0000
0010
0010
0000
,
0001
0100
0010
1000
0000
0110
0000
1000
,
0100
0001
0100
1000
0010
0010
0010
0010
;

//---------------dance-single - ----------------
#NOTEDATA:;
#CHARTNAME:;
#STEPSTYPE:dance-single;
#DESCRIPTION:;
#CHARTSTYLE:;
#DIFFICULTY:Hard;
#METER:11;
#RADARVALUES:0.520586,0.730094,0.383161,0.383161,0.126361,447.000000,400.000000,47.000000,47.000000,0.000000,0.000000,0.000000,0.000000,0.000000,0.520586,0.730094,0.383161,0.383161,0.126361,447.000000,400.000000,47.000000,47.000000,0.000000,0.000000,0.000000,0.000000,0.000000;
#CREDIT:;
#OFFSET:1.437403;
#BPMS:0.000000=162.000000
,202.000000=81.000000
,218.000000=162.000000
;
#STOPS:167.500000=0.740737
,247.500000=0.740737
;
#DELAYS:;
#WARPS:;
#TIMESIGNATURES:0.000000=4=4
;
#TICKCOUNTS:0.000000=4
;
#COMBOS:0.000000=1
;
#SPEEDS:0.000000=1.000000=0.000000=0
;
#SCROLLS:0.000000=1.000000
;
#FAKES:;
#LABELS:0.000000=Song Start
;
#NOTES:
0000
0000
0000
0000
,
0000
0000
0000
0000
,
0000
0000
0000
0000
,
0000
0000
0000
0000
,
0000
0000
0000
0000
,
1001
0110
1001
0110
,
2002
0000
0000
0000
,
0000
0000
0000
0000
,
0000
0000
0000
0000
,
3003
0000
0000
0000
0000
0001
0100
0000
,
2010
3100
0012
0103
,
2010
0000
3100
0010
0100
0010
0001
1000
,
0010
0000
0100
0010
0100
0010
1000
0002
,
0000
0023
0000
0130
0000
0010
0001
0000
,
0012
0103
2010
3100
,
0011
0000
1000
0010
0100
0001
1000
0000
,
0001
0010
0100
1000
0010
0100
0001
1000
,
0200
0000
0000
0300
0000
0010
0010
0000
,
0001
0100
0001
0100
0001
0000
0010
0002
,
0000
0103
0000
1001
0000
0100
1000
0000
,
1000
0010
1000
0010
1000
0000
0100
2000
,
0000
3001
0100
0000
0010
1000
0001
0000
,
1000
0100
1000
0100
1000
0000
0010
2000
,
0000
3100
0000
1001
0000
0100
0001
0100
,
0002
0000
0000
0013
0000
0000
0100
0000
2000
0000
0000
3010
0000
0000
0100
0000
,
0002
0003
0000
0000
,
0001
0010
0000
1100
0000
1000
0010
1000
,
0010
1000
0000
0101
0000
0001
0010
0001
,
0010
0000
0100
0010
0100
0010
0001
2000
,
0000
3010
0000
1001
0000
0010
0001
1000
,
0001
0100
0000
0110
0000
0010
1000
0001
,
1000
0000
1000
0100
0000
0120
0000
0000
,
0031
0000
1000
0010
1000
0000
0001
0010
,
0001
0000
1000
0010
0000
0100
0001
0000
,
1002
0000
0000
0000
0013
0000
0000
0000
0001
0000
0000
0001
0000
0000
0000
0000
,
2001
0000
0000
0000
3010
0000
0000
0000
1000
0000
0000
1000
0000
0000
0000
0000
,
1002
0000
0000
0000
0013
0000
0000
0000
0001
0000
0000
0001
0000
0000
0001
0000
,
0000
0000
1000
0000
0010
0000
1000
0000
0010
0000
0000
1000
0000
0000
0001
0000
,
2001
0000
0000
0000
3100
0000
0000
0000
1000
0000
0000
1000
0000
0000
0000
0000
,
1002
0000
0000
0000
0103
0000
0000
0000
0001
0000
0000
0001
0000
0000
0000
0000
,
2001
0000
0000
0000
3100
0000
0000
0000
1000
0000
0000
1000
0000
0000
0001
0000
,
0100
0000
0001
0000
0100
0000
0010
0000
1000
0000
0000
0001
0000
0000
2002
0000
,
3003
0000
0000
0000
0001
0000
0100
0001
,
0100
0000
0101
0000
1000
0000
0100
1000
,
0100
0000
1100
0000
0001
0000
0100
0001
,
0100
0000
0101
0000
1000
0100
0010
0000
,
0001
0100
0010
0000
2002
0000
0000
0000
,
3003
1001
0100
1001
,
0010
0000
1001
0000
1000
0100
0010
0001
,
1000
0100
0010
0001
0100
0010
1000
0100
,
0010
0000
0001
0000
0100
0000
0010
0000
2000
0000
3010
1000
0100
0000
0100
0010
,
0002
0000
0013
0001
0100
0000
0100
0010
0100
0000
0010
1000
0100
0000
0100
1000
,
0020
0000
0230
0000
0302
0000
2003
0000
3200
0000
0310
0001
1000
0000
1000
0001
,
0200
0000
0310
1000
0001
0000
0001
1000
0100
0000
0100
0000
0100
0000
0100
0000
,
0010
0001
0100
0020
0000
2000
0000
3030
1000
0000
0010
0000
0000
0000
0101
0000
,
0000
0001
0010
0001
0010
0001
0000
1100
,
0000
1000
0010
1000
0010
0000
0100
0010
,
0100
0010
1000
0002
0000
0013
0000
1001
,
0000
0010
1000
0001
1000
0100
0000
0110
,
0000
0010
0001
1000
0001
0000
0001
0100
,
0000
0120
0000
0000
1030
0000
0001
0010
,
0001
0000
1000
0010
1000
0000
0001
0010
,
1002
0000
0000
0000
0013
0000
0001
0000
1000
0000
0000
1000
0000
0000
0000
0000
,
2001
0000
0000
0000
3010
0000
1000
0000
0001
0000
0000
0001
0000
0000
0000
0000
,
1002
0000
0000
0000
0013
0000
0001
0000
1000
0000
0000
1000
0000
0000
1000
0000
,
0000
0000
0001
0000
0010
0000
0001
0000
0010
0000
0000
0001
0000
0000
1000
0000
,
2001
0000
0000
0000
3100
0000
1000
0000
0001
0000
0000
0001
0000
0000
0000
0000
,
1002
0000
0000
0000
0103
0000
0001
0000
1000
0000
0000
1000
0000
0000
0000
0000
,
2001
0000
0000
0000
3100
0000
1000
0000
0001
0000
0000
0001
0000
0000
1000
0000
,
0100
0000
1000
0000
0100
0000
0010
0000
0001
0000
0000
0001
0000
0000
0001
0000
,
1000
0010
1000
0010
0000
0110
0000
0010
,
1000
0001
1000
0100
0000
0100
0010
0000
,
0001
0010
0001
0010
0000
0110
0000
0010
,
0001
1000
0001
0100
0000
0010
2000
0000
,
3001
0100
0001
0010
0000
1001
0000
0010
,
1000
0001
1000
0100
0000
1000
0001
0000
,
1000
0100
1000
0010
0000
1001
0000
0010
,
0001
1000
0001
0100
0010
1000
0010
1000
;

//---------------dance-single - ----------------
#NOTEDATA:;
#CHARTNAME:;
#STEPSTYPE:dance-single;
#DESCRIPTION:;
#CHARTSTYLE:;
#DIFFICULTY:Medium;
#METER:8;
#RADARVALUES:0.418099,0.671958,0.415770,0.277180,0.004076,359.000000,308.000000,51.000000,34.000000,0.000000,0.000000,0.000000,0.000000,0.000000,0.418099,0.671958,0.415770,0.277180,0.004076,359.000000,308.000000,51.000000,34.000000,0.000000,0.000000,0.000000,0.000000,0.000000;
#CREDIT:;
#OFFSET:1.437403;
#BPMS:0.000000=162.000000
,202.000000=81.000000
,218.000000=162.000000
;
#STOPS:167.500000=0.740737
;
#DELAYS:;
#WARPS:;
#TIMESIGNATURES:0.000000=4=4
;
#TICKCOUNTS:0.000000=4
;
#COMBOS:0.000000=1
;
#SPEEDS:0.000000=1.000000=0.000000=0
;
#SCROLLS:0.000000=1.000000
,247.500000=0.000000
,249.000000=1.000000
;
#FAKES:;
#LABELS:0.000000=Song Start
;
#NOTES:
// measure 0
0000
0000
0000
0000
,  // measure 1
0000
0000
0000
0000
,  // measure 2
0000
0000
0000
0000
,  // measure 3
0000
0000
0000
0000
,  // measure 4
0000
0000
0000
0000
,  // measure 5
1001
1001
1001
1001
,  // measure 6
2002
0000
0000
0000
,  // measure 7
0000
0000
0000
0000
,  // measure 8
0000
0000
0000
0000
,  // measure 9
3003
0000
0000
0000
,  // measure 10
0002
0010
2003
0010
,  // measure 11
3001
0000
0010
0000
0010
0100
0010
0000
,  // measure 12
0001
0000
0100
0000
1000
0000
0100
0002
,  // measure 13
0000
0200
0000
0000
0303
0000
0001
0000
,  // measure 14
2000
0010
3002
0010
,  // measure 15
1003
0000
0100
0000
0010
0001
1000
0000
,  // measure 16
0001
0100
0010
1000
,  // measure 17
0200
0000
0000
0310
,  // measure 18
0001
0011
0001
1001
,  // measure 19
0001
0000
0100
0010
0000
0100
0010
0000
,  // measure 20
1000
1010
1000
1001
,  // measure 21
1000
0000
1100
0000
0010
0001
1000
0000
,  // measure 22
0010
1010
0010
0110
,  // measure 23
0001
0000
1000
0100
0000
0010
0001
0000
,  // measure 24
1000
0000
0001
0100
0001
0000
1000
0100
,  // measure 25
2000
3000
0000
0000
,  // measure 26
0001
0010
0000
0110
0000
0010
0001
0000
,  // measure 27
0001
0100
0000
0110
0000
0100
0001
0000
,  // measure 28
1001
0000
0001
0000
0010
0000
0001
2000
,  // measure 29
0000
3000
0000
1001
0000
1000
0010
0000
,  // measure 30
1000
0100
0000
0110
0000
0100
1000
0000
,  // measure 31
1001
0000
0001
0100
0000
0120
0000
0000
,  // measure 32
1030
0000
0001
0010
0001
0000
1000
0010
,  // measure 33
1000
0000
0001
0010
0000
0100
1000
0000
,  // measure 34
1002
0103
0010
1000
,  // measure 35
2001
3100
0010
0001
,  // measure 36
1002
0103
0010
1000
,  // measure 37
0001
0000
0010
0100
0010
0000
0010
0000
,  // measure 38
1002
0013
0001
0100
,  // measure 39
2001
3010
1000
0100
,  // measure 40
1002
0013
0001
0100
,  // measure 41
0010
0100
0010
0000
0110
0000
2002
0000
,  // measure 42
3003
0000
1000
0100
,  // measure 43
1000
0100
0001
0100
,  // measure 44
0001
0100
1000
0010
,  // measure 45
1000
0010
0001
0010
,  // measure 46
1000
0100
0020
0001
,  // measure 47
0001
0031
1000
1000
,  // measure 48
0010
0010
0001
0001
,  // measure 49
0100
0100
1000
0010
,  // measure 50
0001
0000
0100
0000
1100
0010
0001
0000
,  // measure 51
0101
0010
1000
0000
0001
0010
0001
0000
,  // measure 52
1000
0010
0100
0001
0011
0100
1000
0000
,  // measure 53
1010
0100
0001
0000
1001
1001
1001
1001
,  // measure 54
0100
0000
0000
2002
0000
0000
3003
0000
1000
0000
0010
0000
0000
0000
0110
0000
,  // measure 55
0000
0010
1000
0000
1000
0100
0000
0110
,  // measure 56
0000
0100
1000
0000
1001
0000
1000
0000
,  // measure 57
0010
0000
1000
0002
0000
0003
0000
1001
,  // measure 58
0000
0001
0010
0000
0001
0100
0000
0110
,  // measure 59
0000
0100
0001
0000
1001
0000
1000
0100
,  // measure 60
0000
0120
0000
0000
0031
0000
1000
0010
,  // measure 61
1000
0000
0001
0010
0001
0000
1000
0010
,  // measure 62
0000
0000
1020
0130
,  // measure 63
0001
0010
0021
0130
,  // measure 64
1000
0010
1020
0130
,  // measure 65
0001
0000
0010
0000
0001
0000
0001
1000
,  // measure 66
0001
0100
0201
0310
,  // measure 67
1000
0100
1200
0310
,  // measure 68
0001
0100
0201
0310
,  // measure 69
1000
0000
0100
0000
0010
0001
0100
0000
,  // measure 70
0110
0000
1001
0000
1000
0000
0010
0100
,  // measure 71
0000
0001
0000
0001
0100
0000
0010
1000
,  // measure 72
0000
1000
0001
0000
1000
0000
0100
0010
,  // measure 73
0000
0001
0000
0001
0010
0000
0100
1000
,  // measure 74
0000
0001
0100
0000
0010
0000
1000
0100
,  // measure 75
0000
0100
0000
1000
0010
0000
0100
0001
,  // measure 76
0000
0001
1000
0000
0100
0000
0010
0001
,  // measure 77
0000
0001
0000
0100
0010
0000
2000
0000
,  // measure 78
3002
2000
3003
0000
;

//---------------dance-single - ----------------
#NOTEDATA:;
#CHARTNAME:;
#STEPSTYPE:dance-single;
#DESCRIPTION:;
#CHARTSTYLE:;
#DIFFICULTY:Easy;
#METER:6;
#RADARVALUES:0.288826,0.478441,0.220113,0.415770,0.000000,248.000000,221.000000,27.000000,51.000000,0.000000,0.000000,0.000000,0.000000,0.000000,0.288826,0.478441,0.220113,0.415770,0.000000,248.000000,221.000000,27.000000,51.000000,0.000000,0.000000,0.000000,0.000000,0.000000;
#CREDIT:;
#OFFSET:1.437403;
#BPMS:0.000000=162.000000
,202.000000=81.000000
,218.000000=162.000000
;
#STOPS:167.500000=0.740737
;
#DELAYS:;
#WARPS:;
#TIMESIGNATURES:0.000000=4=4
;
#TICKCOUNTS:0.000000=4
;
#COMBOS:0.000000=1
;
#SPEEDS:0.000000=1.000000=0.000000=0
;
#SCROLLS:0.000000=1.000000
,247.500000=0.000000
,249.000000=1.000000
;
#FAKES:;
#LABELS:0.000000=Song Start
;
#NOTES:
// measure 0
0000
0000
0000
0000
,  // measure 1
0000
0000
0000
0000
,  // measure 2
0000
0000
0000
0000
,  // measure 3
0000
0000
0000
0000
,  // measure 4
0000
0000
0000
0000
,  // measure 5
0010
0010
0010
0010
,  // measure 6
2002
0000
0000
0000
,  // measure 7
0000
0000
0000
0000
,  // measure 8
0000
0000
0000
0000
,  // measure 9
3003
0000
0000
0000
,  // measure 10
2000
3000
2000
3000
,  // measure 11
1000
0010
0100
0010
,  // measure 12
1000
0100
0010
0100
,  // measure 13
2000
0000
3100
0010
,  // measure 14
0002
0003
0002
0003
,  // measure 15
0001
0100
0010
0010
,  // measure 16
0100
0001
0010
0010
,  // measure 17
0200
0000
0300
0000
,  // measure 18
1000
0010
1000
0010
,  // measure 19
0002
0003
0001
0010
,  // measure 20
1000
0010
1000
0100
,  // measure 21
0020
0030
0010
0010
,  // measure 22
0001
0010
0001
0010
,  // measure 23
2000
3000
1000
0010
,  // measure 24
0001
0001
1000
1000
,  // measure 25
0020
0030
0000
0000
,  // measure 26
1010
0000
0010
1000
,  // measure 27
0011
0000
0010
0001
,  // measure 28
1000
0001
0100
0010
,  // measure 29
2020
3030
0001
0010
,  // measure 30
1100
0000
1000
0010
,  // measure 31
0102
0000
2000
3003
,  // measure 32
0001
0010
1000
0010
,  // measure 33
0002
0003
0100
0010
,  // measure 34
2002
3003
0100
0010
,  // measure 35
2002
3003
0100
0010
,  // measure 36
2002
3003
0100
0010
,  // measure 37
1000
1000
0100
0100
,  // measure 38
2002
3003
0100
0010
,  // measure 39
2002
3003
0100
0010
,  // measure 40
2002
3003
0100
0010
,  // measure 41
0001
0100
0010
1000
,  // measure 42
0000
0000
1000
0000
,  // measure 43
1000
0000
0001
0000
,  // measure 44
0001
0000
1000
0000
,  // measure 45
0100
0000
0001
0000
,  // measure 46
0100
0000
2000
0000
,  // measure 47
3010
0000
0100
0000
,  // measure 48
0100
0000
0001
1000
,  // measure 49
0001
1000
0100
0010
,  // measure 50
0001
0100
0120
1030
,  // measure 51
0120
1030
0010
1000
,  // measure 52
0001
0010
0100
0010
0120
0000
0031
0000
,  // measure 53
0120
0000
0031
0000
1000
1000
0001
0001
,  // measure 54
1000
0001
1000
0000
0011
0000
0000
0000
,  // measure 55
0010
0001
1010
0000
,  // measure 56
0010
1000
0001
1000
,  // measure 57
0100
0010
0022
0033
,  // measure 58
1000
0010
0101
0000
,  // measure 59
0001
0010
2100
0000
,  // measure 60
0002
3003
1000
0010
,  // measure 61
0001
0000
0010
0000
2000
0000
0000
3000
,  // measure 62
0000
0000
2200
3300
,  // measure 63
0001
0010
2200
3300
,  // measure 64
0001
0010
2200
3300
,  // measure 65
0001
0010
0100
1000
,  // measure 66
0010
0100
0202
0303
,  // measure 67
1000
0010
0202
0303
,  // measure 68
1000
0010
0202
0303
,  // measure 69
1000
0010
0100
0001
,  // measure 70
0010
0100
1000
0010
,  // measure 71
1000
0000
1000
0100
,  // measure 72
1000
0000
0001
0010
,  // measure 73
0001
0000
0001
0100
,  // measure 74
0001
0000
1000
0100
,  // measure 75
0001
0000
0001
0010
,  // measure 76
1000
0000
1000
0100
,  // measure 77
0001
0000
0001
0010
,  // measure 78
1000
0100
0000
0000
;

//---------------dance-single - ----------------
#NOTEDATA:;
#CHARTNAME:;
#STEPSTYPE:dance-single;
#DESCRIPTION:;
#CHARTSTYLE:;
#DIFFICULTY:Beginner;
#METER:3;
#RADARVALUES:0.187504,0.269843,0.097828,0.081524,0.000000,161.000000,149.000000,12.000000,10.000000,0.000000,0.000000,0.000000,0.000000,0.000000,0.187504,0.269843,0.097828,0.081524,0.000000,161.000000,149.000000,12.000000,10.000000,0.000000,0.000000,0.000000,0.000000,0.000000;
#CREDIT:;
#OFFSET:1.437403;
#BPMS:0.000000=162.000000
;
#STOPS:;
#DELAYS:;
#WARPS:;
#TIMESIGNATURES:0.000000=4=4
;
#TICKCOUNTS:0.000000=4
;
#COMBOS:0.000000=1
;
#SPEEDS:0.000000=1.000000=0.000000=0
;
#SCROLLS:0.000000=1.000000
;
#FAKES:;
#LABELS:0.000000=Song Start
;
#NOTES:
// measure 0
0000
0000
0000
0000
,  // measure 1
0000
0000
0000
0000
,  // measure 2
0000
0000
0000
0000
,  // measure 3
0000
0000
0000
0000
,  // measure 4
0000
0000
0000
0000
,  // measure 5
0010
0010
0010
0010
,  // measure 6
0010
0000
0000
0000
,  // measure 7
0000
0000
0000
0000
,  // measure 8
0000
0000
0000
0000
,  // measure 9
0000
0000
0000
0000
,  // measure 10
1000
0000
1000
0000
,  // measure 11
1000
1000
1000
0000
,  // measure 12
1000
0000
0100
0000
,  // measure 13
0020
0000
0030
0000
,  // measure 14
0001
0000
0001
0000
,  // measure 15
0001
0001
0001
0000
,  // measure 16
0100
0000
0010
0000
,  // measure 17
2000
0000
3000
0000
,  // measure 18
0001
0000
0010
0000
,  // measure 19
0001
0000
0001
0000
,  // measure 20
1000
0000
0010
0000
,  // measure 21
1000
0000
0000
0000
,  // measure 22
1000
0000
0001
0000
,  // measure 23
1000
0000
1000
0000
,  // measure 24
0100
0000
0100
0000
,  // measure 25
0100
0000
0000
0000
,  // measure 26
1001
0000
0010
0000
,  // measure 27
1001
0000
0100
0000
,  // measure 28
1001
0000
0100
0000
,  // measure 29
2002
0000
3003
0000
,  // measure 30
1001
0000
1000
0000
,  // measure 31
1001
0000
0001
0000
,  // measure 32
1000
0000
0100
0000
,  // measure 33
0100
0000
1000
0000
,  // measure 34
0010
0000
0010
0010
,  // measure 35
0010
0000
0010
0010
,  // measure 36
0010
0000
0010
0010
,  // measure 37
0010
0000
1000
0000
,  // measure 38
0100
0000
0100
0100
,  // measure 39
0100
0000
0100
0100
,  // measure 40
0100
0000
0100
0100
,  // measure 41
0100
0000
0100
0000
,  // measure 42
0000
0000
0000
0000
,  // measure 43
1000
0000
0000
0000
,  // measure 44
0001
0000
0000
0000
,  // measure 45
1000
0000
0000
0000
,  // measure 46
0001
0000
0000
0000
,  // measure 47
0100
0000
0000
0000
,  // measure 48
0010
0000
1000
0000
,  // measure 49
0001
0000
0100
0000
,  // measure 50
0010
0000
1000
0000
,  // measure 51
0002
0000
0003
0000
,  // measure 52
0002
0000
0003
0000
,  // measure 53
0001
0000
0000
0000
,  // measure 54
0010
0000
0100
0000
,  // measure 55
2000
0000
3000
0000
,  // measure 56
2000
0000
3000
0000
,  // measure 57
0010
0000
0010
0000
,  // measure 58
0010
0010
0010
0000
,  // measure 59
1001
0000
0010
0000
,  // measure 60
1001
0000
0100
0000
,  // measure 61
1001
0000
0100
0000
,  // measure 62
2002
0000
3003
0000
,  // measure 63
1001
0000
0001
0000
,  // measure 64
1001
0000
1000
0000
,  // measure 65
0001
0000
0100
0000
,  // measure 66
0100
0000
0000
0000
,  // measure 67
0001
0000
0001
0001
,  // measure 68
0001
0000
0001
0001
,  // measure 69
0001
0000
0001
0001
,  // measure 70
0001
0000
0010
0000
,  // measure 71
1000
0000
1000
1000
,  // measure 72
1000
0000
1000
1000
,  // measure 73
1000
0000
1000
1000
,  // measure 74
1000
0000
0010
0000
,  // measure 75
0001
0000
0001
0000
,  // measure 76
0100
0000
0100
0000
,  // measure 77
0010
0000
0010
0000
,  // measure 78
1000
0000
1000
0000
,  // measure 79
0001
0000
0001
0000
,  // measure 80
0010
0000
0010
0000
,  // measure 81
0100
0000
0100
0000
,  // measure 82
1000
1000
1000
1000
;
