#VERSION:0.83;
#TITLE:Guerrilla Laments;
#SUBTITLE:;
#ARTIST:Diablo Swing Orchestra;
#TITLETRANSLIT:;
#SUBTITLETRANSLIT:;
#ARTISTTRANSLIT:;
#GENRE:Avant-Garde Metal;
#ORIGIN:;
#CREDIT:;
#BANNER:Guerrilla Laments.png;
#BACKGROUND:Guerrilla Laments-bg.png;
#PREVIEWVID:;
#JACKET:Guerrilla Laments-jacket.png;
#CDIMAGE:;
#DISCIMAGE:;
#LYRICSPATH:;
#CDTITLE:cdtitle.png;
#MUSIC:Guerrilla Laments.ogg;
#OFFSET:-0.012347;
#SAMPLESTART:98.548935;
#SAMPLELENGTH:15.609756;
#SELECTABLE:YES;
#BPMS:0.000=123.000;
#STOPS:58.000=0.488,
161.000=0.488;
#DELAYS:;
#WARPS:;
#TIMESIGNATURES:0.000=4=4;
#TICKCOUNTS:0.000=4;
#COMBOS:0.000=1;
#SPEEDS:0.000=1.000=0.000=0;
#SCROLLS:0.000=1.000;
#FAKES:;
#LABELS:0.000=Song Start;
#BGCHANGES:;
#KEYSOUNDS:;
#ATTACKS:
;

//---------------dance-single - ----------------
#NOTEDATA:;
#CHARTNAME:;
#STEPSTYPE:dance-single;
#DESCRIPTION:;
#CHARTSTYLE:;
#DIFFICULTY:Challenge;
#METER:14;
#RADARVALUES:0.673973,0.694637,0.361615,0.176603,0.819941,561.000000,518.000000,43.000000,21.000000,0.000000,0.000000,0.000000,0.000000,0.000000,0.673973,0.694637,0.361615,0.176603,0.819941,561.000000,518.000000,43.000000,21.000000,0.000000,0.000000,0.000000,0.000000,0.000000;
#CREDIT:;
#NOTES:
0000
0000
0000
0000
,
0000
0000
0000
0000
,
0000
0000
0000
0000
,
0000
0000
0000
0000
0000
0000
0000
0000
0000
0000
0010
0000
0000
0010
0000
0000
,
1002
0000
0000
0013
0100
0000
0010
0001
0100
0000
0000
0100
0010
0000
1000
0000
,
0001
0000
0000
0001
0010
0000
1000
0000
0010
0000
0000
0000
0110
0000
0010
0000
,
0002
0000
0000
0103
0010
0000
0100
0001
1000
0000
0000
1000
0100
0000
0010
0000
,
0001
0000
0000
0001
0100
0000
0010
0000
1000
0100
0000
0001
0100
0000
1000
0001
,
2000
0000
0000
3010
0100
0000
0010
1000
0100
0000
0000
0100
0010
0000
0001
0000
,
1000
0000
0000
1000
0010
0000
0001
0000
0010
0000
0000
0000
0110
0000
0010
0000
,
2000
0000
0000
3100
0010
0000
0001
1000
0001
0100
0000
0010
1000
0010
1000
0000
,
1010
0000
0000
0010
0100
0000
0001
0000
0011
0000
0000
0010
0100
0000
1000
0000
,
1010
0000
0000
0010
0100
0000
0001
0000
1000
0100
0000
0100
0010
0000
0001
0000
,
0101
0000
0000
0100
0001
0000
0010
0000
1100
0000
0000
0100
1000
0000
0010
0000
,
1001
0000
0100
0010
0100
0000
0110
0000
1001
0000
0000
0000
1000
0000
0000
1000
,
0100
0000
0010
0000
0200
0000
0000
0301
0100
0000
1000
0000
0010
0000
0000
1000
,
0010
0000
0100
0000
0020
0000
0000
0031
0010
0000
1000
0010
1000
0000
0000
0010
,
0100
0000
0101
0000
0001
0000
0000
0010
0100
0000
1100
0000
1000
0000
0000
0010
,
0100
0000
0101
0000
1000
0100
1000
0100
0010
0000
0001
1000
0001
0000
0000
0001
,
0100
0000
0010
0000
0200
0000
0000
1300
0100
0000
0001
0000
0010
0000
0000
0001
,
0010
0000
0100
0000
0020
0000
0000
1030
0010
0000
0001
0010
0001
0000
0000
1000
,
0010
0000
1010
0000
0100
0000
0000
0001
0010
0000
0011
0000
0100
0000
0000
1000
,
0010
0000
0110
0000
0100
0010
0100
0010
1000
0001
1000
0001
0010
0000
0000
0010
,
0100
0000
0000
0100
1000
0000
0000
1000
0010
0000
0000
0010
0001
0000
0000
0001
,
0010
0000
0000
0010
1000
0000
0000
1000
0100
0000
0000
0100
0001
0000
0000
0001
,
0100
0000
0000
0100
0010
0000
0001
0000
1000
0000
0010
0100
0010
0000
0100
0001
,
0100
0000
0001
1000
0001
0000
1000
0100
1000
0000
0100
0010
0001
0000
0000
0001
,
0100
0000
0000
0100
0010
0000
0000
0010
0100
0000
0000
0100
1000
0000
0000
1000
,
0100
0000
0000
0100
0001
0000
0000
0001
0010
0000
0000
0010
1000
0000
0000
1000
,
0010
0000
0000
0010
0100
0000
0010
0000
0001
0000
1000
0010
1000
0000
0010
0000
,
0100
0010
0000
0100
0001
1000
0000
1000
0001
0000
0010
0100
1000
0010
0000
1000
,
0010
0000
0100
0000
0001
1000
0000
1000
0100
0000
0001
0000
0100
0010
0000
0100
,
0010
0000
0001
0000
1000
0010
0000
0010
0100
0000
1000
0000
0100
0010
0000
0100
,
0001
0000
1000
0000
0001
0010
0000
0010
0100
0000
0010
0000
0100
1000
0000
0001
,
0100
0000
0001
0100
0010
1000
0000
1000
0100
0000
0010
0001
1000
0010
0000
0001
,
0010
0000
1000
0000
0001
1000
0000
1000
0100
0000
0010
0000
0001
0010
0000
1000
,
0010
0000
0001
0000
1000
0001
0000
0001
0100
0000
0010
0000
1000
0000
0001
0000
,
0011
0000
0000
0000
0001
0010
0000
0010
0001
0000
1000
0010
0100
0000
0010
0000
,
1010
0000
0000
0000
1000
0010
0000
0010
0100
0000
0001
0000
1000
0100
0000
1100
,
0000
1100
0000
0010
0001
0100
0000
0101
0000
0101
0000
0010
1000
0100
0000
0100
,
0000
0000
0010
0000
0100
0000
0110
0000
0000
0000
0000
0000
1002
0000
0000
0000
0000
0000
0000
0000
0000
0100
0000
0000
,
0103
0000
0010
0000
0100
0000
0001
0000
1000
0000
0000
0100
0000
0000
0010
0000
,
0020
0000
0030
0001
2001
0000
0000
0100
,
3100
0000
1000
0000
0001
0000
0100
0000
0110
0000
0000
1010
0000
0000
1100
0000
,
0110
0000
0000
0011
0000
0001
0100
0000
2001
0000
0000
3001
0010
0000
0100
1000
,
0001
0000
0100
0001
0100
0000
0010
1000
0001
0000
0010
0100
0010
0000
0100
0010
,
0001
1000
0000
1000
0001
0000
0100
0010
0200
0000
0000
0310
1000
0000
0001
0010
,
0100
0000
0010
0100
0010
0000
0100
1000
0001
0000
0100
0010
0000
0100
1000
0000
,
0100
0010
0000
0100
0001
1000
0100
0010
0000
0011
0000
0010
0001
0000
0101
0000
,
0000
1010
0000
0010
1000
0000
1100
0000
0000
1001
0000
1000
0010
0100
0001
1000
,
0100
0010
0100
0010
0100
0000
0010
0000
0120
0000
0000
0031
0010
0000
1000
0010
,
0001
0000
1000
0001
0100
0000
1000
0100
1000
0000
0100
0010
1000
0000
0001
1000
,
0200
0000
0000
0320
0000
0000
0031
1000
0002
0000
0000
0103
0010
0000
0100
0001
,
0100
0000
0001
1000
0001
0000
0010
0001
0010
0000
0100
1000
0010
0000
0100
0001
,
0010
0000
0011
0000
0000
1001
0000
0000
1020
0000
0000
1030
0010
0000
0001
0010
,
1000
0000
0001
1000
0100
0000
0001
0100
0001
0000
0100
0010
0001
0000
1000
0001
,
0200
0000
0000
0320
0000
0000
1030
0001
2000
0000
0000
3100
0010
0000
0001
0000
,
0100
0010
0100
0010
1000
0001
1000
0010
1000
0100
0000
1000
0100
0000
1001
0000
,
1000
0010
0000
1000
0010
0000
1001
0000
0001
0100
0000
0001
0100
0010
1000
0001
,
0010
0000
0000
0000
;

//---------------dance-single - ----------------
#NOTEDATA:;
#CHARTNAME:;
#STEPSTYPE:dance-single;
#DESCRIPTION:;
#CHARTSTYLE:;
#DIFFICULTY:Hard;
#METER:11;
#RADARVALUES:0.496169,0.570595,0.252290,0.395254,0.449916,413.000000,383.000000,30.000000,47.000000,0.000000,0.000000,0.000000,0.000000,0.000000,0.496169,0.570595,0.252290,0.395254,0.449916,413.000000,383.000000,30.000000,47.000000,0.000000,0.000000,0.000000,0.000000,0.000000;
#CREDIT:;
#NOTES:
// measure 0
0000
0000
0000
0000
,  // measure 1
0000
0000
0000
0000
,  // measure 2
0000
0000
0000
0000
,  // measure 3
0000
0000
0000
0000
0000
0000
0000
0000
0000
0000
0010
0000
0000
0010
0000
0000
,  // measure 4
1002
0000
0000
0000
0003
0000
0100
0001
0100
0000
0000
0100
0000
0000
0001
0000
,  // measure 5
0010
0000
0000
0010
0000
0000
0001
0000
2000
0000
0000
0000
3000
0000
0010
0000
,  // measure 6
0210
0000
0000
0000
0300
0000
0001
1000
0001
0000
0000
0001
0000
0000
1000
0000
,  // measure 7
0100
0000
0000
0100
0000
0000
0010
0000
0001
0000
0000
0100
0010
0000
1000
0000
,  // measure 8
2001
0000
0000
0000
3000
0000
0100
1000
0100
0000
0000
0100
0000
0000
1000
0000
,  // measure 9
0010
0000
0000
0010
0000
0000
1000
0000
0002
0000
0000
0000
0003
0000
0010
0000
,  // measure 10
0010
0000
0000
0100
0000
0000
1000
0000
0010
0000
0000
0100
0000
0000
0001
0000
,  // measure 11
1001
0000
0000
0001
0000
0000
0010
0000
0011
0000
0000
0001
0000
0000
0100
0000
,  // measure 12
0101
0000
0000
0001
0000
0000
1000
0000
0100
0010
0000
0010
0001
0000
1000
0000
,  // measure 13
1010
0000
0000
0001
0000
0000
0010
0000
0011
0000
0000
1000
0000
0000
0010
0000
,  // measure 14
0110
0000
0000
0010
0100
0000
0010
0000
1001
0000
0000
0000
1000
0000
0000
1000
,  // measure 15
0000
0000
1000
0000
0200
0000
0000
0000
1300
0000
0100
0000
0001
0000
0000
0001
,  // measure 16
0000
0000
0001
0000
0200
0000
0000
0000
0301
0000
0100
0000
1000
0000
0000
0010
,  // measure 17
0000
0000
0100
0000
0020
0000
0000
0000
0130
0000
0001
1000
0001
0000
0000
0001
,  // measure 18
0000
0000
0010
0000
0100
0000
1000
0000
0010
0000
0100
0000
0001
0000
0000
0001
,  // measure 19
0000
0000
0001
0000
0100
0000
0000
0100
0000
0000
0100
0000
1000
0000
0000
1000
,  // measure 20
0000
0000
1000
0000
0200
0000
0000
0000
1300
0000
0100
0000
0001
0000
0000
0010
,  // measure 21
0000
0000
0100
0000
0020
0000
0000
0000
0130
0000
1000
0000
0001
0000
0000
1000
,  // measure 22
0001
0100
1000
0100
0001
0010
2000
0000
,  // measure 23
0010
3020
0001
0032
,  // measure 24
0203
2300
0000
3200
0000
0302
2003
0000
,  // measure 25
3002
0023
0000
0130
0010
0100
1000
0001
,  // measure 26
0000
0001
0000
0001
1000
0010
0002
0000
,  // measure 27
0010
0000
0023
0000
2030
3020
2030
0000
,  // measure 28
3200
0302
0000
0203
0000
2300
3002
0000
,  // measure 29
2003
3020
0000
0130
0001
0010
0000
0100
,  // measure 30
1000
0000
0010
0000
0100
0001
0000
0001
1000
0000
0100
0000
0010
0000
0000
0010
,  // measure 31
0001
0000
0000
0001
0100
0000
0000
0100
0010
0000
0000
0010
1000
0000
0000
1000
,  // measure 32
0100
0000
0000
0100
0010
0000
0000
0010
0001
0000
0000
0001
1000
0000
0000
1000
,  // measure 33
0010
0000
0000
0010
0100
0000
0000
0100
0001
0000
1000
0000
1000
0000
0000
0100
,  // measure 34
1000
0000
0001
0000
0001
1000
0000
0001
1000
0000
0010
0000
0100
0000
0000
0100
,  // measure 35
0001
0000
0000
0001
0010
0000
0000
0010
1000
0000
0000
1000
0010
0000
0000
0010
,  // measure 36
0001
0000
0000
0001
0100
0000
0000
0100
1000
0000
0100
0000
0001
0000
0010
0000
,  // measure 37
0011
0000
0000
0000
0001
0010
0000
0001
0010
0000
0100
0000
1000
0000
0010
0000
,  // measure 38
1010
0000
0000
0000
1000
0010
0000
0100
0001
0000
1000
0000
0001
0010
0000
0010
,  // measure 39
0000
0010
0000
0001
1000
0010
0000
0010
0000
0010
0000
1000
0001
1000
0000
0100
,  // measure 40
0000
0000
0010
0000
0100
0000
0010
0000
0000
0000
0000
0000
1002
0000
0000
0000
0000
0000
0000
0000
0000
0100
0000
0000
,  // measure 41
0103
0000
0001
1000
0001
0000
0010
0001
,  // measure 42
0100
0000
0000
0010
2001
0000
0000
0100
,  // measure 43
3100
0000
0000
0000
0010
0000
0001
0000
1001
0000
0000
0101
0000
0000
1010
0000
,  // measure 44
1001
0000
0000
0011
0000
0000
0110
0000
0120
0000
0000
0031
1000
0000
0001
0100
,  // measure 45
0001
0000
0000
0100
0010
0000
1000
0000
0001
0000
0000
0001
0010
0000
0100
0000
,  // measure 46
1000
0000
0000
1000
0010
0000
0100
0000
0102
0000
0000
0100
0000
0000
0013
0000
,  // measure 47
2100
0000
0000
0100
0000
0000
3010
0000
1002
0000
0000
0203
0000
0000
2300
0000
,  // measure 48
3002
0000
0000
0023
0000
0000
2030
0000
0000
3010
0000
1000
0100
0000
1100
0000
,  // measure 49
0000
0010
0000
0001
0100
0000
0101
0000
0000
0010
0000
1000
0100
0000
0001
0000
,  // measure 50
0100
0000
1000
0000
0010
0000
1000
0000
1002
0000
0000
0013
0100
0000
0010
0001
,  // measure 51
1000
0000
0000
0001
0100
0000
0001
0000
0010
0000
0000
1000
0010
0000
0001
0000
,  // measure 52
1000
0000
0000
0000
1001
0000
0001
0000
0200
0000
0000
0310
0100
0000
0001
1000
,  // measure 53
0100
0000
0000
0100
0010
0000
0100
0000
0001
0000
0000
0100
0010
0000
0100
0000
,  // measure 54
1000
0000
0010
0000
0000
0010
0000
0000
2001
0000
0000
3010
0100
0000
0010
1000
,  // measure 55
0001
0000
0000
1000
0100
0000
1000
0000
0010
0000
0000
0001
0010
0000
1000
0000
,  // measure 56
0001
0000
0000
0000
1001
0000
1000
0000
0100
0000
0000
0100
0010
0000
0001
0000
,  // measure 57
0100
0000
1000
0000
0100
0000
0001
0000
1000
0100
0000
1000
0100
0000
0010
0000
,  // measure 58
0001
0100
0000
0001
0100
0000
0010
0000
1000
0001
0000
0001
0020
0000
0000
0000
,  // measure 59
0130
0000
0000
0000
;

//---------------dance-single - ----------------
#NOTEDATA:;
#CHARTNAME:;
#STEPSTYPE:dance-single;
#DESCRIPTION:;
#CHARTSTYLE:;
#DIFFICULTY:Medium;
#METER:8;
#RADARVALUES:0.329178,0.372127,0.252290,0.386844,0.004205,274.000000,244.000000,30.000000,46.000000,0.000000,0.000000,0.000000,0.000000,0.000000,0.329178,0.372127,0.252290,0.386844,0.004205,274.000000,244.000000,30.000000,46.000000,0.000000,0.000000,0.000000,0.000000,0.000000;
#CREDIT:;
#NOTES:
// measure 0
0000
0000
0000
0000
,  // measure 1
0000
0000
0000
0000
,  // measure 2
0000
0000
0000
0000
,  // measure 3
0000
0000
0000
0000
,  // measure 4
1002
0000
0003
0010
0010
0000
0100
0000
,  // measure 5
0010
0000
0001
1000
0002
0000
0003
0100
,  // measure 6
0200
0000
0300
0010
0010
0000
1000
0000
,  // measure 7
0001
0000
0010
0100
1000
0000
0001
0000
,  // measure 8
2001
0000
3000
0010
0010
0000
0100
0000
,  // measure 9
0010
0000
1000
0001
2000
0000
3000
0100
,  // measure 10
0100
0010
0001
0100
,  // measure 11
1010
0100
1010
0100
,  // measure 12
0011
0100
0011
0100
,  // measure 13
1010
0100
0011
0100
,  // measure 14
1001
0110
1001
1000
,  // measure 15
0100
0000
2000
0000
3000
0001
0010
0000
,  // measure 16
0001
0000
0020
0000
0030
0001
0001
0000
,  // measure 17
0100
0000
0010
0000
0000
1000
1000
0000
,  // measure 18
0100
0000
0010
0100
0010
0000
0001
0000
,  // measure 19
0100
0000
0002
0000
0003
1000
0010
0000
,  // measure 20
1000
0000
0020
0000
0030
1000
1000
0000
,  // measure 21
0100
0000
0010
0000
0000
0001
0001
0000
,  // measure 22
0100
0000
0010
1000
0001
0000
0020
0000
,  // measure 23
0000
0230
0000
0320
,  // measure 24
0031
2000
0000
3020
0000
0130
0002
0000
,  // measure 25
1003
0200
0000
0000
1000
0000
0010
0000
,  // measure 26
1000
0000
0310
0000
0001
0100
0020
0000
,  // measure 27
0000
0230
0010
0320
,  // measure 28
1030
0002
0000
0023
0000
0130
2000
0000
,  // measure 29
3001
0200
0000
0000
0001
0000
0010
0000
,  // measure 30
0001
0000
0310
1000
0001
0000
0021
0000
,  // measure 31
0130
0210
1300
2100
,  // measure 32
3010
1000
0010
0000
0100
0000
0102
0000
,  // measure 33
0013
0001
0010
0000
0100
0000
1000
0001
,  // measure 34
1000
0000
0001
1000
0001
0000
1020
0000
,  // measure 35
0130
0210
0301
0102
,  // measure 36
1003
0001
1000
0000
0100
0000
0010
0001
,  // measure 37
0001
0000
1000
0001
1000
0000
0010
1000
,  // measure 38
1000
0000
0001
1000
0001
0000
0022
0000
,  // measure 39
0033
2200
3300
1010
,  // measure 40
0110
0101
2000
0000
,  // measure 41
3002
0000
1003
0001
,  // measure 42
1000
0000
0200
0000
,  // measure 43
0320
0000
0000
0000
0000
0000
0000
0000
0130
0000
0000
0100
0000
0000
0100
0000
,  // measure 44
0100
0000
0010
0001
2000
0000
3000
0010
,  // measure 45
0010
0000
1000
0100
0010
0000
0100
0010
,  // measure 46
0001
0000
0000
1000
1000
0000
0001
0100
,  // measure 47
0010
0000
0100
0010
2000
0000
3200
0000
,  // measure 48
0302
0203
1300
1100
,  // measure 49
0001
0011
1000
1001
,  // measure 50
0100
0000
0010
0000
2001
0000
3000
0100
,  // measure 51
0100
0000
0010
0001
0100
0000
0010
1000
,  // measure 52
0100
0000
0000
0010
0020
0000
0030
0100
,  // measure 53
1000
0000
0001
0100
0010
0000
1000
0100
,  // measure 54
0010
0000
0001
0000
1002
0000
0003
0100
,  // measure 55
0100
0000
0010
1000
0100
0000
0010
0001
,  // measure 56
0100
0000
0000
0010
0010
0000
1000
0001
,  // measure 57
0010
0000
0100
1000
0001
0000
0101
0000
,  // measure 58
1000
0000
1010
0000
0001
0000
1000
0100
,  // measure 59
0001
0000
0000
0000
;

//---------------dance-single - ----------------
#NOTEDATA:;
#CHARTNAME:;
#STEPSTYPE:dance-single;
#DESCRIPTION:;
#CHARTSTYLE:;
#DIFFICULTY:Easy;
#METER:4;
#RADARVALUES:0.186214,0.248085,0.117735,0.294338,0.000000,155.000000,141.000000,14.000000,35.000000,0.000000,0.000000,0.000000,0.000000,0.000000,0.186214,0.248085,0.117735,0.294338,0.000000,155.000000,141.000000,14.000000,35.000000,0.000000,0.000000,0.000000,0.000000,0.000000;
#CREDIT:;
#NOTES:
// measure 0
0000
0000
0000
0000
,  // measure 1
0000
0000
0000
0000
,  // measure 2
0000
0000
0000
0000
,  // measure 3
0000
0000
0000
0000
,  // measure 4
2002
3003
0001
0000
,  // measure 5
0010
0001
1000
0000
,  // measure 6
2002
3003
1000
0000
,  // measure 7
0010
1000
0001
0000
,  // measure 8
2002
3003
0001
0000
,  // measure 9
0010
0001
0100
0000
,  // measure 10
0010
1000
0100
0000
,  // measure 11
0011
0000
0110
0000
,  // measure 12
0011
0000
1001
0000
,  // measure 13
1010
0000
0110
0000
,  // measure 14
1010
0000
1001
1000
,  // measure 15
1000
0200
0300
0001
,  // measure 16
0001
0020
0030
1000
,  // measure 17
0000
0001
0000
1000
,  // measure 18
0001
1000
0000
0001
,  // measure 19
0001
0200
0300
1000
,  // measure 20
1000
0020
0030
0001
,  // measure 21
0000
1000
0000
0010
,  // measure 22
0100
0010
0000
2000
,  // measure 23
0000
3200
0000
0320
,  // measure 24
0000
0032
0000
0203
,  // measure 25
0000
0020
0000
0000
,  // measure 26
0000
0330
1000
0002
,  // measure 27
0000
0023
0000
0230
,  // measure 28
0000
2300
0000
3020
,  // measure 29
0000
0200
0000
0000
,  // measure 30
0330
0010
0010
2000
,  // measure 31
0000
3200
0000
0302
,  // measure 32
0000
0203
0000
2300
,  // measure 33
0000
3020
0000
1000
,  // measure 34
0000
1030
1000
0002
,  // measure 35
0000
0203
0000
2300
,  // measure 36
0000
3200
0000
0301
,  // measure 37
0000
0001
0001
1000
,  // measure 38
0000
1000
1000
0100
,  // measure 39
0000
0100
0000
0100
,  // measure 40
0010
1001
0001
0000
,  // measure 41
0001
0000
0001
0001
,  // measure 42
0001
0000
1000
0000
,  // measure 43
1000
0000
0001
1000
,  // measure 44
0001
0000
0100
0000
,  // measure 45
0010
0000
0100
0010
,  // measure 46
1000
0000
0100
0010
,  // measure 47
0001
0000
0100
0100
,  // measure 48
0100
0000
1001
0000
,  // measure 49
1001
0000
1000
0100
,  // measure 50
0010
0001
2000
0000
,  // measure 51
3010
0010
0100
0001
,  // measure 52
0010
0000
0002
0000
,  // measure 53
0013
0010
0100
1000
,  // measure 54
0010
0000
0200
0000
,  // measure 55
0301
0001
1000
0100
,  // measure 56
0010
0000
0001
0100
,  // measure 57
0010
1000
1000
0000
,  // measure 58
0001
0000
1000
0100
,  // measure 59
0001
0000
0000
0000
;

//---------------dance-single - ----------------
#NOTEDATA:;
#CHARTNAME:;
#STEPSTYPE:dance-single;
#DESCRIPTION:;
#CHARTSTYLE:;
#DIFFICULTY:Beginner;
#METER:2;
#RADARVALUES:0.123742,0.175131,0.025229,0.126145,0.000000,103.000000,100.000000,3.000000,15.000000,0.000000,0.000000,0.000000,0.000000,0.000000,0.123742,0.175131,0.025229,0.126145,0.000000,103.000000,100.000000,3.000000,15.000000,0.000000,0.000000,0.000000,0.000000,0.000000;
#CREDIT:;
#OFFSET:-0.012347;
#BPMS:0.000000=123.000000
;
#STOPS:;
#DELAYS:;
#WARPS:;
#TIMESIGNATURES:0.000000=4=4
;
#TICKCOUNTS:0.000000=4
;
#COMBOS:0.000000=1
;
#SPEEDS:0.000000=1.000000=0.000000=0
;
#SCROLLS:0.000000=1.000000
;
#FAKES:;
#LABELS:0.000000=Song Start
;
#NOTES:
// measure 0
0000
0000
0000
0000
,  // measure 1
0000
0000
0000
0000
,  // measure 2
0000
0000
0000
0000
,  // measure 3
0000
0000
0000
0000
,  // measure 4
2000
0000
3000
0000
,  // measure 5
1000
0000
1000
0000
,  // measure 6
0002
0000
0003
0000
,  // measure 7
0001
0000
0001
0000
,  // measure 8
0020
0000
0030
0000
,  // measure 9
0010
0000
0010
0000
,  // measure 10
0200
0000
0300
0000
,  // measure 11
1000
0000
1000
0000
,  // measure 12
0001
0000
0001
0000
,  // measure 13
1000
0000
1000
0000
,  // measure 14
0001
0000
1000
0000
,  // measure 15
0001
0000
0001
0000
,  // measure 16
0100
0000
0100
0000
,  // measure 17
0010
0000
1000
0000
,  // measure 18
0010
0000
1000
0000
,  // measure 19
0001
0000
0001
0000
,  // measure 20
0010
0000
0010
0000
,  // measure 21
0100
0000
1000
0000
,  // measure 22
0100
0000
1000
0000
,  // measure 23
0002
0000
0003
0000
,  // measure 24
0200
0000
0300
0000
,  // measure 25
0020
0000
0000
0000
,  // measure 26
0000
0000
0030
0000
,  // measure 27
2000
0000
3000
0000
,  // measure 28
0200
0000
0300
0000
,  // measure 29
0020
0000
0000
0000
,  // measure 30
0000
0000
0030
0000
,  // measure 31
0001
0000
0001
0000
,  // measure 32
0100
0000
0100
0000
,  // measure 33
0010
0000
2000
0000
,  // measure 34
0000
0000
3000
0000
,  // measure 35
1000
0000
1000
0000
,  // measure 36
0100
0000
0100
0000
,  // measure 37
0020
0000
0030
0000
,  // measure 38
0002
0000
0003
0000
,  // measure 39
0100
0000
0010
0000
,  // measure 40
1000
0000
1001
0000
,  // measure 41
1000
0000
1000
0000
,  // measure 42
1000
0000
1000
0000
,  // measure 43
0001
0000
0001
0000
,  // measure 44
2002
0000
3003
0000
,  // measure 45
0001
0000
0010
0000
,  // measure 46
0001
0001
0001
0000
,  // measure 47
1000
1000
1000
0000
,  // measure 48
0010
0000
1000
0000
,  // measure 49
0001
0000
0001
0000
,  // measure 50
0010
0010
0010
0000
,  // measure 51
0100
0000
0010
0000
,  // measure 52
0100
0100
0100
0000
,  // measure 53
1000
0000
0001
0000
,  // measure 54
1000
1000
1000
0000
,  // measure 55
0010
0000
0100
0000
,  // measure 56
0010
0010
0010
0000
,  // measure 57
0100
0100
0100
0000
,  // measure 58
0001
0000
1000
0000
,  // measure 59
0100
0000
0110
0000
;
