#VERSION:0.83;
#TITLE:Grannies World Tour;
#SUBTITLE:;
#ARTIST:Christophe Heral;
#TITLETRANSLIT:;
#SUBTITLETRANSLIT:;
#ARTISTTRANSLIT:;
#GENRE:Livid Dead Rock;
#ORIGIN:;
#CREDIT:;
#BANNER:;
#BACKGROUND:;
#PREVIEWVID:;
#JACKET:;
#CDIMAGE:;
#DISCIMAGE:;
#LYRICSPATH:;
#CDTITLE:cdtitle.png;
#MUSIC:Grannies World Tour.ogg;
#OFFSET:-0.191245;
#SAMPLESTART:32.192245;
#SAMPLELENGTH:10.666668;
#SELECTABLE:YES;
#DISPLAYBPM:90.000000:180.000000;
#BPMS:0.000=90.000,
32.000=180.000,
99.500=90.000,
100.500=120.000,
101.500=180.000,
102.500=270.000,
104.000=360.000,
106.021=180.000,
164.000=90.000,
165.000=360.000,
173.000=180.000;
#STOPS:130.500=0.333;
#DELAYS:;
#WARPS:;
#TIMESIGNATURES:0.000=4=4;
#TICKCOUNTS:0.000=4;
#COMBOS:0.000=1;
#SPEEDS:0.000=1.000=0.000=0;
#SCROLLS:0.000=1.000;
#FAKES:;
#LABELS:0.000=Song Start;
#BGCHANGES:;
#KEYSOUNDS:;
#ATTACKS:
;

//---------------dance-single - ----------------
#NOTEDATA:;
#CHARTNAME:;
#STEPSTYPE:dance-single;
#DESCRIPTION:;
#CHARTSTYLE:;
#DIFFICULTY:Challenge;
#METER:12;
#RADARVALUES:0.493062,0.797968,0.420906,0.578746,0.173624,328.000000,288.000000,40.000000,55.000000,10.000000,6.000000,2.000000,0.000000,0.000000,0.493062,0.797968,0.420906,0.578746,0.173624,328.000000,288.000000,40.000000,55.000000,10.000000,6.000000,2.000000,0.000000,0.000000;
#CREDIT:;
#OFFSET:-0.191245;
#BPMS:0.000000=90.000000
,32.000000=180.000000
;
#STOPS:130.500000=0.333334
;
#DELAYS:;
#WARPS:;
#TIMESIGNATURES:0.000000=4=4
;
#TICKCOUNTS:0.000000=4
;
#COMBOS:0.000000=1
;
#SPEEDS:0.000000=1.000000=0.000000=0
;
#SCROLLS:0.000000=1.000000
,99.500000=0.500000
,100.000000=0.550000
,100.500000=0.600000
,101.000000=0.700000
,101.500000=0.850000
,102.000000=1.000000
,102.500000=1.200000
,103.000000=1.400000
,103.500000=1.600000
,104.000000=1.800000
,104.500000=2.000000
,105.000000=2.250000
,105.500000=2.500000
,106.000000=1.000000
,164.000000=0.500000
,165.750000=1.000000
,166.000000=1.500000
,166.250000=2.000000
,170.000000=1.000000
;
#FAKES:;
#LABELS:0.000000=Song Start
;
#DISPLAYBPM:90.000000:180.000000;
#NOTES:
0000
0000
0000
0000
,
0000
0000
0000
0000
,
0202
0000
0000
0000
1000
1000
0000
0303
,
2200
0000
0000
0000
0001
0001
0000
3300
,
0101
0102
0000
1003
0011
0022
0000
0030
,
2000
0000
0000
0000
0010
0010
0000
3003
,
1100
2100
0000
3001
1010
2020
0000
0030
,
3001
0000
0001
1000
0000
1000
0001
0000
1000
0100
0010
0001
1000
0100
0010
0000
,
1002
0100
1000
0100
,
1000
0000
0100
0000
1000
0000
0103
0001
,
2001
0010
0100
3010
,
1002
0000
0010
0000
0100
0000
0013
0001
,
2001
0100
0001
0100
,
0001
0000
0100
0000
0001
0000
3100
1000
,
1010
0000
0000
0102
0000
0000
1003
0000
,
0001
0010
0000
1000
0010
0000
0001
0010
,
0001
0000
0100
0001
0100
0000
0010
0000
2000
0000
0000
0000
3001
0000
0000
0000
,
0110
0000
0001
0000
0110
0000
1000
0010
,
1000
0000
0100
1000
0100
0000
0010
0000
0002
0000
0000
0000
1003
0000
0000
0000
,
0110
1000
0110
1000
,
0010
0000
1000
0010
1000
0000
0001
0000
0200
0000
0000
0000
0301
0000
0000
0000
,
0110
0000
0001
0000
0110
0000
1000
0001
,
0010
0000
0001
0010
0001
0000
1000
0000
0200
0000
0000
0000
0310
0000
0000
0000
,
0004
4000
0000
0000
0000
0000
0000
0000
0000
0000
0000
0000
3003
0000
0101
0000
,
0000
0100
0001
1100
0000
0100
1000
0202
,
0000
0000
0000
0000
,
0000
0000
0000
0000
0000
0000
0000
0303
0000
0000
0000
0000
0101
0000
0102
0000
,
0000
0000
1003
0100
1000
0001
1000
0100
,
1000
0010
0100
0010
0100
0010
0100
2001
,
0000
0000
0001
0000
0001
0000
3001
1000
,
0100
0000
0001
0100
0000
0110
0000
1200
,
0000
0010
0010
0310
,
0100
0000
0010
0000
0001
0000
0100
0000
0010
0000
1000
0000
0001
0000
1000
0010
,
1000
0001
0020
0000
0001
0000
0100
0000
,
1000
0000
0000
0000
0100
0000
0000
0000
0031
0000
0010
0000
0100
0000
1000
0001
,
1000
0010
0200
0000
0010
0000
1000
0000
,
0010
0000
0010
0000
0010
0000
0000
0000
0301
0000
0000
0000
1000
0000
0001
0010
,
0001
1000
0020
0000
0001
0000
0100
0000
,
1000
0000
0100
0000
0031
0010
2000
0000
,
3000
0000
0001
0010
0002
0000
0000
0000
0003
0000
1000
0100
2000
0000
0000
0000
,
3000
0000
0001
0100
0002
0000
0000
0000
1000
0000
1003
0000
0000
0000
0000
0000
,
2002
0000
0000
0000
,
0000
0000
3003
2000
,
3200
0302
2003
3020
,
0031
0001
0010
0000
0001
0100
0002
0000
,
0203
0000
2300
0000
3001
0020
2030
0000
,
0001
0001
3002
0000
1003
0100
0020
0000
,
0130
1000
0020
0000
0032
0000
2003
0000
,
3200
0000
0302
0000
0013
0100
1000
0000
,
1100
0110
0011
1001
,
1000
0010
0100
0001
1000
0000
1001
0000
,
1000
0010
M00M
0010
0001
0000
1001
0000
,
1000
0010
M00M
0010
0001
0000
1001
0000
,
1000
0010
M00M
0010
0001
0000
1001
0000
,
1000
0000
0000
0010
0000
0000
M00M
0000
0000
0010
0000
0000
0001
0000
0000
0000
0000
0000
1000
0000
0100
0000
1000
0000
,
0100
1000
0100
1000
0001
1000
0001
1000
0001
0100
0001
0100
,
0001
0100
0001
1000
0010
1000
0001
0010
0002
2000
0000
0000
,
0000
0000
0000
0000
,
0000
0000
0000
3003
,
0220
0000
0000
0000
,
0000
0000
0000
0000
0000
0000
0000
0000
0000
0000
0000
0000
0000
0000
0000
0330
0MM0
0000
0000
0000
0000
0000
0000
0000
;

//---------------dance-single - Mods, Just Like Grandma Used To Make!----------------
#NOTEDATA:;
#CHARTNAME:;
#STEPSTYPE:dance-single;
#DESCRIPTION:Mods, Just Like Grandma Used To Make!;
#CHARTSTYLE:;
#DIFFICULTY:Edit;
#METER:12;
#RADARVALUES:0.470513,0.836157,0.378816,0.410384,0.189408,313.000000,277.000000,36.000000,39.000000,8.000000,0.000000,0.000000,0.000000,0.000000,0.470513,0.836157,0.378816,0.410384,0.189408,313.000000,277.000000,36.000000,39.000000,8.000000,0.000000,0.000000,0.000000,0.000000;
#CREDIT:;
#OFFSET:2.475422;
#BPMS:0.000000=90.000000
,36.000000=180.000000
,99.500000=720.000000
,101.500000=180.000000
;
#STOPS:99.500000=0.291666
,100.000000=0.291662
,100.500000=0.291662
,101.000000=0.291662
,132.500000=0.333334
;
#DELAYS:;
#WARPS:;
#TIMESIGNATURES:0.000000=4=4
;
#TICKCOUNTS:0.000000=4
;
#COMBOS:0.000000=1
;
#SPEEDS:0.000000=1.000000=0.000000=0
,34.000000=2.000000=1.500000=0
,101.500000=1.000000=4.000000=0
;
#SCROLLS:0.000000=1000.000000
,1.000000=1.000000
,4.000000=0.000000
,6.000000=1.000000
,7.000000=0.000000
,10.000000=1.000000
,11.000000=0.000000
,14.000000=1.000000
,15.000000=0.000000
,18.000000=1.000000
,19.000000=0.000000
,22.000000=1.000000
,23.000000=0.000000
,26.000000=1.000000
,27.000000=0.000000
,30.000000=1.000000
,31.000000=0.000000
,32.000000=0.250000
,34.000000=1.000000
,36.000000=0.500000
,61.500000=0.000000
,67.000000=0.500000
,101.500000=100.000000
,105.500000=1.000000
,108.000000=0.000000
,109.000000=1.000000
,166.000000=0.500000
,167.750000=1.000000
,168.000000=1.500000
,168.250000=2.000000
,172.000000=1.000000
,229.000000=10.000000
,238.000000=0.250000
;
#FAKES:;
#LABELS:0.000000=Song Start
;
#ATTACKS:TIME=-2.467420:LEN=2.666000:MODS=*100 Dark,*100 stealth:TIME=0.199247:LEN=0.333000:MODS=*100 no dark,*100 no stealth:TIME=0.532580:LEN=2.333000:MODS=*1.1 dark,*1.1 stealth:TIME=2.865914:LEN=0.333000:MODS=*100 no dark,*100 no stealth:TIME=3.199247:LEN=2.333000:MODS=*1.1 dark,*1.1 stealth:TIME=5.532580:LEN=0.333000:MODS=*100 no dark,*100 no stealth:TIME=5.865913:LEN=2.333000:MODS=*1.1 dark,*1.1 stealth:TIME=8.199247:LEN=0.333000:MODS=*100 no dark,*100 no stealth:TIME=8.532579:LEN=2.333000:MODS=*1.1 dark,*1.1 stealth:TIME=10.865913:LEN=0.333000:MODS=*100 no dark,*100 no stealth:TIME=13.532579:LEN=0.333000:MODS=*100 no dark,*100 no stealth:TIME=16.199245:LEN=0.333000:MODS=*100 no dark,*100 no stealth:TIME=11.199247:LEN=2.333000:MODS=*1.1 dark,*1.1 stealth:TIME=13.865913:LEN=2.333000:MODS=*1.1 dark,*1.1 stealth:TIME=16.532579:LEN=2.333000:MODS=*1.1 dark,*1.1 stealth:TIME=21.532579:LEN=2.667000:MODS=*6 reverse,*20 -150% distant:TIME=24.199245:LEN=1.333000:MODS=*6 no reverse,*20 150% distant:TIME=25.532579:LEN=1.333000:MODS=*6 reverse,*20 -150% distant:TIME=26.865913:LEN=2.666000:MODS=*6 no reverse,*20 150% distant:TIME=30.032579:LEN=5.000000:MODS=*10 150% moveX1,*10 50% moveX2,*10 -50% moveX3,*10 -150% moveX4,no mini:TIME=30.865911:LEN=5.000000:MODS=*10 no moveX1,-100% tiny:TIME=31.032579:LEN=5.000000:MODS=*10 no moveX2:TIME=31.365911:LEN=5.000000:MODS=*10 no moveX3:TIME=31.532579:LEN=5.000000:MODS=*10 no moveX4:TIME=33.532581:LEN=0.333000:MODS=*50 200% beat,*:TIME=34.199249:LEN=0.333000:MODS=*50 200% beat:TIME=33.699249:LEN=0.333000:MODS=*100 no beat:TIME=34.365913:LEN=0.333000:MODS=*100 no beat:TIME=36.199249:LEN=0.333000:MODS=*50 -200% beat:TIME=36.365913:LEN=0.333000:MODS=*100 no beat:TIME=36.865913:LEN=0.333000:MODS=*50 -200% beat:TIME=37.032581:LEN=0.333000:MODS=*100 no beat:TIME=38.865913:LEN=0.333000:MODS=*50 200% beat:TIME=39.032581:LEN=0.333000:MODS=*100 no beat:TIME=39.532581:LEN=0.333000:MODS=*50 200% beat:TIME=39.699249:LEN=0.333000:MODS=*100 no beat:TIME=41.532581:LEN=1.333000:MODS=*10 500% dizzy,*1.6 flip:TIME=42.699249:LEN=0.333000:MODS=*100 no dizzy:TIME=42.699249:LEN=0.333000:MODS=*10 40% mini:TIME=43.032585:LEN=0.333000:MODS=*10 80% mini:TIME=43.365917:LEN=0.333000:MODS=*10 120% mini:TIME=43.699249:LEN=0.333000:MODS=*10 160% mini:TIME=44.032581:LEN=1.333000:MODS=*10 200% mini:TIME=42.199249:LEN=5.000000:MODS=*1.6 no flip:TIME=45.365913:LEN=5.000000:MODS=no mini:TIME=45.532581:LEN=5.000000:MODS=*2 no mini:TIME=45.699249:LEN=5.000000:MODS=*3 no mini:TIME=44.865913:LEN=5.000000:MODS=*10 50% moveX2,*10 -50% moveX3:TIME=49.365913:LEN=5.000000:MODS=no moveX2,no moveX3,*10 no flip,beat,brake:TIME=48.365913:LEN=0.333000:MODS=*10 flip,*10 -50% moveX2,*10 50% moveX3:TIME=48.699249:LEN=0.333000:MODS=*10 no flip,*10 50% moveX2,*10 -50% moveX3:TIME=49.032581:LEN=0.333000:MODS=*10 flip,*10 -50% moveX2,*10 50% moveX3:TIME=29.532579:LEN=0.466000:MODS=-100% mini:TIME=31.865911:LEN=5.000000:MODS=*2 no tiny:TIME=32.199249:LEN=9.333000:MODS=expand:TIME=54.365898:LEN=11.500000:MODS=*100 no beat,*100 centered,*100 cross:TIME=53.532566:LEN=0.800000:MODS=*2 boost,no brake:TIME=-2.467420:LEN=93.000000:MODS=2x:TIME=70.865898:LEN=2.666000:MODS=hidden:TIME=68.199234:LEN=2.666000:MODS=sudden:TIME=73.532570:LEN=2.666000:MODS=sudden:TIME=68.199234:LEN=8.000000:MODS=*0.05 tornado:TIME=77.532570:LEN=6.333000:MODS=dark2,stealth2:TIME=79.365898:LEN=4.500000:MODS=dark3,stealth3:TIME=78.865898:LEN=1.333000:MODS=*2 25% tiny:TIME=80.199234:LEN=1.333000:MODS=*2 50% tiny:TIME=81.532570:LEN=1.333000:MODS=*2 75% tiny:TIME=82.865898:LEN=1.333000:MODS=*2 100% tiny:TIME=84.199234:LEN=4.000000:MODS=*1.1 -200% tiny:TIME=80.699234:LEN=3.166000:MODS=dark1,stealth1:TIME=82.032570:LEN=1.833000:MODS=dark4,stealth4:TIME=83.865898:LEN=5.000000:MODS=*5 no dark,*5 no stealth:TIME=86.865906:LEN=10.000000:MODS=*2 dark:TIME=89.199234:LEN=5.000000:MODS=*10 150% moveX1,*10 50% moveX2,*10 -50% moveX3,*10 -150% moveX4,*10 centered,*10 reverse1,*10 no tiny:TIME=54.865902:LEN=2.666000:MODS=*0.38 moveX4,*0.38 moveX1,*0.38 moveX2,*0.38 moveX3:TIME=57.532566:LEN=2.666000:MODS=*0.75 -100% moveX1,*0.75 -100% moveX2,*0.75 -100% moveX3,*0.75 -100% moveX4:TIME=60.199234:LEN=5.000000:MODS=*0.75 moveX1,*0.75 moveX2,*0.75 moveX3,*0.75 moveX4:TIME=62.865902:LEN=0.666000:MODS=*3 -100% moveX1,*3 -100% moveX2,*3 -100% moveX3,*3 -100% moveX4:TIME=63.532566:LEN=0.666000:MODS=*3 moveX1,*3 moveX2,*3 moveX3,*3 moveX4:TIME=64.199234:LEN=0.666000:MODS=*3 -100% moveX1,*3 -100% moveX2,*3 -100% moveX3,*3 -100% moveX4:TIME=64.865898:LEN=5.000000:MODS=*3 moveX1,*3 moveX2,*3 moveX3,*3 moveX4:TIME=65.365898:LEN=5.000000:MODS=no moveX1,no moveX2,no moveX3,no moveX4;
#DISPLAYBPM:90.000000:180.000000;
#NOTES:
0000
0000
0000
0000
,
0000
0000
0000
0000
,
0000
0000
0000
0000
,
0000
0000
0000
0000
1000
1000
0000
0000
,
0000
0000
0000
0000
0001
0001
0000
0000
,
0000
0000
0000
0000
0011
1010
0000
0000
,
0000
0000
0000
0000
1010
0011
0000
0000
,
0000
0000
0000
0000
0101
1100
0000
0000
,
0000
0000
0000
0000
0000
0000
0000
0000
1000
0100
0010
0001
0100
0010
1000
0000
,
1002
0100
1000
0100
,
1000
0000
0100
0000
1000
0000
0103
0001
,
2001
0010
0100
3010
,
1002
0000
0010
0000
0100
0000
0013
0001
,
1002
0100
1000
0100
,
1000
0000
0100
0000
1000
0000
0103
0001
,
0011
0000
0000
1100
0000
0000
0000
0000
,
0000
0000
0000
0000
,
0001
0000
0100
0001
0100
0000
0010
0000
2000
0000
0000
0000
3001
0000
0000
0000
,
0110
0000
0001
0000
0110
0000
1000
0010
,
1000
0000
0100
1000
0100
0000
0010
0000
0002
0000
0000
0000
1003
0000
0000
0000
,
0110
1000
0110
1000
,
0010
0000
1000
0010
1000
0000
0001
0000
0200
0000
0000
0000
0301
0000
0000
0000
,
0110
0000
0001
0000
0110
0000
1000
0001
,
0010
0000
0001
0010
0001
0000
1000
0000
0200
0000
0000
0000
0310
0000
0000
0000
,
0001
1000
0001
1000
0001
1000
0001
1000
0001
1000
0001
1000
0001
1000
0001
0000
,
0011
1010
1100
0202
0000
0000
0000
0000
,
0000
0000
0000
0000
0000
0000
0000
0000
0000
0000
0000
0000
0000
0000
0000
0303
,
0000
0000
0101
0102
0000
0000
1003
0010
,
1000
0001
0010
0001
1000
0001
0100
1000
,
0100
0001
0100
2000
0000
0000
0100
0000
,
3100
0000
1000
0100
0001
0000
0001
0010
,
0000
0110
0000
1200
0000
0000
0010
0000
,
0010
0000
0310
0000
0100
0010
0001
0100
,
0010
0000
1000
0000
0001
0000
1000
0001
1000
0000
0001
0000
2000
0000
0000
0000
,
0001
0001
0001
3001
,
0010
0000
0100
0000
0010
0000
0100
0010
0100
0000
0010
0000
0200
0000
0000
0000
,
0010
0000
0010
0000
0010
0010
0010
0000
,
0310
0000
0000
0000
0001
0000
1000
0001
1000
0000
0001
0000
2000
0000
0000
0000
,
0001
0001
0001
3001
,
1000
0000
0010
0000
2000
0000
0000
0000
3000
0000
0001
0010
0002
0000
0000
0000
,
0003
0000
1000
0100
2000
0000
0000
0000
3000
0000
0001
0100
0002
0000
0000
0000
,
1000
1003
0000
0000
2002
0000
0000
0000
,
0000
0000
0000
0000
,
3003
2000
3200
0302
,
2003
0000
3020
0000
0031
0001
0010
0000
,
0001
0100
0002
0000
0203
0000
2300
0000
,
3001
0020
2030
0000
0001
0001
3002
0000
,
1003
0100
0020
0000
0130
1000
0020
0000
,
0032
2003
3200
0302
,
0013
0100
1000
0000
1001
0000
0110
0000
,
1001
0000
0110
0000
1000
0010
0100
0001
,
1000
0000
1001
0000
1000
0010
M00M
0010
,
0001
0000
1001
0000
1000
0010
M00M
0010
,
0001
0000
1001
0000
1000
0010
M00M
0010
,
0001
0000
1001
0000
1000
0010
M00M
0010
,
0001
0000
0000
1000
0001
1000
0001
1000
0001
1000
0001
1000
,
0001
1000
0001
1000
0001
1000
0001
1000
0001
1000
0001
1000
,
0001
1000
0001
1000
0000
0000
0000
0000
0000
0000
0000
0000
,
0000
0000
0000
0000
,
0000
0000
0000
0000
,
0000
0000
0000
0000
,
0000
1001
0000
0000
0000
0000
0000
0000
;

//---------------dance-single - ----------------
#NOTEDATA:;
#CHARTNAME:;
#STEPSTYPE:dance-single;
#DESCRIPTION:;
#CHARTSTYLE:;
#DIFFICULTY:Hard;
#METER:9;
#RADARVALUES:0.435939,0.574143,0.410384,0.683973,0.005261,290.000000,251.000000,39.000000,65.000000,0.000000,0.000000,0.000000,0.000000,0.000000,0.435939,0.574143,0.410384,0.683973,0.005261,290.000000,251.000000,39.000000,65.000000,0.000000,0.000000,0.000000,0.000000,0.000000;
#CREDIT:;
#OFFSET:-0.191245;
#BPMS:0.000000=90.000000
,32.000000=180.000000
;
#STOPS:130.500000=0.333334
;
#DELAYS:;
#WARPS:;
#TIMESIGNATURES:0.000000=4=4
;
#TICKCOUNTS:0.000000=4
;
#COMBOS:0.000000=1
;
#SPEEDS:0.000000=1.000000=0.000000=0
;
#SCROLLS:0.000000=1.000000
,99.500000=0.500000
,100.000000=0.550000
,100.500000=0.600000
,101.000000=0.700000
,101.500000=0.850000
,102.000000=1.000000
,102.500000=1.200000
,103.000000=1.400000
,103.500000=1.600000
,104.000000=1.800000
,104.500000=2.000000
,105.000000=2.250000
,105.500000=2.500000
,106.000000=1.000000
,164.000000=0.500000
,165.750000=1.000000
,166.000000=1.500000
,166.250000=2.000000
,170.000000=1.000000
;
#FAKES:;
#LABELS:0.000000=Song Start
;
#DISPLAYBPM:90.000000:180.000000;
#NOTES:
0000
0000
0000
0000
,
0000
0000
0000
0000
,
0102
0000
0000
0000
1000
1003
0000
0000
,
2100
0000
0000
0000
0001
3001
0000
0000
,
0101
0102
0000
1003
0011
0012
0000
0003
,
2010
0000
0000
0000
0001
3001
0000
0000
,
1010
2010
0000
3001
1100
2100
0000
3000
,
0001
0000
0000
0001
0000
0000
0001
0000
1000
0000
0010
0000
0100
0000
0001
0000
,
1002
0100
0100
0100
,
0100
0000
0100
0000
0100
0000
1003
0001
,
2000
0000
0100
0000
0100
0000
3100
0010
,
0002
0000
0100
0000
0100
0000
0103
0010
,
2000
0100
0100
0100
,
0100
0000
0100
0000
3100
0000
1000
0001
,
1000
0000
0000
2002
0000
0000
3003
0000
,
0001
0100
0000
0001
0100
0000
0001
0000
,
1000
0100
1000
0100
0020
0000
0031
0000
,
0110
0000
0001
0000
0110
0000
0001
0010
,
0001
0100
0001
0100
0020
0000
1030
0000
,
0110
1000
0110
1000
,
0001
0010
0001
0010
0200
0000
1300
0000
,
0110
0000
1000
0000
0110
0000
1000
0100
,
1000
0010
1000
0010
0200
0000
0301
0000
,
0001
0010
0100
1000
0001
0010
0100
1000
,
0000
1010
0000
0101
0000
0011
0000
2002
,
0000
0000
0000
0000
,
0000
0000
0000
0000
0000
0000
0000
3003
0000
0000
0000
0000
0010
0000
0020
0000
,
0000
0030
1000
0010
0100
0000
0001
0010
,
0100
1000
0000
1100
0000
0101
0000
2100
,
0000
0000
0001
0000
0001
0000
3001
1000
,
0010
0000
1000
0100
0000
0011
0000
2010
,
0000
0001
0001
3001
,
1000
0001
1000
0001
1000
0001
1000
0100
,
0010
0001
0200
0000
0001
0000
0010
0000
,
1000
0000
0010
0000
0301
0100
0001
0100
,
0010
1000
0200
0000
1000
0000
0010
0000
,
0001
0000
0010
0000
1300
0000
0100
1000
,
0010
0100
0002
0000
0010
0000
0100
0000
,
0010
0000
1003
0000
0001
0010
2000
0000
,
3000
0010
0002
0000
0003
0100
2000
0000
,
3000
0100
0002
0000
0003
1000
0000
0000
,
2002
0000
0000
0000
,
0000
0000
3003
2000
,
3200
0320
0032
0203
,
0310
1000
0100
0000
0100
1000
0002
0000
,
0203
0000
0320
0000
1030
0002
0023
0000
,
0031
0010
0200
0000
0310
0001
2000
0000
,
3020
0032
0023
2030
,
3200
0302
0203
1300
,
1100
0110
0011
1001
,
1000
0010
0100
0001
1000
0000
1001
0000
,
1000
0200
0000
0310
0001
0000
1001
0000
,
1000
0200
0000
0310
0001
0000
1001
0000
,
1000
0200
0000
0310
0001
0000
1001
0000
,
1000
0200
0000
0310
0001
0000
2000
0000
,
3200
0302
0023
0032
,
0203
2300
3010
0220
,
0000
0000
0000
0000
,
0000
0000
0000
0330
,
2002
0000
0000
0000
,
0000
0000
0000
0000
0000
3003
0000
0000
;

//---------------dance-single - ----------------
#NOTEDATA:;
#CHARTNAME:;
#STEPSTYPE:dance-single;
#DESCRIPTION:;
#CHARTSTYLE:;
#DIFFICULTY:Medium;
#METER:6;
#RADARVALUES:0.317183,0.416369,0.431429,0.620837,0.000000,211.000000,170.000000,41.000000,59.000000,0.000000,0.000000,0.000000,0.000000,0.000000,0.317183,0.416369,0.431429,0.620837,0.000000,211.000000,170.000000,41.000000,59.000000,0.000000,0.000000,0.000000,0.000000,0.000000;
#CREDIT:;
#OFFSET:-0.191245;
#BPMS:0.000000=90.000000
,32.000000=180.000000
;
#STOPS:;
#DELAYS:;
#WARPS:;
#TIMESIGNATURES:0.000000=4=4
;
#TICKCOUNTS:0.000000=4
;
#COMBOS:0.000000=1
;
#SPEEDS:0.000000=1.000000=0.000000=0
;
#SCROLLS:0.000000=1.000000
,99.500000=0.500000
,107.000000=1.000000
,165.000000=0.500000
,172.000000=1.000000
;
#FAKES:;
#LABELS:0.000000=Song Start
;
#DISPLAYBPM:90.000000:180.000000;
#NOTES:
0000
0000
0000
0000
,
0000
0000
0000
0000
,
0202
0000
0000
0000
0300
0003
0000
0000
,
2200
0000
0000
0000
0300
3000
0000
0000
,
1000
2000
0000
0010
3020
1030
0000
0000
,
2002
0000
0000
0000
3000
0003
0000
0000
,
0001
0002
0000
0010
0023
0031
0000
0000
,
1000
0000
0001
0000
1000
0001
1000
0001
,
1002
0100
0100
0100
,
0100
0100
0100
1003
,
2001
0010
0010
3010
,
1002
0010
0010
0013
,
2001
0100
0100
0100
,
0100
0100
0100
3001
,
1001
0000
0000
2002
0000
0000
3003
0000
,
0001
0000
0000
1000
0000
0000
0001
0000
,
1000
0100
0002
0003
,
0110
0000
0110
1000
,
0001
0100
2000
3000
,
0110
0000
0110
0000
,
1000
0010
0002
0003
,
0110
0000
0110
1000
,
0001
0010
2000
3000
,
0220
0000
0000
0000
0000
0330
0000
0011
,
0000
1100
0000
1010
0000
0101
0000
2002
,
0000
0000
0000
0000
,
0000
0000
0000
0000
0000
0000
0000
3003
0000
0000
0000
0000
0220
0000
0000
0000
,
0330
1001
0100
1001
,
0000
0010
0000
0010
0000
0010
0000
2001
,
0000
0001
0001
3001
,
1000
0100
0001
0100
,
2000
0001
0001
3001
,
1001
1001
1001
0000
,
1000
0010
0200
0001
,
0001
0001
0301
1000
,
0001
0010
0200
1000
,
1000
1300
0001
1000
,
0001
0100
0020
1000
,
1000
1000
1030
0001
,
0022
0033
2200
3300
,
2020
0000
3030
0000
0202
0000
0000
0303
,
0000
2002
0000
0000
,
0000
0000
0000
3003
,
1000
0100
0010
0001
,
0100
0010
1000
0001
,
0010
0100
0020
0030
,
0022
0033
2020
3030
,
0001
0100
0010
1000
,
0100
0010
0001
1000
,
0010
0100
0010
0100
,
0002
0000
1003
0000
,
0100
0000
0000
0220
0000
0000
0330
0000
,
0100
0000
0000
0220
0000
0000
0330
0000
,
0100
0000
0000
0220
0000
0000
0330
0000
,
0100
0000
0000
0220
0000
0000
0330
0000
,
0001
0010
0001
1000
,
0010
1000
0001
0010
,
0220
0000
0000
0000
,
0000
0000
0000
0000
,
0330
2002
0000
0000
,
0000
0000
0000
0000
0000
0000
0000
3003
;

//---------------dance-single - ----------------
#NOTEDATA:;
#CHARTNAME:;
#STEPSTYPE:dance-single;
#DESCRIPTION:;
#CHARTSTYLE:;
#DIFFICULTY:Easy;
#METER:4;
#RADARVALUES:0.236008,0.320284,0.315680,0.389338,0.000000,157.000000,127.000000,30.000000,37.000000,0.000000,0.000000,0.000000,0.000000,0.000000,0.236008,0.320284,0.315680,0.389338,0.000000,157.000000,127.000000,30.000000,37.000000,0.000000,0.000000,0.000000,0.000000,0.000000;
#CREDIT:;
#OFFSET:-0.191245;
#BPMS:0.000000=90.000000
,32.000000=180.000000
;
#STOPS:;
#DELAYS:;
#WARPS:;
#TIMESIGNATURES:0.000000=4=4
;
#TICKCOUNTS:0.000000=4
;
#COMBOS:0.000000=1
;
#SPEEDS:0.000000=1.000000=0.000000=0
;
#SCROLLS:0.000000=1.000000
,99.500000=0.500000
,107.000000=1.000000
,165.000000=0.500000
,172.000000=1.000000
;
#FAKES:;
#LABELS:0.000000=Song Start
;
#DISPLAYBPM:90.000000:180.000000;
#NOTES:
// measure 0
0000
0000
0000
0000
,  // measure 1
0000
0000
0000
0000
,  // measure 2
0202
0000
0000
0000
0300
0003
0000
0000
,  // measure 3
2200
0000
0000
0000
0300
3000
0000
0000
,  // measure 4
2000
0000
0020
3030
,  // measure 5
2002
0000
0000
0000
3000
0003
0000
0000
,  // measure 6
0002
0000
0020
0033
,  // measure 7
0001
0000
0100
0000
0010
1000
0010
0000
,  // measure 8
1002
0000
0100
0000
,  // measure 9
0100
0000
0103
0001
,  // measure 10
2001
0000
3010
0000
,  // measure 11
1002
0000
0013
0001
,  // measure 12
2001
0000
0100
0000
,  // measure 13
0100
0000
3100
0010
,  // measure 14
2002
0000
0000
3003
0000
0000
0000
0000
,  // measure 15
0220
0000
0000
0330
,  // measure 16
0001
0100
0001
0000
,  // measure 17
0110
0000
0110
0000
,  // measure 18
1000
0010
1000
0000
,  // measure 19
0110
0000
0110
0000
,  // measure 20
1000
0100
1000
0000
,  // measure 21
0110
0000
0110
0000
,  // measure 22
0001
0010
0001
0000
,  // measure 23
2002
0000
0000
0000
3003
0000
0000
0100
,  // measure 24
0000
0100
0000
0100
0000
0100
0000
2002
,  // measure 25
0000
0000
0000
0000
,  // measure 26
0000
0000
0000
0000
0000
0000
0000
3003
0000
0000
0000
0000
0220
0000
0000
0000
,  // measure 27
0330
1001
0000
1001
,  // measure 28
0000
1000
0000
0001
0000
1000
0000
0002
,  // measure 29
0000
0000
0000
0003
,  // measure 30
1000
0000
0000
0100
0000
0000
0000
0200
,  // measure 31
0000
0000
0000
0300
,  // measure 32
1001
1001
1001
0000
,  // measure 33
1000
0010
0200
0000
,  // measure 34
0001
0000
0301
0000
,  // measure 35
0001
0010
0200
0000
,  // measure 36
1000
0000
1300
0000
,  // measure 37
0001
0100
0020
0000
,  // measure 38
1000
0000
1030
0000
,  // measure 39
0002
0003
0020
0030
,  // measure 40
2000
0000
3000
0000
0020
0000
0000
0030
,  // measure 41
0000
0002
0000
0000
,  // measure 42
0000
0000
0000
0003
,  // measure 43
1000
0100
0010
0000
,  // measure 44
0100
1000
0010
0000
,  // measure 45
0100
0010
1000
0000
,  // measure 46
1001
0000
0110
0000
,  // measure 47
0001
0010
0100
0000
,  // measure 48
0010
0001
0100
0000
,  // measure 49
0010
1000
0010
1000
,  // measure 50
0001
0000
0010
0000
,  // measure 51
0100
0000
1001
0000
,  // measure 52
0100
0000
1001
0000
,  // measure 53
0100
0000
1001
0000
,  // measure 54
0100
0000
1001
0000
,  // measure 55
0001
1000
0001
1000
,  // measure 56
0001
1000
0001
1000
,  // measure 57
2002
0000
0000
0000
,  // measure 58
0000
0000
0000
0000
,  // measure 59
3003
0200
0000
0000
,  // measure 60
0000
0000
0000
0000
0000
0000
0000
0300
;

//---------------dance-single - ----------------
#NOTEDATA:;
#CHARTNAME:;
#STEPSTYPE:dance-single;
#DESCRIPTION:;
#CHARTSTYLE:;
#DIFFICULTY:Beginner;
#METER:2;
#RADARVALUES:0.138298,0.247677,0.063136,0.220976,0.000000,92.000000,86.000000,6.000000,21.000000,0.000000,0.000000,0.000000,0.000000,0.000000,0.138298,0.247677,0.063136,0.220976,0.000000,92.000000,86.000000,6.000000,21.000000,0.000000,0.000000,0.000000,0.000000,0.000000;
#CREDIT:;
#OFFSET:-0.191245;
#BPMS:0.000000=90.000000
,0.000000=180.000000
;
#STOPS:;
#DELAYS:;
#WARPS:;
#TIMESIGNATURES:0.000000=4=4
;
#TICKCOUNTS:0.000000=4
;
#COMBOS:0.000000=1
;
#SPEEDS:0.000000=1.000000=0.000000=0
;
#SCROLLS:0.000000=1.000000
;
#FAKES:;
#LABELS:0.000000=Song Start
;
#DISPLAYBPM:90.000000:180.000000;
#NOTES:
// measure 0
0000
0000
0000
0000
,  // measure 1
0000
0000
0000
0000
,  // measure 2
0000
0000
0000
0000
,  // measure 3
0000
0000
0000
0000
,  // measure 4
0200
0000
0000
0000
,  // measure 5
0300
0000
0000
0000
,  // measure 6
0200
0000
0000
0000
,  // measure 7
0300
0000
0000
0000
,  // measure 8
2002
0000
0000
0000
,  // measure 9
3003
0000
0000
0000
,  // measure 10
0200
0000
0000
0000
,  // measure 11
0300
0000
0000
0000
,  // measure 12
2002
0000
0000
0000
,  // measure 13
3003
0000
0000
0000
,  // measure 14
0100
0000
0000
0000
,  // measure 15
0010
0000
0000
0000
,  // measure 16
0002
0000
0000
0000
,  // measure 17
0000
0000
0003
0000
,  // measure 18
0200
0000
0300
0000
,  // measure 19
0020
0000
0030
0000
,  // measure 20
2000
0000
0000
0000
,  // measure 21
0000
0000
3000
0000
,  // measure 22
1001
0000
0000
0000
,  // measure 23
0020
0000
0030
0000
,  // measure 24
0001
0001
0002
0000
,  // measure 25
0003
0000
0000
0000
,  // measure 26
1000
1000
2000
0000
,  // measure 27
3000
0000
0000
0000
,  // measure 28
0001
0001
0002
0000
,  // measure 29
0003
0000
0000
0000
,  // measure 30
1000
1000
1000
0000
,  // measure 31
1001
0000
0000
0000
,  // measure 32
0000
0100
0100
0100
,  // measure 33
0000
0000
0000
0000
,  // measure 34
0000
0000
0000
1001
,  // measure 35
0000
0010
0000
0010
,  // measure 36
0000
0010
0010
0010
,  // measure 37
0020
0000
0030
0000
,  // measure 38
1000
0000
0001
0000
,  // measure 39
0020
0000
0030
0000
,  // measure 40
0010
0010
0010
0000
,  // measure 41
0001
0001
0001
0000
,  // measure 42
0100
0000
0010
0000
,  // measure 43
1000
1000
1000
0000
,  // measure 44
0100
0000
0010
0000
,  // measure 45
0001
0001
0001
0000
,  // measure 46
0100
0000
0010
0000
,  // measure 47
1000
0000
0001
0000
,  // measure 48
1000
0000
0001
0000
,  // measure 49
0000
0020
0000
0000
,  // measure 50
0000
0030
0000
0000
,  // measure 51
0001
0000
0010
0000
,  // measure 52
0001
0000
0000
0000
,  // measure 53
1000
0000
0010
0000
,  // measure 54
1000
0000
0000
0000
,  // measure 55
0001
0000
1000
0000
,  // measure 56
0001
0000
0000
0000
,  // measure 57
0010
0010
0010
0000
,  // measure 58
0001
0000
0001
0000
,  // measure 59
1000
0000
1000
0000
,  // measure 60
0001
0000
0001
0000
,  // measure 61
1000
0000
1000
0000
,  // measure 62
0001
0000
0001
0000
,  // measure 63
0200
0000
0000
0000
,  // measure 64
0000
0000
0300
0000
,  // measure 65
2002
0000
0000
0000
,  // measure 66
0000
0000
0000
0000
,  // measure 67
0000
3003
0000
0000
;
