#VERSION:0.83;
#TITLE:Gloo Gloo;
#SUBTITLE:;
#ARTIST:Christophe Heral & The Lums;
#TITLETRANSLIT:;
#SUBTITLETRANSLIT:;
#ARTISTTRANSLIT:;
#GENRE:Cartoon Rock;
#ORIGIN:;
#CREDIT:;
#BANNER:Gloo Gloo.png;
#BACKGROUND:Gloo Gloo-bg.png;
#PREVIEWVID:;
#JACKET:Gloo Gloo-jacket.png;
#CDIMAGE:;
#DISCIMAGE:;
#LYRICSPATH:Gloo Gloo.lrc;
#CDTITLE:cdtitle.png;
#MUSIC:Gloo Gloo.ogg;
#OFFSET:-0.046709;
#SAMPLESTART:17.661619;
#SAMPLELENGTH:9.600000;
#SELECTABLE:YES;
#BPMS:0.000=150.000,
236.000=124.443,
236.667=117.728,
237.333=105.674,
238.000=100.178,
238.667=93.055,
239.333=82.362,
240.000=74.052,
242.000=63.437;
#STOPS:;
#DELAYS:;
#WARPS:;
#TIMESIGNATURES:0.000=4=4;
#TICKCOUNTS:0.000=4;
#COMBOS:0.000=1;
#SPEEDS:0.000=1.000=0.000=0;
#SCROLLS:0.000=1.000,
236.000=1.205,
236.667=1.274,
237.333=1.419,
238.000=1.497,
238.667=1.612,
239.333=1.821,
240.000=2.026,
242.000=2.365;
#FAKES:;
#LABELS:0.000=Song Start;
#BGCHANGES:;
#KEYSOUNDS:;
#ATTACKS:
;

//---------------dance-single - ----------------
#NOTEDATA:;
#CHARTNAME:;
#STEPSTYPE:dance-single;
#DESCRIPTION:;
#CHARTSTYLE:;
#DIFFICULTY:Challenge;
#METER:16;
#RADARVALUES:0.934707,0.930124,1.447379,0.456023,0.565073,660.000000,514.000000,146.000000,46.000000,0.000000,0.000000,2.000000,0.000000,0.000000,0.934707,0.930124,1.447379,0.456023,0.565073,660.000000,514.000000,146.000000,46.000000,0.000000,0.000000,2.000000,0.000000,0.000000;
#CREDIT:;
#OFFSET:-0.046709;
#BPMS:0.000000=150.000000
,236.000000=124.442993
,236.666672=117.727997
,237.333328=105.674004
,238.000000=100.178001
,238.666672=93.055000
,239.333328=82.362000
,240.000000=74.052002
,242.000000=63.436996
;
#STOPS:;
#DELAYS:;
#WARPS:;
#TIMESIGNATURES:0.000000=4=4
;
#TICKCOUNTS:0.000000=4
;
#COMBOS:0.000000=1
;
#SPEEDS:0.000000=1.000000=0.000000=0
;
#SCROLLS:0.000000=1.000000
;
#FAKES:;
#LABELS:0.000000=Song Start
;
#NOTES:
0000
0000
0000
0000
,
0000
0000
0000
0000
,
0000
0000
0000
0000
,
0000
0000
0000
0000
,
0000
0000
0000
0000
0000
0000
0000
0000
0000
0000
0000
0000
1000
0001
0100
0010
,
1000
0000
0100
0010
0100
0000
0010
0000
0001
0000
1000
0010
1000
0010
0100
0001
,
0010
0000
0001
0000
0100
0000
0010
0000
1000
0000
0100
0000
0010
0100
1000
0001
,
0100
0000
0010
1000
0010
0000
0100
0000
0001
0000
1000
0100
1000
0100
0010
0001
,
0100
0000
0010
1000
0010
0000
1000
0001
0010
0000
0100
1000
0100
1000
0010
0100
,
0001
0000
1000
0100
1000
0000
0001
0100
0001
0000
1000
0010
1000
0010
0100
0001
,
0010
0000
0100
1000
0010
1000
0001
1000
0010
1000
0001
1000
0100
1000
0010
0100
,
0001
0000
0011
0000
1020
0000
1030
0000
1010
0000
0011
0000
0010
1000
0100
0010
,
0001
0000
0011
0000
1020
0000
1030
0000
1010
0000
0011
0000
0010
1000
0100
1000
,
0010
0000
1010
0000
0021
0000
0031
0000
0011
0000
1010
0000
0010
0001
0100
0010
,
1000
0000
1010
0000
0021
0000
0031
0000
0011
0000
1010
0000
0010
0001
0100
0000
,
0001
0000
0101
0000
1200
0000
1300
0000
1100
0000
0101
0000
0100
1000
0010
1000
,
0100
0000
0011
0000
1020
0000
1030
0000
1100
0000
0101
0000
0100
1000
0010
0100
,
0101
0000
0001
0000
0010
0000
0001
0000
0010
0000
0001
0010
0000
0001
0010
0000
,
1100
0000
1000
0000
0010
0000
1000
0000
0010
0000
1000
0010
0000
1000
0010
0000
,
0101
0000
0001
0000
0010
0000
0010
0000
0001
0000
0010
0001
0000
0001
0010
0000
,
1100
0000
1000
0000
0010
0000
0010
0000
1000
0000
1000
0010
0000
0010
1000
0000
,
1001
0000
0010
0000
0100
0000
0010
0000
1001
0000
0100
0010
0000
0100
0010
0000
,
0100
1001
0101
1001
1100
1001
0101
1001
,
0011
0000
0001
0000
0100
0000
0100
0000
0010
0000
0100
0001
0010
0001
0100
0000
,
1010
0000
1000
0000
0100
1000
0010
1000
0100
0000
1000
0010
0000
1000
0100
0000
,
0011
0000
0001
0000
0100
0000
0100
0000
0100
0000
0001
0010
0000
0001
0100
0010
,
1010
0000
1000
0000
0100
0000
0100
0000
0010
0000
0100
1000
0010
0100
0001
0000
,
1001
0100
0010
0100
1001
0010
0100
0010
,
0110
0000
1001
0000
0011
0000
1001
0000
1000
0010
0100
0001
0010
0001
0100
0010
,
1000
0000
1010
0000
0021
0000
0031
0000
0011
0000
1010
0000
0010
0001
0100
0010
,
1000
0000
1010
0000
0021
0000
0031
0000
0011
0000
1010
0000
0010
0001
0100
0001
,
0010
0000
0011
0000
1020
0000
1030
0000
1010
0000
0011
0000
0010
1000
0100
0010
,
0001
0000
0011
0000
1020
0000
1030
0000
1010
0000
0011
0000
0010
1000
0100
0000
,
1000
0000
1100
0000
0201
0000
0301
0000
0101
0000
1100
0000
0100
0001
0010
0001
,
0100
0000
1010
0000
0021
0000
0031
0000
0101
0000
1100
0000
0100
0001
0010
0000
,
0011
0000
0001
0000
0200
0000
0000
0000
0301
0000
0001
0200
0000
0000
0300
0000
,
1010
0000
1000
0000
0200
0000
0300
0000
1000
0000
1000
0200
0000
0000
0300
0000
,
1001
0000
1000
0000
0020
0000
0000
0000
1030
0000
1000
0020
0000
0000
0030
0000
,
1001
0000
0001
0000
0010
0000
0100
0000
0010
0000
0000
0010
0002
0000
0003
0000
,
0101
0000
0010
0000
2000
0000
0000
3010
2010
0000
0000
0000
3002
0000
0000
0003
,
0011
0000
0001
0000
0100
0000
0010
0000
0100
0000
0100
0002
0000
0000
0003
0000
,
1100
0000
1010
0000
0020
0000
0000
0000
1030
0000
1000
0020
0000
0000
0030
0000
,
0101
0000
0001
0000
0020
0000
0000
0000
0031
0000
0001
0020
0000
0000
0030
0000
,
1001
0000
0001
0000
0200
0000
0000
0000
0301
0000
0001
0200
0000
0000
0300
0000
,
1001
0000
1000
0000
0200
0000
0300
0000
1000
0000
1000
0200
0000
0000
0300
0000
,
1100
0000
0010
0000
0002
0000
0000
0003
0201
0000
0300
0010
2000
0000
3000
0000
,
1001
0100
1001
0010
1001
1010
1001
0011
,
0001
0000
0101
0000
1200
0000
1300
0000
1100
0000
0101
0000
0100
1000
0010
0010
,
0001
0000
0101
0000
1200
0000
1300
0000
1100
0000
0101
0000
0100
1000
0010
0010
,
0001
0000
0011
0000
1020
0000
1030
0000
1010
0000
0011
0000
0010
1000
0100
0100
,
0001
0000
0011
0000
1020
0000
1030
0000
1010
0000
0011
0000
0010
1000
0100
0100
,
0001
0000
0101
0000
1200
0000
1300
0000
1010
0000
0011
0000
0010
0001
0100
0000
,
0001
0000
0011
0000
1020
0000
1030
0000
1100
0000
0101
0000
0100
1000
0010
1000
,
0100
0000
1100
0000
0201
0000
0301
0000
0101
0000
1100
0000
0100
0001
0010
0010
,
1000
0000
1100
0000
0201
0000
0301
0000
0101
0000
1100
0000
0100
0001
0010
0010
,
1000
0000
1010
0000
0021
0000
0031
0000
0011
0000
1010
0000
0010
0001
0100
0100
,
1000
0000
1010
0000
0021
0000
0031
0000
0011
0000
1010
0000
0010
0001
0100
0100
,
1000
0000
1100
0000
0201
0000
0301
0000
0011
0000
1010
0000
0010
0001
0100
0001
,
0010
0000
0011
0000
1020
0000
1030
0000
1100
0000
0101
0000
0100
1000
0010
0100
,
0101
0000
1001
0000
0011
0000
1100
0000
1001
0000
1010
0000
,
0440
0000
0000
0000
0000
0000
0000
0000
0000
0000
0000
0000
0330
0000
0000
0000
1000
0001
0000
0000
0000
0000
0000
0000
0000
0000
0000
0000
0000
0000
0000
0000
;

//---------------dance-single - ----------------
#NOTEDATA:;
#CHARTNAME:;
#STEPSTYPE:dance-single;
#DESCRIPTION:;
#CHARTSTYLE:;
#DIFFICULTY:Hard;
#METER:12;
#RADARVALUES:0.608975,0.599770,0.426283,0.743517,0.153660,430.000000,387.000000,43.000000,75.000000,0.000000,0.000000,2.000000,0.000000,0.000000,0.608975,0.599770,0.426283,0.743517,0.153660,430.000000,387.000000,43.000000,75.000000,0.000000,0.000000,2.000000,0.000000,0.000000;
#CREDIT:;
#OFFSET:-0.046709;
#BPMS:0.000000=150.000000
,236.000000=124.442993
,236.666672=117.727997
,237.333328=105.674004
,238.000000=100.178001
,238.666672=93.055000
,239.333328=82.362000
,240.000000=74.052002
,242.000000=63.436996
;
#STOPS:;
#DELAYS:;
#WARPS:;
#TIMESIGNATURES:0.000000=4=4
;
#TICKCOUNTS:0.000000=4
;
#COMBOS:0.000000=1
;
#SPEEDS:0.000000=1.000000=0.000000=0
;
#SCROLLS:0.000000=1.000000
;
#FAKES:;
#LABELS:0.000000=Song Start
;
#NOTES:
// measure 0
0000
0000
0000
0000
,  // measure 1
0000
0000
0000
0000
,  // measure 2
0000
0000
0000
0000
,  // measure 3
0000
0000
0000
0000
,  // measure 4
0000
0000
0000
0000
0000
0000
0000
0000
0000
0000
0000
0000
1000
0001
1000
0001
,  // measure 5
1000
0100
0010
0001
1000
0010
0100
0001
,  // measure 6
1000
0100
0010
0001
1000
0010
0100
0001
,  // measure 7
1000
0100
1000
0010
0001
0010
1000
0100
,  // measure 8
0010
0001
1000
0001
0100
1000
0100
0001
,  // measure 9
0010
0100
1000
0010
0100
0001
0010
0001
,  // measure 10
1000
0010
0100
0001
1000
0100
0010
0001
,  // measure 11
0100
1000
2200
3300
1000
0100
0001
1000
,  // measure 12
0100
0001
0202
0303
0001
0100
1000
0001
,  // measure 13
0010
1000
2020
3030
1000
0010
0001
1000
,  // measure 14
0010
0001
0022
0033
0001
0010
1000
0001
,  // measure 15
0010
0100
2200
3300
1000
0010
0100
0001
,  // measure 16
0010
1000
2020
3030
1000
0010
0001
0100
,  // measure 17
0101
0000
0000
0000
1000
0000
0000
0000
1000
0000
0100
1000
0000
0100
1000
0000
,  // measure 18
1100
0000
0000
0000
0001
0000
0000
0000
0001
0000
0100
0001
0000
0100
0001
0000
,  // measure 19
0011
0000
0000
0000
1000
0000
1000
0000
0010
0000
1000
0010
0000
0010
1000
0000
,  // measure 20
1010
0000
0000
0000
0001
0000
0001
0000
0010
0000
0001
0010
0000
0010
0001
0000
,  // measure 21
1001
0000
0000
0000
0100
0000
0000
0000
1001
0000
0010
0100
0000
0100
0010
0000
,  // measure 22
0000
1000
1000
0001
0001
1000
1000
0010
,  // measure 23
0101
0000
0100
0001
0100
0001
0010
0100
,  // measure 24
1100
0000
0000
0000
0100
0000
1000
0000
0010
0000
1000
0010
0000
1000
0010
0000
,  // measure 25
1010
0000
0000
0000
1000
0000
0010
0000
0100
0000
0001
0010
0000
0001
0010
0000
,  // measure 26
0011
0000
0010
0001
1000
0010
0100
0001
,  // measure 27
1001
1000
0100
0000
1001
0001
0100
0010
,  // measure 28
0000
1000
1000
0001
0001
1000
1000
0001
,  // measure 29
0010
1000
2020
3030
1000
0010
0100
1000
,  // measure 30
0010
0001
0022
0033
0001
0010
0100
0001
,  // measure 31
0100
1000
2200
3300
1000
0100
0010
1000
,  // measure 32
0100
0001
0202
0303
0001
0100
0010
0001
,  // measure 33
0100
0010
2020
3030
1000
0100
0010
0001
,  // measure 34
0100
1000
2200
3300
1000
0100
0010
1000
,  // measure 35
0001
0000
1000
0000
0200
0000
0000
0000
1300
0000
0100
2000
0000
0000
3000
0000
,  // measure 36
1000
0000
0001
0000
0200
0000
0300
0000
0001
0000
0100
0002
0000
0000
0003
0000
,  // measure 37
0001
0000
0010
0000
0200
0000
0000
0000
0310
0000
0100
2000
0000
0000
3000
0000
,  // measure 38
1000
0000
0010
0000
0100
0000
0010
0000
0200
0000
0300
0001
0020
0000
0030
0000
,  // measure 39
0010
0000
0001
0000
0200
0000
0300
0010
2000
0000
0000
0000
3002
0000
0000
0000
,  // measure 40
1003
0000
0100
0000
0010
0000
0001
0000
0100
0000
0010
2000
0000
0000
3000
0000
,  // measure 41
1000
0000
0001
0000
0200
0000
0000
0000
0310
0000
1000
0002
0000
0000
0003
0000
,  // measure 42
0001
0000
1000
0000
0200
0000
0000
0000
0310
0000
0001
2000
0000
0000
3000
0000
,  // measure 43
1000
0000
0010
0000
0200
0000
0000
0000
0310
0000
1000
0002
0000
0000
0003
0000
,  // measure 44
0001
0000
0010
0000
0200
0000
0000
0000
0310
0000
0001
2000
0000
0000
3000
0000
,  // measure 45
1000
0000
0001
0000
0020
0000
0000
0000
0230
0000
0300
1000
0002
0000
0003
0000
,  // measure 46
0101
0000
1100
0000
1000
0010
0100
0001
,  // measure 47
1000
0100
0202
0303
0001
0100
1000
0001
,  // measure 48
0001
0100
2200
3300
1000
0100
0001
1000
,  // measure 49
1000
0010
0022
0033
0001
0010
1000
0001
,  // measure 50
0001
0010
2020
3030
1000
0010
0001
1000
,  // measure 51
1000
0001
0202
0300
1000
1000
0020
0030
,  // measure 52
0103
0010
2020
3030
1000
0001
0022
0033
,  // measure 53
0001
0100
2200
3300
1000
0100
0010
1000
,  // measure 54
1000
0100
0202
0303
0001
0100
0010
0001
,  // measure 55
0001
0010
2020
3030
1000
0010
0100
1000
,  // measure 56
1000
0010
0022
0033
0001
0010
0100
0001
,  // measure 57
0001
1000
2200
0300
0001
0001
0020
0030
,  // measure 58
3100
0010
0022
0033
0001
0100
0010
1000
,  // measure 59
1001
0000
0100
0000
0100
0000
1001
0000
0010
0000
0010
0000
,  // measure 60
4004
0000
0000
3003
1001
0000
0000
0000
;

//---------------dance-single - ----------------
#NOTEDATA:;
#CHARTNAME:;
#STEPSTYPE:dance-single;
#DESCRIPTION:;
#CHARTSTYLE:;
#DIFFICULTY:Medium;
#METER:9;
#RADARVALUES:0.451775,0.479816,0.267666,0.386629,0.039654,319.000000,292.000000,27.000000,39.000000,0.000000,0.000000,0.000000,0.000000,0.000000,0.451775,0.479816,0.267666,0.386629,0.039654,319.000000,292.000000,27.000000,39.000000,0.000000,0.000000,0.000000,0.000000,0.000000;
#CREDIT:;
#OFFSET:-0.046709;
#BPMS:0.000000=150.000000
,236.000000=124.442993
,236.666672=117.727997
,237.333328=105.674004
,238.000000=100.178001
,238.666672=93.055000
,239.333328=82.362000
,240.000000=74.052002
,242.000000=63.436996
;
#STOPS:;
#DELAYS:;
#WARPS:;
#TIMESIGNATURES:0.000000=4=4
;
#TICKCOUNTS:0.000000=4
;
#COMBOS:0.000000=1
;
#SPEEDS:0.000000=1.000000=0.000000=0
;
#SCROLLS:0.000000=1.000000
;
#FAKES:;
#LABELS:0.000000=Song Start
;
#NOTES:
0000
0000
0000
0000
,
0000
0000
0000
0000
,
0000
0000
0000
0000
,
0000
0000
0000
0000
,
0000
0000
0000
0000
0000
0000
1000
0001
,
1000
0000
0100
0000
0010
0000
0100
1000
,
0001
0000
0100
0000
0010
0000
0100
0001
,
0010
0000
1000
0000
0010
0000
0100
0010
,
0001
0000
0100
0000
1000
0000
0100
0001
,
1000
0000
0010
0000
1000
0000
0001
1000
,
0100
0000
0010
0000
0001
0100
0010
1000
,
0001
0100
0200
0000
0301
1000
0001
0000
,
1000
0100
0200
0000
1300
0001
1000
0000
,
0010
0100
0200
0000
0301
1000
0001
0000
,
0010
0100
0200
0000
1300
0001
1000
0000
,
0010
1000
2000
0000
3100
1000
0010
0000
,
1000
0001
0002
0000
1003
0001
1000
0000
,
1001
0100
0100
0100
,
1001
0010
0010
0010
,
0110
1000
1000
1000
,
0110
0001
0001
0001
,
1001
0100
1001
0010
,
0000
1000
0001
1000
0001
1000
0001
1000
,
1001
1000
1000
1000
,
1100
0001
0001
0001
,
1010
1000
1000
1000
,
0011
0001
0001
0001
,
1001
0100
1001
0010
,
0000
0001
1000
0001
1000
0001
1000
0001
,
1000
0100
0200
0000
0310
0001
1000
0000
,
0001
0100
0200
0000
0310
1000
0001
0000
,
0010
0100
0200
0000
1300
0001
0100
0000
,
0010
0100
0200
0000
0301
1000
0100
0000
,
1000
0010
0020
0000
0031
0010
1000
0000
,
0001
1000
2000
0000
3001
1000
0100
0000
,
0000
0000
1000
0000
0020
0000
0000
0000
1030
0000
0000
1010
0000
0000
0000
0000
,
0000
0000
0001
0000
0020
0000
0000
0000
0031
0000
0000
0011
0000
0000
0000
0000
,
0000
0000
0001
0000
0200
0000
0000
0000
0301
0000
0000
0101
0000
0000
0000
0000
,
0000
1000
0200
0000
1300
0000
1100
0000
,
0000
1000
0020
0000
0230
0000
0302
0000
,
0003
0000
1000
0000
0200
0000
0000
0000
0310
0000
0000
0011
0000
0000
0000
0000
,
0000
0000
0001
0000
0200
0000
0000
0000
0310
0000
0000
1100
0000
0000
0000
0000
,
0000
0000
1000
0000
0200
0000
0000
0000
0310
0000
0000
0101
0000
0000
0000
0000
,
0000
0000
0001
0000
0020
0000
0000
0000
0130
0000
0000
1010
0000
0000
0000
0000
,
0000
0000
1000
0000
0020
0000
0000
0000
0130
0000
0000
0011
0000
0000
0000
0000
,
0000
0001
0200
0000
0310
0000
0110
0000
,
1001
0000
1001
0000
1000
0001
1000
0001
,
1000
0100
0200
0000
0310
0001
1000
0001
,
0001
0100
0200
0000
0310
1000
0001
1000
,
1000
0100
0200
0000
0310
0100
1000
0001
,
0001
0100
0200
0000
0310
0100
0001
1000
,
1000
0001
0002
0000
0013
0001
0100
0000
,
0001
1000
2000
0000
3001
0001
1000
0000
,
0001
0100
0200
0000
1300
0100
0010
0100
,
0100
0001
0002
0000
0013
0100
1000
0010
,
0010
0100
0200
0000
0301
1000
0010
1000
,
1000
0100
0200
0000
0301
0100
0010
0100
,
0100
1000
2000
0000
3010
1000
0100
0000
,
1000
0001
0002
0000
1003
1000
0001
0000
,
1001
0000
0110
0000
,
2002
0000
3003
0000
;

//---------------dance-single - ----------------
#NOTEDATA:;
#CHARTNAME:;
#STEPSTYPE:dance-single;
#DESCRIPTION:;
#CHARTSTYLE:;
#DIFFICULTY:Easy;
#METER:5;
#RADARVALUES:0.301655,0.389850,0.346974,0.337061,0.000000,213.000000,178.000000,35.000000,34.000000,0.000000,0.000000,0.000000,0.000000,0.000000,0.301655,0.389850,0.346974,0.337061,0.000000,213.000000,178.000000,35.000000,34.000000,0.000000,0.000000,0.000000,0.000000,0.000000;
#CREDIT:;
#OFFSET:-0.046709;
#BPMS:0.000000=150.000000
,236.000000=124.442993
,236.666672=117.727997
,237.333328=105.674004
,238.000000=100.178001
,238.666672=93.055000
,239.333328=82.362000
,240.000000=74.052002
,242.000000=63.436996
;
#STOPS:;
#DELAYS:;
#WARPS:;
#TIMESIGNATURES:0.000000=4=4
;
#TICKCOUNTS:0.000000=4
;
#COMBOS:0.000000=1
;
#SPEEDS:0.000000=1.000000=0.000000=0
;
#SCROLLS:0.000000=1.000000
;
#FAKES:;
#LABELS:0.000000=Song Start
;
#NOTES:
0000
0000
0000
0000
,
0000
0000
0000
0000
,
0000
0000
0000
0000
,
0000
0000
0000
0000
,
0000
0000
0000
0000
,
1000
0100
0010
0001
,
1000
0100
0010
0001
,
0100
1000
0100
0001
,
0010
1000
0010
0001
,
1000
0010
0100
0001
,
1000
0100
0010
0001
,
1000
0100
0001
0001
,
0100
1000
0001
0001
,
1000
0010
0001
0001
,
0010
1000
0001
0001
,
0010
1000
0010
0010
,
0001
0100
0010
0010
,
2002
3003
0000
0000
,
0220
0330
0000
0000
,
0022
0033
0000
0000
,
2020
3030
0000
0000
,
2002
3003
0220
0330
,
0000
0101
1001
1100
,
2002
3003
0000
0000
,
0220
0330
0000
0000
,
2020
3030
0000
0000
,
0022
0033
0000
0000
,
2002
3003
0220
0330
,
0000
1010
1001
0011
,
0001
0100
1000
1000
,
0100
0001
1000
1000
,
0001
0010
1000
1000
,
0010
0001
1000
1000
,
0010
0001
0010
0010
,
1000
0100
0010
0010
,
0000
0001
0100
0001
,
0000
1000
0100
1000
,
0000
0010
1000
0010
,
0000
0010
0001
0010
,
0000
1000
0001
1000
,
0000
0001
1000
0001
,
0000
1000
0100
1000
,
0000
0001
0100
0001
,
0000
0010
0001
0010
,
0000
0010
1000
0010
,
0000
0001
1000
0001
,
0100
0100
1001
1001
,
1000
0010
1000
0100
,
0102
0013
0001
0100
,
2100
3001
0010
0001
,
0102
1003
0010
1000
,
2001
3100
1001
1001
,
1000
0100
0010
0010
,
0001
0100
0001
0010
,
2010
3100
1000
0010
,
0012
1003
0100
1000
,
2010
3001
0100
0001
,
1002
0103
1001
1001
,
0001
0010
0100
0100
,
1001
0000
0110
0000
,
2002
0000
3003
0000
;

//---------------dance-single - ----------------
#NOTEDATA:;
#CHARTNAME:;
#STEPSTYPE:dance-single;
#DESCRIPTION:;
#CHARTSTYLE:;
#DIFFICULTY:Beginner;
#METER:2;
#RADARVALUES:0.174195,0.239908,0.049568,0.019827,0.000000,123.000000,118.000000,5.000000,2.000000,0.000000,0.000000,0.000000,0.000000,0.000000,0.174195,0.239908,0.049568,0.019827,0.000000,123.000000,118.000000,5.000000,2.000000,0.000000,0.000000,0.000000,0.000000,0.000000;
#CREDIT:;
#NOTES:
0000
0000
0000
0000
,
0000
0000
0000
0000
,
0000
0000
0000
0000
,
0000
0000
0000
0000
,
0000
0000
0000
0000
,
1000
0000
0001
0000
,
1000
0000
0001
0000
,
0100
0000
0010
0000
,
1000
0000
0001
0000
,
0010
0000
0100
0000
,
1000
0000
0001
0000
,
0000
0100
0100
0100
,
0000
0100
0100
0100
,
0000
0010
0010
0010
,
0000
0010
0010
0010
,
0000
1000
1000
1000
,
0000
0001
0001
0001
,
0001
0000
0000
0000
,
0001
0000
0000
0000
,
1000
0000
0000
0000
,
1000
0000
0000
0000
,
0110
0000
1001
0000
,
0000
1000
1000
1000
,
1000
0000
0000
0000
,
1000
0000
0000
0000
,
0001
0000
0000
0000
,
0001
0000
0000
0000
,
0110
0000
1001
0000
,
0000
1000
1000
1000
,
0000
0100
0100
0100
,
0000
0100
0100
0100
,
0000
0010
0010
0010
,
0000
0010
0010
0010
,
0000
0001
0001
0001
,
0000
1000
1000
1000
,
1000
0000
0000
0000
,
1000
0000
0000
0000
,
0010
0000
0000
0000
,
0010
0000
0000
0000
,
0100
0000
0001
0000
,
1000
0000
0000
0000
,
0001
0000
0000
0000
,
0001
0000
0000
0000
,
0010
0000
0000
0000
,
0010
0000
0000
0000
,
0100
0000
1000
0000
,
0001
0001
0001
0001
,
0000
1000
1000
1000
,
0000
0010
0010
0010
,
0000
0100
0100
0100
,
0000
0001
0001
0001
,
0000
1000
0000
0001
,
0000
1000
1000
1000
,
0000
0001
0001
0001
,
0000
0010
0010
0010
,
0000
0100
0100
0100
,
0000
1000
1000
1000
,
0000
0001
0000
1000
,
0000
0001
0001
0001
,
0000
0000
0000
0000
,
2002
0000
3003
0000
;
