#VERSION:0.83;
#TITLE:Flashdance;
#SUBTITLE:;
#ARTIST:litmus*;
#TITLETRANSLIT:;
#SUBTITLETRANSLIT:;
#ARTISTTRANSLIT:;
#GENRE:Electro House;
#ORIGIN:;
#CREDIT:;
#BANNER:Flashdance.png;
#BACKGROUND:Flashdance-bg.png;
#PREVIEWVID:;
#JACKET:Flashdance-jacket.png;
#CDIMAGE:;
#DISCIMAGE:;
#LYRICSPATH:;
#CDTITLE:cdtitle.png;
#MUSIC:Flashdance.ogg;
#OFFSET:1.582012;
#SAMPLESTART:24.264139;
#SAMPLELENGTH:14.769232;
#SELECTABLE:YES;
#BPMS:0.000=130.000,
120.000=65.000,
128.000=130.000;
#STOPS:;
#DELAYS:;
#WARPS:;
#TIMESIGNATURES:0.000=4=4;
#TICKCOUNTS:0.000=4;
#COMBOS:0.000=1;
#SPEEDS:0.000=1.000=0.000=0;
#SCROLLS:0.000=1.000;
#FAKES:;
#LABELS:0.000=Song Start;
#BGCHANGES:2.500=Flashdance.avi=1.000=1=0=0=StretchNoLoop==CrossFade==,
99999=-nosongbg-=1.000=0=0=0 // don't automatically add -songbackground-
;
#KEYSOUNDS:;
#ATTACKS:
;

//---------------dance-single - ----------------
#NOTEDATA:;
#CHARTNAME:;
#STEPSTYPE:dance-single;
#DESCRIPTION:;
#CHARTSTYLE:;
#DIFFICULTY:Challenge;
#METER:15;
#RADARVALUES:0.687755,0.961446,0.290309,0.435463,0.866894,597.000000,561.000000,36.000000,54.000000,32.000000,0.000000,2.000000,0.000000,0.000000,0.687755,0.961446,0.290309,0.435463,0.866894,597.000000,561.000000,36.000000,54.000000,32.000000,0.000000,2.000000,0.000000,0.000000;
#CREDIT:;
#OFFSET:1.582012;
#BPMS:0.000000=130.000000
,32.000000=260.000000
,32.666668=130.000000
,33.000000=65.000000
,33.333332=130.000000
,33.500000=260.000000
,34.166668=130.000000
,34.666668=65.000000
,35.000000=260.000000
,35.666668=130.000000
,36.166668=65.000000
,36.500000=130.000000
,38.000000=65.000000
,39.000000=130.000000
,70.000000=260.000000
,71.000000=130.000000
,119.000000=65.000000
,135.000000=130.000000
;
#STOPS:70.000000=0.115385
,70.500000=0.115385
;
#DELAYS:;
#WARPS:;
#TIMESIGNATURES:0.000000=4=4
;
#TICKCOUNTS:0.000000=4
;
#COMBOS:0.000000=1
;
#SPEEDS:0.000000=1.000000=0.000000=0
,127.000000=2.000000=7.500000=0
,238.500000=1.000000=8.000000=0
;
#SCROLLS:0.000000=1.000000
,36.500000=0.500000
,38.000000=1.000000
,88.000000=4.000000
,88.125000=0.500000
,89.000000=4.000000
,89.125000=0.500000
,90.000000=1.000000
,96.000000=4.000000
,96.125000=0.500000
,97.000000=4.000000
,97.125000=0.500000
,98.000000=1.000000
,104.000000=4.000000
,104.125000=0.500000
,105.000000=4.000000
,105.125000=0.500000
,106.000000=1.000000
,112.000000=4.000000
,112.125000=0.500000
,113.000000=4.000000
,113.125000=0.500000
,114.000000=1.000000
,135.000000=0.500000
,163.000000=0.250000
,166.000000=0.500000
;
#FAKES:;
#LABELS:0.000000=Song Start
;
#NOTES:
// measure 0
0000
0000
0000
0000
,  // measure 1
0000
0000
0000
0000
,  // measure 2
0000
0000
0000
0000
,  // measure 3
0000
0000
0000
0000
,  // measure 4
0000
0000
0000
0000
,  // measure 5
0000
0000
0000
0000
,  // measure 6
0002
0000
0000
0010
0000
0000
0013
0000
0000
0001
0000
0000
0011
0000
1000
0010
,  // measure 7
2000
0000
0000
0010
0000
0000
3010
0000
0000
1000
0000
0000
1010
0000
0001
2000
,  // measure 8
0200
0000
0000
0000
0000
0000
0000
0000
0000
0000
0000
0000
0000
0000
3300
0000
0000
0000
0220
0000
0000
0000
0000
0000
0000
0000
0000
0000
0000
0000
0000
0000
0000
0330
0000
0000
0022
0000
0000
0000
0000
0000
0000
0000
0000
0000
0000
0000
,  // measure 9
0000
0000
0000
0000
0000
0000
0000
0000
0033
0000
0000
0000
0000
0000
0000
0000
0001
0000
0000
0001
0010
0000
0001
0000
1000
0000
0000
0000
0000
0000
0010
0000
,  // measure 10
0000
0000
1000
0000
0100
0000
0000
1000
0000
0000
0001
0000
0010
0000
0000
0001
,  // measure 11
0000
0000
0100
0000
0001
0000
0000
1000
0000
0000
0010
0000
1000
0000
0100
0000
,  // measure 12
0010
0000
0001
0000
1000
0100
0010
0001
1000
0100
0010
0001
2000
0000
3020
0000
,  // measure 13
0230
0000
2300
0000
3002
0000
0023
0000
0230
0000
0302
0000
1003
0000
1000
0100
,  // measure 14
0010
0000
0001
0100
M00M
0100
1000
0100
1000
0000
0001
0100
0001
0000
1000
0001
,  // measure 15
1000
0000
0001
0010
0001
0000
0100
0001
0000
1000
0100
1000
0001
0000
0001
0100
,  // measure 16
0010
0000
1000
0100
M00M
0100
0001
0100
0001
0000
1000
0100
1000
0000
0001
1000
,  // measure 17
0001
0000
1000
0010
1000
0000
0100
1000
0001
0000
0001
0000
1000
0000
0010
1000
,  // measure 18
0100
0000
1000
0010
M00M
0010
0001
0100
0001
0000
1000
0010
0100
0000
0001
0010
,  // measure 19
0100
0000
1000
0001
0100
0000
0010
1000
0000
1000
0100
0010
0001
0000
0010
0001
,  // measure 20
0100
0000
0001
0010
M00M
0010
1000
0100
1000
0000
0100
0010
0002
0000
0023
0000
,  // measure 21
0230
0302
2003
3020
0230
2300
3001
0001
,  // measure 22
MM12
0000
0000
0000
0000
0000
0000
0000
0000
0000
0000
0000
0000
0000
0000
0000
0000
0000
0000
0000
0000
0000
0000
0000
0000
0000
0000
0000
0000
0000
0000
0000
0000
0000
0000
0000
0000
0000
0000
0000
0000
0000
0000
0000
0000
0000
0000
0003
2M1M
0000
0000
0000
0000
0000
0000
0000
0000
0000
0000
0000
0000
0000
0000
0000
0000
0000
0000
0000
0000
0000
0000
0000
0000
0000
0000
0000
0000
0000
0000
0000
0000
0000
0000
0000
0000
0000
0000
0000
0000
0000
3000
0000
0000
0000
0000
0000
0101
0000
0000
0000
0000
0000
0000
0000
0000
0000
0000
0000
0000
0000
0000
0000
0000
0000
0000
0000
0000
0000
0000
0000
0001
0000
0000
0000
0000
0000
0000
0000
0000
0000
0000
0000
0010
0000
0000
0000
0000
0000
0000
0000
0000
0000
0000
0000
0000
0000
0000
0000
0000
0000
00M0
0000
0000
0000
0000
0000
1000
0000
0000
0000
0000
0000
0000
0000
0000
0000
0000
0000
0100
0000
0000
0000
0000
0000
0000
0000
0000
0000
0000
0000
1000
0000
0000
0000
0000
0000
0000
0000
0000
0000
0000
0000
,  // measure 23
0010
0000
0000
1000
0000
0000
0101
0000
0000
0000
0101
0000
0000
0000
0101
0000
0000
0000
1000
0000
0000
1000
0000
0000
,  // measure 24
2M1M
0000
0000
0000
0000
0000
0000
3000
MM12
0000
0000
0000
0000
0000
0000
0003
1000
0000
0100
0000
1000
0000
0100
0000
0010
0000
0000
0000
0010
0000
0001
0000
,  // measure 25
0000
0000
0000
0001
0000
0000
0100
0000
0000
0000
0000
0000
0110
0000
0000
0000
0000
0000
0000
0000
1010
0000
0000
0000
0000
0000
0000
0000
1001
0000
0000
0000
0000
0000
0000
0000
1000
0000
0000
0000
0000
0000
1000
0000
0000
0000
0000
0000
,  // measure 26
21MM
0000
0000
0000
0000
0000
0000
3000
M1M2
0000
0000
0000
0000
0000
0000
0003
1010
0000
0000
0000
1000
0000
0010
0000
0000
00M0
0001
0000
0100
0000
0001
0000
,  // measure 27
0010
0000
0000
0001
0000
0000
1100
0000
0000
0000
1100
0000
0000
0000
1100
0000
0000
0000
0001
0000
0000
0001
0000
0000
,  // measure 28
M1M2
0000
0000
0000
0000
0000
0000
0003
21MM
0000
0000
0000
0000
0000
0000
3000
0001
0000
0100
0000
0010
0000
1000
0000
0001
0000
0010
0000
0001
0000
0010
0000
,  // measure 29
0100
0000
1000
0000
0100
0000
1000
0000
0001
0000
0010
0000
0100
0000
1000
0000
0020
0000
0000
0000
0000
0000
0000
0000
1030
0000
1000
0000
0100
1000
0000
0001
,  // measure 30
0000
0000
0100
0000
0001
0000
1000
0000
0001
0000
0001
0000
0010
0001
0000
1000
0000
0000
0010
0000
1000
0000
0001
0000
0010
0000
0010
0000
0100
1000
0000
0010
,  // measure 31
0000
0000
0100
0000
0001
0000
0010
0000
1000
0000
0010
0000
0001
0000
0000
0001
0000
0000
0100
0000
0010
0000
1000
0000
0001
0000
0001
0000
0100
0001
0000
0001
,  // measure 32
1000
0000
0100
0000
1000
0000
0001
0000
1000
0000
1000
0000
0010
1000
0000
1000
0001
0000
0010
0000
0001
0000
1000
0000
0010
0000
0010
0000
0100
0001
0000
0001
,  // measure 33
0010
0000
0100
0000
1000
0000
0010
0000
0001
0000
0010
1000
0000
0100
0000
0001
0000
0100
1000
0000
1001
0000
0000
0000
1020
0000
0000
0000
0000
0000
0000
0000
,  // measure 34
1030
0010
M00M
0020
0001
0000
0000
0000
0130
0000
0010
0000
0021
0000
0000
0000
,  // measure 35
0031
0010
M00M
0020
1000
0000
0000
0000
1030
0000
0100
0000
0210
0000
0000
0000
,  // measure 36
1300
0100
M00M
0200
0001
0000
0000
0000
0310
0000
1000
0000
0100
0000
0001
0000
,  // measure 37
0200
0000
0000
2300
0000
0000
3001
0000
0010
0000
0100
0000
1000
0000
1000
0000
,  // measure 38
0010
0010
0100
0100
0001
0001
0010
1000
,  // measure 39
0010
0000
0001
0000
0100
0000
1000
0000
0001
0000
0010
0000
1000
0001
1000
0001
,  // measure 40
0010
0100
0010
0100
4000
0004
0000
0000
0000
0000
0000
0000
3003
0000
0000
0000
,  // measure 41
0000
0000
1000
0010
0000
1000
0100
0000
1100
0000
0010
0001
0000
0100
0002
0000
,  // measure 42
1000
0000
0013
0001
0000
0100
0002
0000
1000
0000
0013
0001
0000
0100
0002
0000
,  // measure 43
1000
0000
0013
0001
0000
1000
0020
0000
1000
0000
0130
0001
0000
0001
0020
0000
,  // measure 44
0001
0000
0130
1000
0000
1000
0020
0000
1000
0000
0130
0001
0000
0010
0001
0000
,  // measure 45
0011
0000
0100
1000
0000
0010
1000
0000
1010
0000
0010
1000
0000
0100
2000
0000
,  // measure 46
0001
0000
3010
1000
0000
0100
2000
0000
0001
0000
3010
1000
0000
0100
2000
0000
,  // measure 47
0001
0000
3010
1000
0000
0001
0020
0000
0001
0000
0130
1000
0000
1000
0020
0000
,  // measure 48
1000
0000
0130
0001
0000
0001
0020
0000
0001
0000
0130
1000
0001
0100
0001
0100
,  // measure 49
0001
1000
0001
1000
0001
0010
0001
0100
0001
0000
1000
0100
0010
0100
0001
0000
,  // measure 50
0100
0000
0001
0100
0010
0100
1000
0000
0100
0000
1000
0100
0010
0100
0001
0000
,  // measure 51
0100
0000
0001
0100
0010
0001
0100
0000
0010
0000
0100
0010
1000
0010
0100
0000
,  // measure 52
0010
0000
0100
0010
0001
0010
0100
0000
0010
0000
1000
0010
0100
0001
0010
0000
,  // measure 53
0011
0000
0010
0001
0100
0010
1000
0000
1010
0000
0001
0100
0010
0100
1000
0000
,  // measure 54
0100
0000
1000
0100
0010
0100
0001
0000
0100
0000
0001
0100
0010
0100
1000
0000
,  // measure 55
0100
0000
1000
0100
0010
1000
0100
0000
0010
0000
0100
0010
0001
0010
0100
0000
,  // measure 56
0010
0000
0100
0010
1000
0010
0100
0000
0010
0000
0001
0100
0010
1000
0100
1000
,  // measure 57
0010
0100
0001
0010
0001
0100
0010
1000
0001
0000
1000
0100
0000
0100
0010
0000
,  // measure 58
1100
0000
0001
0100
0000
0100
0010
0000
0101
0000
1000
0010
0000
0010
0100
0000
,  // measure 59
1010
0000
0001
0010
0000
0010
0100
0000
0011
0000
1000
0100
0000
1000
0010
0000
,  // measure 60
1000
0000
0001
0100
0000
0001
0010
0000
0001
0000
1000
0010
0000
1000
0010
0000
,  // measure 61
1000
0000
0001
0010
0000
0001
0010
0000
0001
0000
0200
0000
0000
0000
0000
0000
,  // measure 62
0000
0000
0000
0300
;

//---------------dance-single - ----------------
#NOTEDATA:;
#CHARTNAME:;
#STEPSTYPE:dance-single;
#DESCRIPTION:;
#CHARTSTYLE:;
#DIFFICULTY:Hard;
#METER:12;
#RADARVALUES:0.496520,0.660452,0.322565,0.209667,0.419335,431.000000,391.000000,40.000000,26.000000,0.000000,0.000000,0.000000,0.000000,0.000000,0.496520,0.660452,0.322565,0.209667,0.419335,431.000000,391.000000,40.000000,26.000000,0.000000,0.000000,0.000000,0.000000,0.000000;
#CREDIT:;
#OFFSET:1.582012;
#BPMS:0.000000=130.000000
,120.000000=65.000000
,136.000000=130.000000
;
#STOPS:;
#DELAYS:;
#WARPS:;
#TIMESIGNATURES:0.000000=4=4
;
#TICKCOUNTS:0.000000=4
;
#COMBOS:0.000000=1
;
#SPEEDS:0.000000=1.000000=0.000000=0
;
#SCROLLS:0.000000=1.000000
,128.000000=1.500000
,136.000000=1.000000
;
#FAKES:;
#LABELS:0.000000=Song Start
;
#NOTES:
0000
0000
0000
0000
,
0000
0000
0000
0000
,
0000
0000
0000
0000
,
0000
0000
0000
0000
,
0000
0000
0000
0000
,
0000
0000
0000
0000
,
0002
0000
0000
0010
0000
0000
0013
0000
0000
0001
0000
0000
1000
0000
0001
0000
,
2000
0000
0000
0010
0000
0000
3010
0000
0000
1000
0000
0000
0001
0000
1000
0000
,
2200
0000
3300
0220
0000
0330
0022
0000
,
0000
0000
0000
0033
,
1000
0000
0000
1000
0000
0000
1000
0000
0001
0000
0000
0001
0000
0000
0001
0000
,
1000
0000
0000
1000
0000
0000
1000
0000
0001
0000
0000
0001
0000
0000
0001
0000
,
1000
0100
0010
0001
0100
1000
0100
0001
,
0020
0000
0030
1001
,
1000
0000
0010
0000
0100
0000
0000
0100
0000
0000
0010
0000
1000
0000
0100
0000
,
0100
0000
0010
0000
0010
0000
0001
0000
1000
0000
0000
0010
0000
0000
1000
0000
,
0001
0000
0010
0000
0100
0000
0000
0100
0000
0000
0010
0000
0001
0000
0100
0000
,
0100
0010
0010
1000
0001
0010
0110
0000
,
0001
0000
0100
0000
1000
0000
0000
1000
0000
0000
0100
0000
0001
0000
0010
0000
,
0010
0000
0100
0000
0100
0000
1000
0000
0010
0000
0000
0001
0000
0000
0010
0000
,
1000
0000
0100
0000
0001
0000
0000
0001
0000
0000
0100
0000
1000
0000
0001
0000
,
0200
0000
0320
0000
2030
0000
3100
0010
,
0100
0000
0100
0000
0011
0000
0000
0000
1010
0000
0000
0000
0010
0000
1000
0100
,
0000
0000
0000
0100
0000
0000
0010
0000
0000
0001
0000
0000
0100
0000
0000
0000
0100
0000
0000
0000
0100
0000
0000
0000
,
0001
0010
1100
0000
0101
0000
0001
0100
,
0010
0000
0000
0000
0000
0000
1000
0000
0000
0100
0000
0000
0000
0000
0000
1000
0000
0000
0100
0000
0000
0000
0000
0000
0010
0000
0000
0000
0000
0000
0000
0000
0001
0000
0000
0000
0000
0000
0000
0000
0001
0000
0000
0000
0000
0000
0000
0000
,
0100
0000
0100
0000
1010
0000
0000
0000
0011
0000
0000
0000
0010
0000
0001
0100
,
0000
0000
0000
0100
0000
0000
0010
0000
0000
1000
0000
0000
0100
0000
0000
0000
0100
0000
0000
0000
0100
0000
0000
0000
,
1000
0010
0101
0000
1100
0000
1000
0100
,
1000
0010
0100
0001
0010
0001
1001
0000
,
2000
0100
0100
0100
3002
0100
0100
0100
,
2003
0010
0010
0010
3002
0010
0010
0010
,
1003
1000
0100
0000
1000
0000
0001
0100
0001
0001
0100
0000
0001
0000
1000
0100
,
0010
0001
0100
0000
0010
0000
1000
0010
0001
0010
1000
0000
0100
0010
0001
0000
,
2001
0000
0000
0000
3001
0100
0000
0100
0002
0000
0000
0000
0013
0000
0001
0000
,
1002
0000
0000
0000
1003
0010
0000
0010
2000
0000
0000
0000
3100
0000
1000
0000
,
1002
0000
0000
0000
0013
0001
0000
0001
2000
0000
0000
0000
3010
0000
1000
0000
,
0100
0000
0001
0000
0200
0000
0000
2300
0000
0000
3001
0000
0100
0000
0010
0000
,
1000
1000
0001
0001
1000
1000
0001
0001
,
1000
0010
0100
0001
0010
0100
1000
0100
,
0001
0100
0001
0100
0010
0001
0100
0010
,
2000
0000
0000
0000
0000
0000
0000
0001
0000
0000
3001
0000
1001
0000
0000
1000
,
0000
0001
0100
0000
0001
0000
0000
0001
0000
1000
0100
0000
1000
0000
0000
1000
,
0000
0010
1000
0000
0001
0000
0000
0001
0000
0010
0001
0000
1000
0000
0000
0010
,
0000
0010
1000
0000
0100
0000
0000
0010
0000
0010
0001
0000
0100
0000
0000
1010
,
0000
0100
0001
0000
0001
0000
0000
0011
0000
0100
1000
0000
1000
0000
0000
0001
,
0000
0100
0010
0000
0100
0000
0000
1000
0000
0100
0010
0000
0100
0000
0000
0001
,
0000
0010
0100
0000
0010
0000
0000
1000
0000
0010
0100
0000
0010
0000
0000
0001
,
0000
0001
0100
0000
0010
0000
0000
1000
0000
1000
0100
0000
0010
0000
0000
0010
,
0001
0000
0100
0000
1000
0000
0100
0000
0001
0000
0010
0000
0110
0000
0000
1001
,
0000
1000
0001
0000
0100
0000
0000
0101
0000
0001
1000
0000
0100
0000
0000
1100
,
0000
1000
0001
0000
0100
0000
0000
0101
0000
0100
0001
0000
0010
0000
0000
0011
,
0000
1000
0010
0000
1000
0000
0000
1010
0000
0001
0010
0000
0001
0000
0000
0101
,
0000
0000
1010
0000
1010
0000
0000
1100
0000
0000
0011
0000
0011
0000
0000
1001
,
0000
0001
0100
0000
1000
0000
0000
1100
0000
1000
0100
0000
0001
0000
0000
1001
,
0000
0001
0010
0000
1000
0000
0000
1010
0000
1000
0010
0000
0001
0000
0000
0011
,
0000
0100
1000
0000
0010
0000
0000
1010
0000
0100
0001
0000
0010
0000
0000
0100
,
1000
0000
0010
0000
0001
0000
0010
0000
1000
0000
0100
0000
0110
0000
0000
0001
,
0000
0000
0010
0000
0010
0000
0000
1000
0000
0000
0100
0000
0100
0000
0000
0001
,
0000
0000
0010
0000
0010
0000
0000
1000
0000
0000
0100
0000
0100
0000
0000
0001
,
0000
0000
0010
0000
0001
0000
0000
0010
0000
0000
1000
0000
0010
0000
0000
1000
,
0000
0000
0100
0000
1000
0000
0000
0100
0000
0000
0001
0000
0100
0000
0002
0000
,
0000
0000
0000
0000
,
0003
0000
0000
0000
;

//---------------dance-single - ----------------
#NOTEDATA:;
#CHARTNAME:;
#STEPSTYPE:dance-single;
#DESCRIPTION:;
#CHARTSTYLE:;
#DIFFICULTY:Medium;
#METER:8;
#RADARVALUES:0.353670,0.482638,0.153218,0.129026,0.000000,307.000000,288.000000,19.000000,16.000000,0.000000,0.000000,0.000000,0.000000,0.000000,0.353670,0.482638,0.153218,0.129026,0.000000,307.000000,288.000000,19.000000,16.000000,0.000000,0.000000,0.000000,0.000000,0.000000;
#CREDIT:;
#OFFSET:1.582012;
#BPMS:0.000000=130.000000
,120.000000=65.000000
,136.000000=130.000000
;
#STOPS:;
#DELAYS:;
#WARPS:;
#TIMESIGNATURES:0.000000=4=4
;
#TICKCOUNTS:0.000000=4
;
#COMBOS:0.000000=1
;
#SPEEDS:0.000000=1.000000=0.000000=0
;
#SCROLLS:0.000000=1.000000
,128.000000=1.500000
,136.000000=1.000000
;
#FAKES:;
#LABELS:0.000000=Song Start
;
#NOTES:
0000
0000
0000
0000
,
0000
0000
0000
0000
,
0000
0000
0000
0000
,
0000
0000
0000
0000
,
0000
0000
0000
0000
,
0000
0000
0000
0000
,
0002
0000
0010
0000
1000
0000
0013
0001
,
2000
0000
0010
0000
0001
0000
3010
1000
,
0002
0000
0000
0023
0000
0000
0200
0000
,
0000
0000
0000
0330
,
1000
1000
0001
0001
,
1000
1000
0001
0001
,
1000
0001
1000
0001
0100
0010
0100
0010
,
0200
0000
0000
0300
,
0001
0010
0100
0000
0100
0010
0001
0000
,
0101
0000
1100
0000
1000
0001
0001
0000
,
1000
0010
0100
0000
0100
0010
1000
0000
,
1100
0000
0101
0000
0001
0010
0001
0000
,
1000
0001
0100
0000
0100
0001
1000
0000
,
1100
0000
0011
0000
0001
1000
1000
0000
,
0010
1000
0001
0000
0001
1000
0010
0000
,
2000
3200
0320
0032
,
1003
1000
0010
0000
1001
0000
1000
0100
,
0001
0000
0001
0100
1000
0000
1000
0000
,
0001
0001
0010
0000
1001
0000
0001
0100
,
0010
0000
1000
0100
0010
0000
0001
0000
,
0100
0100
0001
0000
1001
0000
0001
0100
,
1000
0000
1000
0100
0001
0000
0010
0000
,
0100
0100
1000
0000
1001
0000
1000
0010
,
0100
0001
1000
1001
,
2000
0100
3002
0100
,
2003
0010
3002
0010
,
1003
0100
0010
0001
1000
0010
0100
0001
,
0010
0100
1000
0001
0100
0010
0100
0110
,
1001
0000
1000
0100
1000
0000
0001
1000
,
0001
0000
1000
0010
1000
0000
0001
0010
,
0001
0000
1000
0001
1000
0000
0001
0100
,
0001
0000
0001
0000
0100
0001
1000
0000
,
0100
0100
0010
0010
,
0001
0010
1000
0010
,
0001
0100
1000
0100
,
0002
0000
0003
1001
,
1000
0100
1000
0000
0001
0100
0001
0000
,
1000
0100
1000
0000
0001
0100
0001
0000
,
1000
0010
1000
0000
0001
0010
0001
0000
,
1000
0001
0100
0000
0001
1000
0100
0000
,
0010
0001
0010
0000
0001
0100
0001
0000
,
0010
0001
0010
0000
0001
0100
0001
0000
,
1000
0100
1000
0000
0010
1000
0010
0000
,
1000
0000
0100
0000
0010
0010
1001
0000
,
0001
0100
0010
0000
1000
0100
0010
0000
,
0001
0100
0010
0000
1000
0100
0010
0000
,
0100
1000
0010
0000
0100
0001
0010
0000
,
0001
0010
1000
0000
1000
0010
0001
0000
,
0010
0001
0100
0000
0010
1000
0100
0000
,
0010
0001
0100
0000
0010
1000
0100
0000
,
1000
0100
0001
0000
0001
0100
1000
0000
,
0001
0000
0100
0000
0010
1000
0100
0010
,
0000
0001
0000
0101
0000
1000
0000
1100
,
0000
0001
0000
0011
0000
1000
0000
1010
,
0000
0001
0000
0010
0000
0001
0000
1000
,
0000
0010
0000
1000
0000
0100
0000
0020
,
0000
0000
0000
0000
,
0030
0000
0000
0000
;

//---------------dance-single - ----------------
#NOTEDATA:;
#CHARTNAME:;
#STEPSTYPE:dance-single;
#DESCRIPTION:;
#CHARTSTYLE:;
#DIFFICULTY:Easy;
#METER:5;
#RADARVALUES:0.233860,0.262084,0.072577,0.193539,0.000000,203.000000,194.000000,9.000000,24.000000,0.000000,0.000000,0.000000,0.000000,0.000000,0.233860,0.262084,0.072577,0.193539,0.000000,203.000000,194.000000,9.000000,24.000000,0.000000,0.000000,0.000000,0.000000,0.000000;
#CREDIT:;
#OFFSET:1.582012;
#BPMS:0.000000=130.000000
,120.000000=65.000000
,128.000000=130.000000
;
#STOPS:;
#DELAYS:;
#WARPS:;
#TIMESIGNATURES:0.000000=4=4
;
#TICKCOUNTS:0.000000=4
;
#COMBOS:0.000000=1
;
#SPEEDS:0.000000=1.000000=0.000000=0
;
#SCROLLS:0.000000=1.000000
;
#FAKES:;
#LABELS:0.000000=Song Start
;
#NOTES:
0000
0000
0000
0000
,
0000
0000
0000
0000
,
0000
0000
0000
0000
,
0000
0000
0000
0000
,
0000
0000
0000
0000
,
0000
0000
0000
0000
,
0002
0010
0000
0010
,
2003
0010
0000
3010
,
2002
0000
0000
3000
0000
0000
0003
0000
,
0000
0000
0000
0000
,
1000
0100
1000
0100
,
0010
0001
0010
0001
,
1000
0100
0010
0001
,
0200
0000
0000
0300
,
0001
0001
0100
0100
,
0010
1000
0100
0010
,
0001
0001
0100
0100
,
0010
1000
0001
0000
,
1000
1000
0100
0100
,
0010
0001
0100
0010
,
1000
1000
0100
0100
,
2000
3000
0002
0003
,
0100
0010
0220
0330
,
1000
0010
1000
1000
,
0100
0010
0220
0330
,
0001
0010
0001
0001
,
0100
0010
0220
0330
,
0001
1000
0001
0001
,
0010
0100
0220
0330
,
1000
0100
0010
0001
,
2000
0000
3020
0000
,
0230
0000
0302
0000
,
1003
0100
1000
0100
,
0010
0001
0010
0001
,
1000
0010
1000
0010
,
0100
0001
0010
0000
,
0001
0010
0002
0003
,
1000
0010
2000
3000
,
0001
0100
0002
0003
,
1000
0100
0010
0001
,
1000
1000
0010
0010
,
1000
0010
1000
0010
,
1000
0001
0010
0100
,
0020
0000
0000
0030
,
0001
0001
0100
0100
,
0001
0001
1000
1000
,
0001
0001
0010
0010
,
0001
0100
0100
0010
,
1000
1000
0100
0100
,
1000
1000
0001
0001
,
1000
1000
0010
0010
,
1000
0100
0010
0001
,
1000
0100
1000
0100
,
0001
0100
0001
0100
,
1000
0010
1000
0010
,
0001
0010
0010
1000
,
0001
0100
0001
0100
,
1000
0100
1000
0100
,
0001
0010
0001
0010
,
1000
0010
0001
0100
,
0000
0101
0000
1010
,
0000
1100
0000
0011
,
0000
1000
0000
0001
,
0000
1000
0000
0200
,
0000
0000
0000
0000
,
0300
0000
0000
0000
;

//---------------dance-single - ----------------
#NOTEDATA:;
#CHARTNAME:;
#STEPSTYPE:dance-single;
#DESCRIPTION:;
#CHARTSTYLE:;
#DIFFICULTY:Beginner;
#METER:2;
#RADARVALUES:0.118658,0.184870,0.008064,0.112898,0.000000,103.000000,102.000000,1.000000,14.000000,0.000000,0.000000,0.000000,0.000000,0.000000,0.118658,0.184870,0.008064,0.112898,0.000000,103.000000,102.000000,1.000000,14.000000,0.000000,0.000000,0.000000,0.000000,0.000000;
#CREDIT:;
#OFFSET:1.582012;
#BPMS:0.000000=130.000000
;
#STOPS:;
#DELAYS:;
#WARPS:;
#TIMESIGNATURES:0.000000=4=4
;
#TICKCOUNTS:0.000000=4
;
#COMBOS:0.000000=1
;
#SPEEDS:0.000000=1.000000=0.000000=0
;
#SCROLLS:0.000000=1.000000
;
#FAKES:;
#LABELS:0.000000=Song Start
;
#NOTES:
0000
0000
0000
0000
,
0000
0000
0000
0000
,
0000
0000
0000
0000
,
0000
0000
0000
0000
,
0000
0000
0000
0000
,
0000
0000
0000
0000
,
0002
0000
0003
0000
,
2000
0000
3000
0000
,
2002
0000
0000
3003
,
0000
0000
0000
0000
,
0010
0000
0010
0000
,
0010
0000
0010
0000
,
0010
0010
0010
0010
,
0000
0000
0000
0000
,
1000
0000
1000
0000
,
0010
0000
0010
0000
,
1000
0000
1000
0000
,
0010
0000
1000
0000
,
0001
0000
0001
0000
,
0010
0000
0010
0000
,
0001
0000
0001
0000
,
0010
0000
0100
0000
,
2000
0000
3000
0000
,
0010
0000
1000
0000
,
0002
0000
0003
0000
,
0010
0000
0001
0000
,
2000
0000
3000
0000
,
0100
0000
1000
0000
,
0002
0000
0003
0000
,
0100
0000
0100
0000
,
0200
0000
0000
0000
,
0300
0000
0000
0000
,
0020
0000
0000
0000
,
0030
0000
0000
0000
,
1000
0000
1000
0000
,
0001
0000
0001
0000
,
1000
0000
1000
0000
,
0001
0000
1000
0000
,
0002
0000
0003
0000
,
0020
0000
0030
0000
,
0200
0000
0300
0000
,
2000
0000
3000
0000
,
0010
0000
0010
0000
,
0010
0000
0010
0000
,
0010
0010
0010
0010
,
0010
0000
0000
0000
,
1000
0000
1000
0000
,
0100
0000
0100
0000
,
0010
0000
0010
0000
,
0001
0000
1000
0000
,
0001
0000
0001
0000
,
0100
0000
0100
0000
,
0010
0000
0010
0000
,
1000
0000
0001
0000
,
1000
0000
1000
0000
,
0100
0000
0100
0000
,
0001
0000
0001
0000
,
0010
0000
1000
0000
,
0001
0000
0001
0000
,
0100
0000
0100
0000
,
1000
0000
1000
0000
,
0010
0000
0001
0000
,
0100
0000
0100
0000
,
0100
0000
0100
0000
,
0100
0000
0100
0000
,
0100
0000
0100
0000
;
