#VERSION:0.83;
#TITLE:Fermion;
#SUBTITLE:;
#ARTIST:makou;
#TITLETRANSLIT:;
#SUBTITLETRANSLIT:;
#ARTISTTRANSLIT:;
#GENRE:Psytrance;
#ORIGIN:;
#CREDIT:;
#BANNER:Fermion.png;
#BACKGROUND:Fermion-bg.png;
#PREVIEWVID:;
#JACKET:Fermion-jacket.png;
#CDIMAGE:;
#DISCIMAGE:;
#LYRICSPATH:;
#CDTITLE:cdtitle.png;
#MUSIC:Fermion.ogg;
#OFFSET:-0.086306;
#SAMPLESTART:40.085304;
#SAMPLELENGTH:12.307693;
#SELECTABLE:YES;
#BPMS:0.000=156.000,
168.000=78.000,
200.000=156.000;
#STOPS:;
#DELAYS:;
#WARPS:;
#TIMESIGNATURES:0.000=4=4;
#TICKCOUNTS:0.000=4;
#COMBOS:0.000=1;
#SPEEDS:0.000=1.000=0.000=0;
#SCROLLS:0.000=1.000;
#FAKES:;
#LABELS:0.000=Song Start;
#BGCHANGES:0.000=Fermion.avi=1.000=1=0=0=StretchNoLoop==CrossFade==,
99999=-nosongbg-=1.000=0=0=0 // don't automatically add -songbackground-
;
#KEYSOUNDS:;
#ATTACKS:
;

//---------------dance-single - ----------------
#NOTEDATA:;
#CHARTNAME:;
#STEPSTYPE:dance-single;
#DESCRIPTION:;
#CHARTSTYLE:;
#DIFFICULTY:Challenge;
#METER:16;
#RADARVALUES:0.939654,1.096657,0.075713,0.776060,1.665689,695.000000,687.000000,8.000000,82.000000,26.000000,0.000000,2.000000,0.000000,0.000000,0.939654,1.096657,0.075713,0.776060,1.665689,695.000000,687.000000,8.000000,82.000000,26.000000,0.000000,2.000000,0.000000,0.000000;
#CREDIT:;
#OFFSET:-0.086306;
#BPMS:0.000000=156.000000
,71.000000=312.000000
,71.500000=156.000000
,71.750000=78.000000
,72.000000=156.000000
,168.000000=78.000000
,183.500000=156.000000
,183.750000=78.000000
,183.875000=39.000000
,184.000000=78.000000
,200.000000=156.000000
;
#STOPS:;
#DELAYS:;
#WARPS:;
#TIMESIGNATURES:0.000000=4=4
;
#TICKCOUNTS:0.000000=4
;
#COMBOS:0.000000=1
;
#SPEEDS:0.000000=1.000000=0.000000=0
;
#SCROLLS:0.000000=1.000000
,149.750000=0.000000
,150.000000=1.000000
,150.250000=0.000000
,150.500000=1.000000
,150.750000=0.000000
,151.000000=1.000000
,151.250000=0.000000
,151.375000=1.000000
,151.500000=0.000000
,151.625000=1.000000
,151.750000=0.000000
,151.875000=1.000000
;
#FAKES:;
#LABELS:0.000000=Song Start
;
#NOTES:
0000
0000
0000
0000
,
0000
0000
0000
0000
,
1000
0010
1000
0000
0001
0000
1000
0100
0000
0100
0000
M1M0
0001
0000
1000
0001
,
0000
0100
0001
0010
0000
0010
0000
0M1M
1000
0000
0100
0000
0001
0000
0100
1000
,
0000
0010
1000
0000
0100
0000
1000
0010
0000
0010
0000
MM10
0001
0000
1000
0001
,
0000
0001
0100
0001
0010
0001
0000
1000
0000
0001
0100
0001
0000
1000
0000
1000
,
0001
0010
0001
0000
1000
0000
0001
0100
0000
0100
0000
01MM
1000
0000
0001
1000
,
0000
0100
1000
0010
0000
0010
0000
MM10
0001
0000
0100
0000
1000
0000
0100
0001
,
0000
0010
0001
0000
0100
0000
0001
0010
0000
0010
0000
0M1M
1000
0000
0001
1000
,
0100
0010
0100
0010
0002
0000
0103
0010
1000
0100
1000
0100
0010
0001
0100
0010
,
1000
0000
0001
0000
1000
0010
0000
0010
1000
0000
0001
0000
1000
0100
0000
0100
,
2000
3000
0020
0030
2000
3200
0300
0002
0003
0002
0203
0000
1000
0000
0310
0000
,
0001
0000
0100
0000
0010
1000
0000
1000
0001
0000
0100
0000
0010
0000
1000
0001
,
0020
0030
0200
0300
2000
3020
0030
0002
0003
0002
0023
0000
0230
0320
2030
0000
,
3001
0000
1000
0000
0001
0010
0000
0010
0001
0000
1000
0000
0001
0100
0000
0100
,
0002
0003
0020
0030
0002
0203
0300
2000
3000
2000
3200
0000
0001
0000
0310
0000
,
1010
0000
0000
MM10
0001
0000
0011
0000
0000
0M1M
1000
0000
1010
0000
1001
0000
,
0001
0000
0000
0000
1000
0000
0000
0000
0100
0000
0000
0000
0000
0000
0000
0000
0010
0000
0000
0000
0001
0000
0000
0000
1000
0000
0000
0000
0001
0000
0000
0000
0000
0000
0000
0000
0001
0000
0000
0000
0100
0000
0000
0000
0000
0000
0000
0000
0210
0000
0000
0000
0000
0000
0000
0000
0000
0000
0000
0000
0000
00M0
0000
0000
,
0301
0000
0100
0000
0010
0000
1000
0100
0000
1000
0001
1000
0000
0010
1000
0001
,
0010
0000
0100
0010
0001
0000
1000
0010
0000
0100
0000
0100
0001
0000
1000
0000
,
0001
0000
0010
0000
0100
0000
0010
0001
0000
1000
0001
1000
0000
0001
0010
0001
,
1000
0000
0010
0000
0100
0000
0001
0010
0000
0100
0000
1000
0001
0100
0001
0000
,
1000
0000
0100
0000
0010
0000
0001
0100
0000
0001
1000
0001
0000
0010
0001
1000
,
0010
0000
0100
0010
1000
0000
0001
0010
0000
0100
0000
0100
1000
0000
0010
0000
,
0100
0000
0001
0000
0010
0000
0100
1000
0000
0010
0100
0001
0000
0010
0100
1000
,
0000
0001
0100
0001
0010
0100
0010
0100
0000
0010
0100
1000
0040
0400
0000
0030
,
0301
1000
0100
0000
0002
0000
0103
1000
0000
0002
0000
0103
0020
0000
1030
0001
,
0000
1000
0100
0000
0002
0000
0103
1000
0000
0002
0000
0103
0010
1000
0000
0001
,
1000
0001
0100
0000
2000
0000
3100
0001
0000
2000
0000
3001
0020
0000
0031
1000
,
0000
0001
0100
0000
2000
0000
3100
0001
0000
1000
0100
0010
0001
0100
0010
1000
,
0000
0001
0010
0000
2000
0000
3010
0001
0000
2000
0000
3001
0200
0000
0310
1000
,
0000
0001
0010
0000
2000
0000
3010
0001
0000
2000
0000
3001
0100
0010
0000
1000
,
0001
1000
0010
0000
0002
0000
0013
1000
0000
0002
0000
1003
0200
0000
0310
0001
,
1000
0010
0100
0001
0010
0001
0100
0010
1000
0100
0010
0001
1000
0010
0100
0001
,
1000
0000
0001
0010
0100
0010
0001
1000
0010
0100
0010
1000
0001
0010
0100
1000
,
0001
0100
0010
0100
0001
1000
0100
0010
0001
1000
0010
0100
0010
1000
0001
1000
,
0100
0010
0001
1000
0010
0100
0001
1000
0001
0010
0100
1000
0100
0010
0001
1000
,
0010
0100
0001
0100
0010
1000
0001
0010
0000
000M
0000
000M
0000
0M00
00M0
M000
,
0001
0100
0010
1000
0001
1000
0001
0010
0100
1000
0001
1000
0001
0100
0010
1000
,
0001
1000
0001
0010
0100
1000
0001
1000
0001
0100
0010
1000
0001
1000
0001
0010
,
0100
1000
0001
0100
0010
1000
0100
1000
0010
0100
0001
0010
0100
1000
0010
0100
,
0001
1000
0001
1000
0001
0010
0001
1000
0001
0100
0001
0100
0010
1000
0010
1000
,
0200
0000
0000
0000
1300
0000
0000
0000
1001
0000
0000
0000
1000
0000
0100
0000
1000
0000
0010
1000
0010
0000
0100
0000
0001
0000
0100
0000
0010
0000
1000
0000
,
0200
0000
0000
0000
0302
0000
0000
0000
0203
0000
2300
0000
0000
0000
3020
0000
0000
0000
0031
0000
0010
0100
0010
0000
1000
0000
0100
0010
0001
0000
0001
0000
,
2000
0000
0000
0000
3001
0000
0200
0000
1000
0000
0000
0000
0310
0000
0100
0000
0001
0000
1000
0010
1000
0000
0001
0000
1000
0000
0100
0000
0001
0000
0100
0000
,
1100
0000
0000
1000
0M1M
0000
0000
0000
0011
0000
0000
0001
M1M0
0000
0000
0000
1000
0010
0100
0001
1000
0100
0010
0001
1000
0010
1000
0010
0200
0000
0000
0000
,
0301
0000
0010
0000
2000
0000
0000
3010
0000
0002
0000
0000
1003
0000
0001
0100
0000
0001
0010
0000
2000
0000
0000
3010
0000
0002
0000
0000
1003
0000
0001
0000
,
1000
0001
0100
0000
2000
0000
0000
3100
0000
0002
0000
0000
1003
0000
0001
0010
0000
0001
0100
0000
2000
0000
0000
3100
0000
0001
0100
0010
1000
0100
0010
0001
,
0000
1000
0010
0000
0002
0000
0000
0013
0000
2000
0000
0000
3001
0000
1000
0100
0000
1000
0010
0000
0002
0000
0000
0013
0000
2000
0000
0000
3001
0000
1000
0000
,
0001
0000
0010
0000
2000
0000
0000
3010
0000
0002
0000
0000
1003
0000
0001
0100
0010
1000
0010
1000
0001
0010
0001
0010
0100
1000
0010
0100
0001
0010
0100
1000
,
0001
1000
0010
0000
0002
0000
0013
1000
0000
0002
0000
1003
0200
0000
0310
0001
,
0000
1000
0010
0000
0002
0000
0013
1000
0000
0002
0000
0013
0100
0010
0100
1000
,
0000
0001
0100
0000
2000
0000
3100
0001
0000
2000
0000
3001
0020
0000
0130
1000
,
0000
0001
0100
0000
2000
0000
3100
0001
0000
1000
0100
0010
0001
0100
0010
1000
,
0000
0001
0010
0000
2000
0000
3010
0001
0000
2000
0000
3001
0200
0000
0310
1000
,
0000
0001
0010
0000
2000
0000
3010
0001
0000
2000
0000
3001
0100
0001
0100
0010
,
0000
1000
0100
0000
0002
0000
0103
1000
0000
0002
0000
1003
0020
0000
0130
0001
,
1000
0100
0010
0001
0100
0001
0010
0100
1000
0010
0100
0001
1000
0100
0010
0001
;

//---------------dance-single - ----------------
#NOTEDATA:;
#CHARTNAME:;
#STEPSTYPE:dance-single;
#DESCRIPTION:;
#CHARTSTYLE:;
#DIFFICULTY:Hard;
#METER:13;
#RADARVALUES:0.680066,0.877326,0.075713,0.416422,0.813916,503.000000,495.000000,8.000000,44.000000,5.000000,0.000000,2.000000,0.000000,0.000000,0.680066,0.877326,0.075713,0.416422,0.813916,503.000000,495.000000,8.000000,44.000000,5.000000,0.000000,2.000000,0.000000,0.000000;
#CREDIT:;
#OFFSET:-0.086306;
#BPMS:0.000000=156.000000
,168.000000=78.000000
,200.000000=156.000000
;
#STOPS:;
#DELAYS:;
#WARPS:;
#TIMESIGNATURES:0.000000=4=4
;
#TICKCOUNTS:0.000000=4
;
#COMBOS:0.000000=1
;
#SPEEDS:0.000000=1.000000=0.000000=0
;
#SCROLLS:0.000000=1.000000
,149.750000=0.500000
,152.000000=1.000000
;
#FAKES:;
#LABELS:0.000000=Song Start
;
#NOTES:
0000
0000
0000
0000
,
0000
0000
0000
0000
,
0001
0000
0010
0000
0100
0000
0010
0001
0000
0001
0000
0001
0100
0000
1000
0000
,
0100
0000
0010
1000
0000
1000
0000
1000
0100
0000
0010
0000
0001
0100
0000
0001
,
0000
0100
0001
0000
1000
0000
0010
1000
0000
1000
0000
1000
0100
0000
0001
0000
,
0100
0000
0010
0000
0001
1000
0000
0001
0100
0000
0010
1000
0000
0001
0000
1000
,
0100
0000
1000
0000
0010
0000
0100
0001
0000
0001
0000
0001
0010
0000
1000
0000
,
0010
0000
0100
1000
0000
1000
0000
1000
0010
0000
0100
0000
0001
1000
0000
1000
,
0200
0001
0010
1000
,
0310
0001
0100
1000
0001
0010
1000
0001
,
0010
0001
0100
0000
0001
0100
1000
0000
,
0100
0000
0001
0000
1000
0100
0000
0010
0000
0001
0200
0000
0001
0000
0000
0000
,
0310
1000
0100
0000
1000
0100
0001
0000
,
0100
0000
1000
0000
0001
0100
0000
0010
0000
1000
0200
0000
0010
0000
0310
0000
,
0100
1000
0010
0000
1000
0010
0001
0000
,
0010
0000
1000
0000
0001
0010
0000
0100
0000
1000
0002
0000
0100
0000
0003
0000
,
1001
0000
1000
1010
0000
0001
0010
0010
,
0001
0000
1000
0000
0001
0100
0000
0010
0000
1000
0100
0000
0020
0000
0000
0000
,
0031
0000
0100
0000
0010
0000
1000
0100
0000
0010
0001
0010
0000
0100
1000
0000
,
0001
0000
0100
0000
1000
0000
0100
0010
0000
0100
0000
0010
0100
0000
0001
0000
,
1000
0000
0100
0000
0010
0000
0001
0100
0000
0010
1000
0010
0000
0100
0001
0000
,
1000
0000
0100
0000
0001
0000
0100
0010
0000
0001
0000
1000
0010
0000
0100
0000
,
0001
0000
1000
0000
0100
0000
0010
0001
0000
1000
0010
1000
0000
0001
0010
0000
,
0001
0000
0100
0000
1000
0000
0100
0010
0000
0100
0000
0010
0100
0000
0001
0000
,
1000
0000
0100
0000
0010
0000
0100
1000
0000
0001
0100
0001
0000
1000
0100
1000
,
0000
0001
0100
0001
0100
0000
0001
0000
1000
0000
0100
0000
0040
0004
0000
0030
,
1003
0000
0100
0000
0002
0000
0000
0103
0000
2000
0000
0000
3001
0000
0100
0010
,
0000
0010
0100
0000
2000
0000
0000
3100
0000
0002
0000
0000
1003
0000
0010
0000
,
1000
0000
0100
0000
0002
0000
0000
0103
0000
2000
0000
0000
3001
0000
0100
0010
,
0000
0010
0100
0000
0002
0000
0000
1003
0000
0100
0010
0000
0001
0000
1000
0001
,
0000
0001
0100
0000
2000
0000
0000
3100
0000
0002
0000
0000
1003
0000
0100
0010
,
0000
0010
0100
0000
0002
0000
0000
0103
0000
2000
0000
0000
3001
0000
0010
0000
,
0001
0000
0100
0000
2000
0000
0000
3100
0000
0002
0000
0000
1003
0000
0100
0010
,
0001
0100
1000
0001
0010
1000
0100
0010
,
0001
1000
0010
1000
0100
0001
0100
0010
,
0001
0100
1000
0100
0010
1000
0010
0001
,
1000
0100
0001
0010
0100
0001
0100
0010
,
0001
0000
0100
0000
0010
0000
1000
0001
0000
0M00
0000
00M0
0000
0M00
00M0
0M00
,
0001
0010
1000
0001
0100
0010
0001
0100
,
1000
0001
0010
0100
0001
1000
0100
0001
,
1000
0010
0100
1000
0010
0001
0010
1000
,
0100
0010
0001
1000
0001
0100
1000
0100
,
0002
0000
0103
0000
1001
0000
1000
0100
1000
0010
1000
0100
1000
0010
0100
0001
,
2000
0000
3200
0000
0302
0203
0000
0320
0000
0032
1003
1000
0001
0100
0100
0010
,
2000
0000
3100
0020
0001
0000
0130
1000
0010
1000
0100
1000
0010
0100
0001
0010
,
0011
0000
0000
0000
1001
0000
0000
0000
1010
0000
0000
0110
0000
0000
0101
0000
0000
0000
1000
0000
0100
0000
0010
0000
0001
0000
0100
0000
0020
0000
0000
0000
,
1030
0000
0010
0000
0100
0000
0000
0010
0000
0100
0000
0000
0020
0000
0000
1030
0000
0000
0001
0000
0010
0000
0000
0001
0000
1000
0000
0000
0010
0000
1000
0000
,
0001
0000
0010
0000
0100
0000
0000
0010
0000
0100
0000
0000
0020
0000
0000
0031
0000
0000
1000
0000
0010
0000
0000
0100
0000
0000
0010
0000
0100
0000
0001
0000
,
0010
0000
0100
0000
1000
0000
0000
0100
0000
1000
0000
0000
0002
0000
0000
0103
0000
0000
0010
0000
1000
0000
0000
0001
0000
0010
0000
0000
0001
0000
1000
0000
,
0010
0000
0100
0000
0001
0000
0000
0100
0000
0001
0000
0000
1000
0000
0001
0000
1000
0000
0100
0000
0010
0000
0001
0000
0100
0000
1000
0000
0100
0000
0001
0000
,
1000
0000
0010
0000
0002
0000
0000
0013
0000
2000
0000
0000
3001
0000
0010
0100
,
0000
0100
0010
0000
2000
0000
0000
3010
0000
0002
0000
0000
1003
0000
0100
0000
,
1000
0000
0010
0000
0002
0000
0000
0013
0000
2000
0000
0000
3001
0000
0010
0100
,
0000
0100
0010
0000
0002
0000
0000
1003
0000
0010
0100
0000
0001
0000
1000
0001
,
0000
0001
0010
0000
2000
0000
0000
3010
0000
0002
0000
0000
1003
0000
0010
0100
,
0000
0100
0010
0000
0002
0000
0000
0013
0000
2000
0000
0000
3001
0000
0100
0000
,
0001
0000
0010
0000
2000
0000
0000
3010
0000
0002
0000
0000
1003
0000
0010
0100
,
0001
0000
0010
0000
1000
0000
0001
0000
0100
0000
1000
0000
0010
0000
0100
0001
;

//---------------dance-single - ----------------
#NOTEDATA:;
#CHARTNAME:;
#STEPSTYPE:dance-single;
#DESCRIPTION:;
#CHARTSTYLE:;
#DIFFICULTY:Medium;
#METER:10;
#RADARVALUES:0.475911,0.657285,0.037857,0.283924,0.146694,352.000000,348.000000,4.000000,30.000000,0.000000,0.000000,0.000000,0.000000,0.000000,0.475911,0.657285,0.037857,0.283924,0.146694,352.000000,348.000000,4.000000,30.000000,0.000000,0.000000,0.000000,0.000000,0.000000;
#CREDIT:;
#OFFSET:-0.086306;
#BPMS:0.000000=156.000000
,168.000000=78.000000
,200.000000=156.000000
;
#STOPS:;
#DELAYS:;
#WARPS:;
#TIMESIGNATURES:0.000000=4=4
;
#TICKCOUNTS:0.000000=4
;
#COMBOS:0.000000=1
;
#SPEEDS:0.000000=1.000000=0.000000=0
;
#SCROLLS:0.000000=1.000000
;
#FAKES:;
#LABELS:0.000000=Song Start
;
#NOTES:
0000
0000
0000
0000
,
0000
0000
0000
0000
,
0001
0100
1000
0000
0100
0000
0100
0000
,
1000
0100
0001
0001
1000
0000
1000
0000
,
0001
0010
1000
0000
0010
0000
0010
0000
,
1000
0010
0001
0000
0001
0100
0010
0000
,
1000
0100
0001
0000
0100
0000
0100
0000
,
0001
0100
1000
1000
0001
0000
0001
0000
,
0200
1000
0010
0001
,
0310
0100
1000
0100
0002
0000
0013
0100
,
1000
0010
0100
0000
0010
0100
0001
0000
,
1000
0000
0100
0000
0010
0000
0000
0001
0000
0000
0002
0000
2003
0000
0000
0000
,
3001
0100
0010
0000
0100
0010
1000
0000
,
0001
0000
0010
0000
0100
0000
0000
0010
0000
0000
0020
0000
0032
0000
0000
0000
,
1003
0010
0100
0000
0010
0100
0001
0000
,
0010
0000
0100
0000
1000
0000
0000
1000
0000
0000
0002
0000
0203
0000
0300
0000
,
0101
0000
0000
1100
0000
0000
0001
0001
,
1000
0000
0100
0000
0010
0000
0000
0001
0000
0000
0100
0000
0020
0000
0000
0000
,
1030
0010
0100
0000
0010
1000
0100
0000
,
0010
0001
0100
0000
0001
0100
1000
0000
,
1000
0100
0001
0000
0010
0100
1000
0000
,
0010
1000
0100
0000
1000
0100
0001
0000
,
0001
0100
1000
0000
0010
0100
0001
0000
,
0100
0001
0010
0000
0001
0010
1000
0000
,
1000
0010
0001
0000
1000
0010
0100
0000
,
0001
0000
1000
0100
0000
0010
0002
0000
,
1003
0000
0010
0000
0001
0000
0000
0000
0001
0000
0000
0000
0010
0000
0000
1000
,
0000
0100
0001
0000
0001
0000
0100
0000
,
1000
0000
0010
0000
0001
0000
0000
0000
0001
0000
0000
0000
0010
0000
0000
1000
,
0000
0000
0100
0000
0010
0000
0000
0001
0000
0000
1000
0000
0010
0000
1000
0000
,
0001
0000
0010
0000
1000
0000
0000
0000
1000
0000
0000
0000
0010
0000
0000
0001
,
0000
0100
1000
0000
1000
0000
0100
0000
,
0001
0010
1000
0000
1000
0000
0010
0000
,
0001
0010
0100
1000
0010
0100
0001
0000
,
1000
0010
0100
0000
0010
1000
0100
0000
,
0010
0001
0100
0000
0001
0100
1000
0000
,
0100
0001
0010
0000
0100
1000
0010
0000
,
0001
0000
0010
0000
1000
0000
0000
1000
0000
0000
0000
0000
0000
0000
0000
0000
,
0001
0010
1000
0000
1000
0010
0001
0000
,
0001
0100
1000
0000
1000
0100
0001
0000
,
1000
0100
0010
0000
0001
0100
0010
0000
,
2000
0000
3100
0000
0010
0001
0100
0010
,
2000
0000
0001
3001
1000
0100
0001
0100
,
2000
0000
3020
0000
0230
0302
0000
0023
0000
0032
2003
0000
3001
0000
0100
0000
,
0220
0000
0330
2002
0000
3003
0001
0000
0100
0000
1000
0000
0100
0000
0001
0000
,
0020
0000
0000
0000
0230
0000
0000
0000
2300
0000
0000
3000
0001
0000
0200
0000
0000
0000
0320
0000
2030
0000
0000
0000
3001
0000
1000
0000
0200
0000
0000
0000
,
0310
0001
1000
0000
0010
0000
0010
0000
1000
0001
0010
0000
0100
0000
0100
0000
,
1000
0001
0100
0000
0010
0000
0010
0000
0100
0001
1000
0000
0100
0000
0010
0000
,
0001
0100
0010
0000
0100
0000
0100
0000
1000
0100
0010
0000
0100
0000
0100
0000
,
0001
0010
0100
0000
0010
0000
0010
0000
0100
1000
0001
0100
0010
1000
0001
1000
,
0001
0000
0100
0000
1000
0000
0000
0000
1000
0000
0000
0000
0100
0000
0000
0001
,
0000
0010
1000
0000
1000
0000
0010
0000
,
0001
0000
0100
0000
1000
0000
0000
0000
1000
0000
0000
0000
0100
0000
0000
0001
,
0000
0000
0010
0000
0100
0000
0000
1000
0000
0000
0001
0000
0100
0000
0001
0000
,
1000
0000
0100
0000
0001
0000
0000
0000
0001
0000
0000
0000
0100
0000
0000
1000
,
0000
0010
0001
0000
0001
0000
0010
0000
,
1000
0100
0001
0000
0001
0000
0100
0000
,
1000
0010
1000
0001
0010
0001
0100
1000
;

//---------------dance-single - ----------------
#NOTEDATA:;
#CHARTNAME:;
#STEPSTYPE:dance-single;
#DESCRIPTION:;
#CHARTSTYLE:;
#DIFFICULTY:Easy;
#METER:7;
#RADARVALUES:0.365045,0.437243,0.085177,0.066249,0.000000,270.000000,261.000000,9.000000,7.000000,0.000000,0.000000,0.000000,0.000000,0.000000,0.365045,0.437243,0.085177,0.066249,0.000000,270.000000,261.000000,9.000000,7.000000,0.000000,0.000000,0.000000,0.000000,0.000000;
#CREDIT:;
#OFFSET:-0.086306;
#BPMS:0.000000=156.000000
,168.000000=78.000000
,200.000000=156.000000
;
#STOPS:;
#DELAYS:;
#WARPS:;
#TIMESIGNATURES:0.000000=4=4
;
#TICKCOUNTS:0.000000=4
;
#COMBOS:0.000000=1
;
#SPEEDS:0.000000=1.000000=0.000000=0
;
#SCROLLS:0.000000=1.000000
;
#FAKES:;
#LABELS:0.000000=Song Start
;
#NOTES:
// measure 0
0000
0000
0000
0000
,  // measure 1
0000
0000
0000
0000
,  // measure 2
1000
0010
1000
0000
0001
0000
0001
0000
,  // measure 3
1000
0100
1000
0000
0001
0000
0001
0000
,  // measure 4
0100
0001
0100
0000
0010
0000
0010
0000
,  // measure 5
1000
0001
1000
0000
0100
0000
0010
0000
,  // measure 6
0001
0010
0001
0000
1000
0000
1000
0000
,  // measure 7
0001
0100
0001
0000
1000
0000
1000
0000
,  // measure 8
2001
0000
0100
0100
,  // measure 9
0001
0010
0010
3010
,  // measure 10
1000
0100
1000
0100
,  // measure 11
0010
0000
0001
0000
0100
0010
1000
0000
,  // measure 12
0001
0100
0001
0100
,  // measure 13
0010
0000
1000
0000
0100
0010
0001
0000
,  // measure 14
0100
0010
0100
0010
,  // measure 15
1000
0000
0001
0000
0010
0100
1000
0000
,  // measure 16
1001
0000
0000
1001
0000
0000
1001
0000
,  // measure 17
0001
0000
0100
0000
0010
1000
0200
0000
,  // measure 18
0310
0010
0001
0001
,  // measure 19
0100
0100
0010
1000
,  // measure 20
0010
0010
1000
1000
,  // measure 21
0100
0100
0010
0001
,  // measure 22
1000
1000
0001
0001
,  // measure 23
0100
0100
0010
1000
,  // measure 24
0001
0001
1000
1000
,  // measure 25
0000
0100
0000
1001
,  // measure 26
0001
0100
0001
0000
1000
0000
1000
0000
,  // measure 27
0001
0100
0001
0000
1000
0000
1000
0000
,  // measure 28
0001
0010
0001
0000
1000
0000
1000
0000
,  // measure 29
0001
0010
0001
0000
0100
0000
0010
0000
,  // measure 30
1000
0100
1000
0000
0001
0000
0001
0000
,  // measure 31
1000
0100
1000
0000
0001
0000
0001
0000
,  // measure 32
1000
0010
1000
0000
0001
0000
0001
0000
,  // measure 33
1000
0100
0010
0001
,  // measure 34
1000
1000
0010
0010
,  // measure 35
0001
0001
0100
0100
,  // measure 36
1000
1000
0010
0010
,  // measure 37
0001
0100
1000
0000
,  // measure 38
0001
0100
1000
0100
,  // measure 39
0001
0010
1000
0010
,  // measure 40
0001
0100
1000
0100
,  // measure 41
0001
0010
0100
1000
,  // measure 42
2002
3000
0103
0000
0100
0100
1001
0000
,  // measure 43
1000
0100
0001
0100
1000
0010
0100
0000
,  // measure 44
2002
0003
0000
0000
0200
0000
3300
0000
0100
0000
0100
0000
1001
0000
0000
0000
,  // measure 45
0001
0010
1000
0100
0001
0001
1000
0001
,  // measure 46
1000
0100
0001
0000
0001
0100
1000
0000
,  // measure 47
1000
0010
0001
0000
0001
0010
1000
0000
,  // measure 48
0001
0010
1000
0000
1000
0010
0001
0000
,  // measure 49
0001
0100
1000
0000
0001
0010
1000
1000
,  // measure 50
0001
0010
0001
0000
1000
0000
1000
0000
,  // measure 51
0001
0010
0001
0000
1000
0000
1000
0000
,  // measure 52
0001
0100
0001
0000
1000
0000
1000
0000
,  // measure 53
0001
0100
0001
0000
0010
0000
0100
0000
,  // measure 54
1000
0010
1000
0000
0001
0000
0001
0000
,  // measure 55
1000
0010
1000
0000
0001
0000
0001
0000
,  // measure 56
1000
0100
1000
0000
0001
0000
0001
0000
,  // measure 57
1000
0010
0100
0001
;

//---------------dance-single - ----------------
#NOTEDATA:;
#CHARTNAME:;
#STEPSTYPE:dance-single;
#DESCRIPTION:;
#CHARTSTYLE:;
#DIFFICULTY:Beginner;
#METER:3;
#RADARVALUES:0.191987,0.216965,0.018928,0.047321,0.000000,142.000000,140.000000,2.000000,5.000000,0.000000,0.000000,0.000000,0.000000,0.000000,0.191987,0.216965,0.018928,0.047321,0.000000,142.000000,140.000000,2.000000,5.000000,0.000000,0.000000,0.000000,0.000000,0.000000;
#CREDIT:;
#OFFSET:-0.086306;
#BPMS:0.000000=156.000000
;
#STOPS:;
#DELAYS:;
#WARPS:;
#TIMESIGNATURES:0.000000=4=4
;
#TICKCOUNTS:0.000000=4
;
#COMBOS:0.000000=1
;
#SPEEDS:0.000000=1.000000=0.000000=0
;
#SCROLLS:0.000000=1.000000
;
#FAKES:;
#LABELS:0.000000=Song Start
;
#NOTES:
0000
0000
0000
0000
,
0000
0000
0000
0000
,
1000
0000
1000
0000
,
0010
0000
0010
0000
,
0100
0000
0100
0000
,
0001
0000
0001
0000
,
0010
0000
0010
0000
,
0001
0000
0001
0000
,
0200
0000
0000
0000
,
0000
0000
0000
0300
,
0010
0000
0010
0000
,
1000
1000
1000
0000
,
0001
0000
0001
0000
,
0010
0010
0010
0000
,
0001
0000
0001
0000
,
0100
0100
0100
0000
,
0001
0000
1000
0000
,
0001
0001
0001
0000
,
1000
0000
0100
0000
,
1000
0000
0100
0000
,
0010
0000
0001
0000
,
0010
0000
0001
0000
,
0100
0000
0001
0000
,
0100
0000
0001
0000
,
1000
0000
0100
0000
,
0010
0000
0000
0000
,
0001
0001
0001
0000
,
0001
0001
0001
0000
,
1000
1000
1000
0000
,
1000
1000
1000
0000
,
0001
0001
0001
0000
,
0001
0001
0001
0000
,
1000
1000
1000
0000
,
0100
0100
0100
0000
,
1000
0000
0010
0000
,
1000
0000
0001
0000
,
1000
0000
0100
0000
,
1000
0000
1000
0000
,
0001
0000
0010
0000
,
0001
0000
1000
0000
,
0001
0000
0100
0000
,
0001
0000
1000
0000
,
2002
0000
3003
0000
,
0100
0000
0000
0000
,
1000
0000
0010
0000
,
0100
0000
0001
0000
,
2002
0000
3003
0000
,
0100
0000
0000
0000
,
1000
0000
0100
0000
,
0010
0010
0010
0000
,
0001
0000
0001
0000
,
0100
0000
0100
0000
,
0001
0000
0001
0000
,
1000
0000
0010
0000
,
1000
0000
1000
0000
,
0100
0000
0100
0000
,
1000
0000
1000
0000
,
0001
0000
0010
0000
,
0001
0001
0001
0000
,
0001
0001
0001
0000
,
1000
1000
1000
0000
,
1000
1000
1000
0000
,
0001
0001
0001
0000
,
0001
0001
0001
0000
,
1000
1000
1000
0000
,
0010
0000
0100
0000
;
