#TITLE:EXOTICA;
#SUBTITLE:;
#ARTIST:Sota Fujimori 3rd Season;
#TITLETRANSLIT:;
#SUBTITLETRANSLIT:;
#ARTISTTRANSLIT:;
#GENRE:Exotic Psycore;
#CREDIT:;
#BANNER:EXOTICA.png;
#BACKGROUND:EXOTICA-bg.png;
#LYRICSPATH:;
#CDTITLE:cdtitle.png;
#MUSIC:EXOTICA.ogg;
#OFFSET:-0.112540;
#SAMPLESTART:26.779205;
#SAMPLELENGTH:10.666666;
#SELECTABLE:YES;
#BPMS:0.000000=180.000000
;
#STOPS:
;
#BGCHANGES:;
#KEYSOUNDS:;
#ATTACKS:;

//---------------dance-single - ----------------
#NOTES:
     dance-single:
     :
     Challenge:
     15:
     0.793968,0.796275,0.408293,0.366630,0.349965,667.000000,618.000000,49.000000,44.000000,12.000000,0.000000,0.793968,0.796275,0.408293,0.366630,0.349965,667.000000,618.000000,49.000000,44.000000,12.000000,0.000000:
0000
0000
0000
0000
,
0000
0000
0000
0000
,
0000
0000
0000
0000
,
0000
0000
0000
0000
,
0101
0000
1100
0000
0101
0000
0001
0010
,
1000
0010
0001
0100
2000
0000
3100
0001
,
0101
0000
0011
0000
0201
0000
0310
1000
,
0100
0001
0100
1000
0020
0000
1030
0100
,
0010
1000
0010
0100
2000
0000
3001
0100
,
0010
0001
0010
0100
0002
0000
1003
0100
,
0010
0010
0001
0001
1000
0100
0010
0001
,
0101
2002
3003
1100
2002
3003
0110
0001
,
1000
0000
0000
1000
0100
0000
0010
0000
0100
0000
1000
0010
1000
0000
0010
0000
,
0100
0001
0100
0000
0001
0000
1000
0000
0200
0000
0000
0000
0310
0000
0001
0000
,
1000
0000
0000
1000
0010
0000
0100
0000
0001
0000
0010
0001
0010
0000
0100
0000
,
1000
0010
0001
0010
2000
0000
3100
0010
,
0001
0000
0000
0001
0100
0000
0010
0000
0100
0000
0001
0010
0001
0000
0011
0000
,
0000
1100
0000
2001
0000
0000
3010
0000
,
1001
0000
0000
0001
0010
0000
0100
0000
1000
0000
0010
1000
0010
0000
0100
0000
,
1001
0000
0001
0010
0011
1001
0101
0000
,
0002
0000
1003
0100
0002
0000
2003
0000
,
3001
1000
0010
0001
1000
0001
0100
1000
,
0100
0001
2000
0000
3020
0000
0130
0001
,
0010
0000
0100
1000
0100
0000
0010
0000
0001
0000
0100
0001
0100
0000
0010
0000
,
2000
0000
3001
0100
2000
0000
3002
0000
,
1003
0001
0010
1000
0001
1000
0100
0001
,
0200
0000
1300
0001
0020
0000
0130
1000
,
0010
0000
0100
0001
0100
0000
0010
0000
1000
0000
0100
1000
0100
0000
0010
0000
,
0002
0000
0103
1000
0002
0000
1003
0100
,
0001
0010
1000
0001
1000
0010
0001
0100
,
0020
0000
0000
1030
0010
0000
0100
0000
1000
0000
1000
0000
0100
0000
0010
0000
,
1000
0000
0100
0010
0001
0000
0010
0000
0001
0100
0010
0000
0110
0000
0000
0000
,
1000
1000
0100
0001
2000
0000
3001
0100
,
1000
0010
0001
1000
0001
0010
1000
0100
,
0020
0000
0000
0031
0010
0000
0100
0000
0001
0000
0001
0000
0100
0000
0010
0000
,
0001
0000
0100
0010
1000
0000
0100
0010
0100
0010
0100
0010
0001
0000
0000
0000
,
1000
0010
0000
1000
0010
0000
0000
0000
0100
0001
0100
0001
0100
0000
0000
0000
,
0001
0010
0000
0001
0010
0000
0000
0000
0100
1000
0100
1000
0100
0000
0000
0000
,
1000
0010
0000
1000
0001
0000
0000
0000
1000
0100
1000
0100
1000
0000
0000
0000
,
0001
0010
0000
0001
1000
0000
0000
0000
0000
0000
0001
0000
0102
0000
0000
0000
,
1003
0000
0010
0000
0100
0000
1000
0000
0100
0000
0010
1000
0010
0000
1000
0000
,
0100
0000
0010
0000
1000
0000
0010
0000
0100
0000
1000
0001
1000
0000
0010
0100
,
0001
0000
0000
0000
0100
0000
0001
0000
0010
0000
0110
0000
0000
0000
1000
0100
,
0010
0000
0001
0000
0100
0000
0010
0000
0100
0001
0010
0000
1100
0000
0000
0000
,
0001
0000
0100
0000
0010
0000
0001
0000
0010
0000
0100
0001
0100
0000
0001
0000
,
1001
0001
0011
0000
2200
0000
3300
0000
,
1000
0000
0100
0000
0001
0000
1000
0000
0010
0001
0010
0000
0001
0000
0010
0001
,
0200
0000
0000
0310
,
1000
2000
0000
3100
0010
0010
0001
0000
,
0012
0000
0000
1000
0103
0000
0101
0000
,
0001
0002
0000
0103
0010
0010
1000
0000
,
2010
0000
0000
0001
3100
0000
1100
0000
,
0001
0020
0000
1030
0010
0001
0100
0000
,
0201
0000
0000
1000
0010
0000
0301
0000
,
0001
0200
0000
1300
0100
0001
0010
0000
,
0021
0000
0000
1000
0200
0000
0330
0000
,
0010
0000
0001
0010
0001
0000
1000
0000
0010
0000
1000
0010
1000
0000
0001
0000
,
0010
0000
0100
0010
0001
0000
0100
0000
0010
1000
0001
1000
0100
0000
0000
0000
,
1000
0000
0100
0000
0001
0000
0100
0000
0010
0100
0010
0000
0100
0000
0001
0000
,
0100
0000
1000
0001
1000
0000
0100
0000
0001
0000
0100
0000
1000
0000
0010
0000
,
1000
0000
0001
0000
0100
0000
1000
0000
0100
0010
0100
0000
1000
0000
0100
0000
,
0001
1000
0010
0100
0101
1001
1100
0000
,
0001
0000
0010
0000
1000
0000
0010
0000
0100
0010
0100
0000
0010
0000
1000
0000
,
0010
0000
0001
1000
0001
0000
0010
0000
0100
1000
0100
0000
0001
0000
0100
0000
,
1000
0010
0001
0010
1000
0001
0100
0010
,
1000
0001
1000
0000
1001
0000
0110
0000
1001
0000
0000
0000
0001
1000
0001
0000
,
1000
0100
0001
1000
0001
0100
0010
0001
,
1000
0010
0001
1000
0001
0010
0100
0001
,
MMMM
0000
1001
0001
0100
0001
1000
0100
,
1000
1000
0010
0010
1010
0001
1100
0000
,
0001
0000
0010
0000
1000
0000
0010
0000
0001
1000
0001
0000
0100
0000
0101
0000
,
0000
0110
0000
2010
0000
0000
3100
0000
,
0010
0001
0100
1000
0100
0001
0010
0100
,
1000
0001
1000
0000
0010
0000
0100
0010
1000
0000
0001
0000
0020
0000
0200
0000
,
0000
0000
0000
0000
,
0000
0000
0330
0110
,
1001
0000
0000
1000
0100
0000
0001
0000
0100
0000
1000
0001
1000
0000
0010
0000
,
1000
0001
1000
0000
0100
0000
1000
0000
0010
0000
0001
0000
0010
0000
1000
0000
,
0100
0000
0010
0001
0010
0000
0100
0000
1000
0000
0010
1000
0010
0000
1010
0000
,
0000
0101
0000
1002
0000
0010
0013
0000
,
0001
0010
0000
0001
1000
0000
0001
0000
0100
0001
0100
0001
0100
0000
0001
0000
,
1000
0010
0000
1000
0001
0000
1000
0000
0100
0000
0001
0000
0100
0000
1000
0000
,
0010
0000
0100
0010
1000
0000
0001
0000
1000
0000
0100
0010
0001
0000
0010
0000
,
0001
1000
0001
0000
0010
M00M
0010
0000
1000
0000
0100
0000
0100
1000
0001
0000
,
1000
0001
1000
0000
0010
M00M
0010
0000
0001
0000
0100
0000
0100
0001
1000
0000
,
0001
1000
0001
0000
0010
M00M
0010
0000
1000
0001
1000
0000
0100
M00M
0100
0000
,
0001
1000
0001
0000
0010
0000
0100
0000
1000
0000
0010
0000
0010
1000
0100
0000
;

//---------------dance-single - ----------------
#NOTES:
     dance-single:
     :
     Hard:
     13:
     0.686836,0.722844,0.366630,0.399960,0.124987,577.000000,533.000000,44.000000,48.000000,0.000000,0.000000,0.686836,0.722844,0.366630,0.399960,0.124987,577.000000,533.000000,44.000000,48.000000,0.000000,0.000000:
// measure 0
0000
0000
0000
0000
,  // measure 1
0000
0000
0000
0000
,  // measure 2
0000
0000
0000
0000
,  // measure 3
0000
0000
0000
0000
,  // measure 4
0011
0000
1100
0000
0011
0000
0001
0010
,  // measure 5
0100
1000
0010
0100
0002
0000
0103
0010
,  // measure 6
1010
0000
0101
0000
1010
0000
1000
0010
,  // measure 7
0100
0001
0010
0100
2000
0000
3100
0010
,  // measure 8
0001
0100
0001
0100
2000
0000
3100
0001
,  // measure 9
1000
0100
1000
0100
0002
0000
0103
1000
,  // measure 10
0010
0100
0010
0100
0001
1000
0100
0010
,  // measure 11
0001
0012
0000
1003
2010
0000
3001
1000
,  // measure 12
0100
0000
0000
0100
0010
0000
0100
0000
1000
0000
0100
0000
0010
0000
0000
0000
,  // measure 13
0100
1000
0100
0001
0200
0000
0310
0001
,  // measure 14
0100
0000
0000
0100
0010
0000
0100
0000
0001
0000
0100
0000
0010
0000
0000
0000
,  // measure 15
1000
0010
0001
0010
2000
0000
3100
0010
,  // measure 16
0001
0000
0000
0001
0100
0000
0001
0000
1000
0000
0100
0000
0010
0000
0011
0000
,  // measure 17
0000
1100
0000
0012
0000
0000
0103
0000
,  // measure 18
0010
0000
0000
0010
1000
0000
0001
0000
1000
0000
0100
0000
0010
0000
0000
0000
,  // measure 19
0220
0000
0330
0000
1001
0010
1001
0000
,  // measure 20
0002
0000
0103
0010
0200
0000
2300
0000
,  // measure 21
3100
0001
1000
0010
1000
0010
0100
0001
,  // measure 22
1000
0100
0010
0000
0220
0000
0330
0000
,  // measure 23
0001
0000
0000
0001
0010
0000
0001
0000
0100
0000
0000
0001
0100
0000
0010
0000
,  // measure 24
2000
0000
3100
0010
0200
0000
0302
0000
,  // measure 25
0103
1000
0001
0010
0001
0010
0100
1000
,  // measure 26
0002
0000
0103
0010
0220
0000
0330
0000
,  // measure 27
1000
0000
0000
1000
0010
0000
1000
0000
0100
0000
0000
1000
0100
0000
0010
0000
,  // measure 28
0002
0000
0103
0010
0200
0000
1300
0001
,  // measure 29
0010
0001
0010
1000
0010
1000
0100
0010
,  // measure 30
0002
0000
0000
1003
0100
0000
1000
0000
0100
0000
0010
0000
0100
0000
1000
0000
,  // measure 31
0020
0000
0031
0010
1000
0000
1001
0000
,  // measure 32
0001
1000
0100
0010
0200
0000
0301
1000
,  // measure 33
0010
1000
0010
0001
0010
0001
0100
0010
,  // measure 34
2000
0000
0000
3001
0100
0000
0001
0000
0100
0000
0010
0000
0100
0000
0001
0000
,  // measure 35
0020
0000
0130
1000
0001
0100
0010
0000
,  // measure 36
1000
0010
0000
1000
0010
0000
0000
0000
1000
0000
0100
0000
1000
0000
0000
0000
,  // measure 37
0001
0010
0000
0001
0010
0000
0000
0000
0001
0000
0100
0000
0001
0000
0000
0000
,  // measure 38
1000
0001
0000
1000
0001
0000
0000
0000
1000
0000
0100
0000
0010
0000
0000
0000
,  // measure 39
0001
0100
0000
0100
0020
0000
0000
0000
0000
0000
0130
0000
0110
0000
0000
0000
,  // measure 40
1000
0010
1000
0010
0100
1000
0100
0001
,  // measure 41
0010
0100
0010
0100
0001
0100
0010
0001
,  // measure 42
1000
0000
0001
0100
0010
0110
0000
0110
,  // measure 43
1000
0010
0100
0001
0010
0001
1001
0000
,  // measure 44
1000
0100
0001
0100
1000
0010
0001
0010
,  // measure 45
1010
0110
0202
0303
,  // measure 46
2000
0000
3100
0001
1000
0010
0001
1000
,  // measure 47
0200
0000
0000
0310
,  // measure 48
0001
0200
0000
0301
0100
0001
0010
0000
,  // measure 49
0012
0000
0000
1000
1003
0000
0101
0000
,  // measure 50
1000
0200
0000
1300
0100
1000
0010
0000
,  // measure 51
2010
0000
0000
0001
3001
0000
1100
0000
,  // measure 52
0001
0020
0000
1030
0010
1000
0010
0000
,  // measure 53
0012
0000
0000
0010
1000
0000
0103
0000
,  // measure 54
0001
0200
0000
1300
0100
1000
0100
0000
,  // measure 55
0201
0000
0000
0010
0020
0000
0330
0000
,  // measure 56
0010
1000
0100
0000
0010
0001
0100
0000
,  // measure 57
0010
1000
0100
0010
0001
0100
0110
0000
,  // measure 58
1000
0010
0100
0010
1000
0010
0001
0010
,  // measure 59
1000
0001
0100
0010
1000
0001
1000
0000
,  // measure 60
0001
1000
0100
0001
0100
1000
0001
0100
,  // measure 61
1000
0100
0001
1000
0010
0010
1001
0000
,  // measure 62
0001
0010
0100
0010
0001
0010
1000
0010
,  // measure 63
0001
1000
0100
0010
0001
1000
0001
0000
,  // measure 64
1000
0010
0001
0010
1000
0100
0001
0100
,  // measure 65
0010
0010
0110
0000
0001
1000
1001
0000
,  // measure 66
0001
1000
0010
0001
0010
0001
1000
0100
,  // measure 67
0001
0010
1000
0010
1000
0001
0100
1000
,  // measure 68
0001
0000
1000
0100
0001
0100
0001
1000
,  // measure 69
0010
0001
0100
1000
0100
0001
0100
0000
,  // measure 70
0010
1000
0100
1000
0010
1000
0001
1001
,  // measure 71
0000
0011
0000
2100
0000
0000
3100
0000
,  // measure 72
0010
0001
0100
0001
0010
0001
1000
0001
,  // measure 73
0100
1000
0100
0001
1000
0100
0020
0200
,  // measure 74
0000
0000
0000
0000
,  // measure 75
0000
0000
0330
0110
,  // measure 76
1000
0000
0000
1000
0100
0000
1000
0000
0010
0000
0000
0010
1000
0000
0000
0000
,  // measure 77
0001
0100
0010
1000
0100
0001
0100
1000
,  // measure 78
0001
0000
0000
0001
0100
0000
0001
0000
0010
0000
0000
0010
0001
0000
0011
0000
,  // measure 79
0000
1001
0000
0201
0000
0000
0310
0000
,  // measure 80
1000
0010
0000
0100
0010
0000
0000
0000
0100
0000
0001
0000
0010
0000
0000
0000
,  // measure 81
0001
0010
0000
0100
0010
0000
0000
0000
0001
0000
0010
0000
1000
0000
0010
0000
,  // measure 82
0001
1000
1000
0001
0000
1000
0010
0100
,  // measure 83
0001
0100
0001
0000
1000
0000
1000
0000
0001
0000
0010
0000
0011
0000
0000
0000
,  // measure 84
1000
0100
1000
0000
0001
0000
0001
0000
1000
0000
0010
0000
1010
0000
0000
0000
,  // measure 85
0001
0100
0001
0000
1000
0000
0001
0000
1000
0100
1000
0000
0001
0000
1000
0000
,  // measure 86
0020
0000
0130
0001
1000
0010
0110
0000
;

//---------------dance-single - ----------------
#NOTES:
     dance-single:
     :
     Medium:
     10:
     0.474952,0.542133,0.224977,0.491618,0.000000,399.000000,372.000000,27.000000,59.000000,0.000000,0.000000,0.474952,0.542133,0.224977,0.491618,0.000000,399.000000,372.000000,27.000000,59.000000,0.000000,0.000000:
0000
0000
0000
0000
,
0000
0000
0000
0000
,
0000
0000
0000
0000
,
0000
0000
0000
0000
,
0001
0010
1000
0010
,
0001
0100
0001
0100
0001
0000
0000
0001
,
1000
0010
0001
0010
,
1000
0100
1000
0100
1000
0000
0000
0001
,
0010
0000
0001
0100
0001
0000
0000
1000
,
0010
0000
1000
0100
1000
0000
0000
0001
,
0100
0000
0001
1000
0100
0000
0000
0000
,
1000
0001
0000
0001
1000
0000
1001
0000
,
0001
0000
0100
0000
0010
0100
0010
0000
,
1000
0010
1000
0000
0200
0000
0300
0000
,
1000
0000
0100
0000
0010
0100
0010
0000
,
0001
0010
0001
0000
0200
0000
0300
0000
,
0010
0000
1000
0000
0001
0000
0010
0001
,
0000
0110
0000
2002
0000
0000
3003
0000
,
0001
0000
0100
0010
0000
0010
1000
0000
,
2200
0000
3300
0000
0100
0010
0001
0000
,
2000
0000
3001
0100
0002
0000
0203
0000
,
1300
0100
2000
0000
3200
0000
0302
0000
,
1003
0001
1000
0000
2002
0000
3003
0000
,
1000
0000
0010
1000
0100
0000
0010
0000
,
0002
0000
1003
0100
2000
0000
3200
0000
,
0301
0100
0002
0000
0203
0000
1300
0000
,
1001
0000
1000
0001
2000
0000
3000
0000
,
0001
0000
0010
0001
0100
0000
0010
0000
,
2000
0000
3100
0010
0200
0000
0302
0000
,
2003
0000
3002
0000
0103
0010
0200
0000
,
1300
0100
0010
0000
0220
0000
0330
0000
,
0010
0000
0100
1000
0010
0000
1000
0000
,
0002
0000
0103
0010
0200
0000
2300
0000
,
3002
0000
2003
0000
3100
0010
0200
0000
,
0301
0100
0010
0000
0220
0000
0330
0000
,
0010
0000
1000
0001
1000
0000
0100
0000
,
0020
0000
0000
0000
0100
0100
0100
0000
,
0032
0000
0000
0000
1000
1000
1000
0000
,
0203
0000
0000
0000
0010
0010
0010
0000
,
2300
0000
0000
0000
0000
3100
0001
0000
,
1000
0010
1000
0000
0010
0000
0100
0000
,
0001
0010
0001
0000
0010
0000
0100
0000
,
1000
0000
0001
0100
0001
0100
0000
0010
,
1000
0000
1000
0000
0010
1000
0100
0000
,
0010
0010
0100
0100
,
1001
0110
2002
3003
,
1000
0000
0010
0000
0100
0001
0010
0000
,
0210
0000
0000
0310
,
0001
0010
0000
0010
0001
0000
0100
0000
,
0020
0000
1000
0100
,
1030
0010
0000
0010
1000
0000
0100
0000
,
0020
0000
0001
0100
,
0031
1000
0000
0010
0100
0000
0001
0000
,
2002
0000
3003
0000
0001
1000
0001
0000
,
1000
0100
0000
0010
0001
0000
0100
0000
,
0020
0000
0000
0100
0200
0000
0330
0000
,
0002
0003
2000
3000
,
0002
0000
2003
0000
3001
1000
0001
0000
,
1000
0000
0100
0000
0010
0100
1000
0000
,
0100
0000
0001
0000
0100
0010
0100
0000
,
1000
0000
0001
0000
0100
0010
1000
0000
,
0100
0010
0001
0000
1000
1000
1000
0000
,
0001
0000
0100
0000
0010
0100
0001
0000
,
0100
0000
1000
0000
0100
0010
0100
0000
,
0001
0000
1000
0000
0100
0010
0001
0000
,
0100
0010
0100
0010
0100
0000
1001
0000
,
0001
0000
0010
0000
1000
0010
1000
0000
,
0100
0000
0001
0000
0100
0001
0100
0000
,
0000
0000
0001
0000
0100
1000
0100
0000
,
1000
0000
0010
0000
0001
0010
0001
0000
,
1000
0000
0010
0000
0100
0000
0001
0010
,
0000
1100
0000
2002
0000
0000
3003
0000
,
0001
0000
0100
0000
0001
1000
0100
0000
,
0010
0001
1000
0000
0010
0100
0020
0000
,
0200
0000
0000
0000
,
0000
0000
0330
0110
,
1000
1010
0001
0011
,
1000
0000
1010
0000
0001
0100
0001
0000
,
1000
0100
0010
0000
0100
0000
0010
0100
,
0000
0110
0000
1002
0000
0000
1003
0000
,
0001
0101
1000
1010
,
1000
0000
1100
0000
0001
0010
0001
0000
,
1000
0010
1000
0000
0100
0000
0010
0000
,
0001
0010
0001
0010
0001
0000
0110
0000
,
1000
0010
1000
0010
1000
0000
0110
0000
,
0001
0010
0001
0000
1000
0010
1000
0000
,
0200
0000
0000
0301
;

//---------------dance-single - ----------------
#NOTES:
     dance-single:
     :
     Easy:
     8:
     0.358297,0.505991,0.291638,0.524948,0.000000,301.000000,266.000000,35.000000,63.000000,0.000000,0.000000,0.358297,0.505991,0.291638,0.524948,0.000000,301.000000,266.000000,35.000000,63.000000,0.000000,0.000000:
0000
0000
0000
0000
,
0000
0000
0000
0000
,
0000
0000
0000
0000
,
0000
0000
0000
0000
,
0001
0001
0010
0000
,
0001
0100
0001
0000
,
1000
1000
0010
0000
,
1000
0100
1000
0000
,
0001
0100
0010
0000
,
1000
0100
0010
0000
,
0100
0100
0100
0000
,
1001
0000
0000
0110
0000
0000
1001
0000
,
0001
0001
0100
0100
,
0001
0100
0020
0030
,
1000
1000
0100
0100
,
1000
0100
0020
0030
,
0100
0000
1000
0000
0010
0000
0000
1001
,
0000
1001
0000
2002
0000
0000
3003
0000
,
0001
1000
0001
1000
,
0200
0300
0110
0110
,
0002
0023
0032
0000
,
0023
2030
3020
0032
,
2003
3002
0203
0000
,
0310
0100
0010
0000
,
2000
3020
2030
0000
,
3020
0032
0023
2030
,
3002
2003
3200
0000
,
0310
0100
0010
0000
,
0002
0203
2300
0000
,
3200
0302
2003
3020
,
0032
0023
2030
0000
,
3100
0010
0001
0000
,
2000
3200
0302
0000
,
0203
2300
3002
0023
,
2030
3020
0032
0000
,
1003
0010
0100
0001
,
2002
0000
3003
0000
,
0000
0000
0000
0100
0000
0000
0100
0000
,
2002
0000
3003
0000
,
0001
0000
0001
0000
0000
0001
1000
0000
,
0001
0010
0100
0010
,
0001
0100
0010
0100
,
0001
0000
0010
0000
0011
0000
0000
1000
,
0010
1000
0010
1010
,
0001
0100
0010
1000
,
1100
0110
0022
0033
,
0010
0001
0100
0010
,
2002
0000
0000
3003
,
1000
0000
1000
0100
,
0020
0000
0100
0031
,
0001
0000
0001
0100
,
0020
0000
0100
1030
,
0001
0000
0001
0010
,
2000
0000
0000
3000
,
1000
0000
1000
0010
,
0002
0003
2000
3000
,
0010
0000
0010
0000
,
0010
0010
0010
1001
,
1000
0100
1000
0100
,
0001
0100
0001
0100
,
1000
0100
0001
0100
,
1000
0010
1001
0000
,
1000
0010
1000
0010
,
0001
0010
0001
0010
,
1000
0010
0001
0010
,
1000
1010
1001
0000
,
0001
0010
1000
0010
,
0001
0100
1000
0100
,
0000
0001
0100
0010
,
1000
0100
0011
0000
,
0010
0000
0001
0000
0100
0000
0000
1001
,
0000
1001
0000
2002
0000
0000
3003
0000
,
1000
0010
0100
0001
,
1000
0100
0010
0001
,
0200
0000
0000
0000
,
0000
0000
0300
0110
,
1000
0010
1000
0100
,
1000
0010
0100
0001
,
0010
0000
0001
0000
0100
0000
0000
1001
,
0000
1001
0000
2002
0000
0000
3003
0000
,
1000
1000
0100
0100
,
0001
0001
0100
1000
,
0100
0001
0100
1000
,
1001
1001
0010
1000
,
1001
1001
0010
0001
,
1001
0010
1001
0010
,
0000
0000
0000
1001
;

//---------------dance-single - ----------------
#NOTES:
     dance-single:
     :
     Beginner:
     3:
     0.199980,0.289138,0.066660,0.191647,0.000000,168.000000,160.000000,8.000000,23.000000,0.000000,0.000000,0.199980,0.289138,0.066660,0.191647,0.000000,168.000000,160.000000,8.000000,23.000000,0.000000,0.000000:
0000
0000
0000
0000
,
0000
0000
0000
0000
,
0000
0000
0000
0000
,
0000
0000
0000
0000
,
0001
0000
0001
0000
,
1000
0000
0001
0000
,
1000
0000
1000
0000
,
0001
0000
1000
0000
,
0001
0000
0001
0000
,
1000
0000
1000
0000
,
0001
0000
1000
0000
,
2002
0000
3003
0000
,
0001
0000
0001
0000
,
0010
0010
0020
0030
,
1000
0000
1000
0000
,
0010
0010
0020
0030
,
0001
0000
1000
0000
,
2002
0000
0000
3003
0000
0000
0000
0000
,
0001
0000
1000
0000
,
0200
0000
0300
0000
,
1000
1000
1000
0000
,
0100
0000
0010
0000
,
0001
0001
0002
0000
,
0003
0000
0000
0000
,
0001
0001
0001
0000
,
0100
0000
0010
0000
,
1000
1000
2000
0000
,
3000
0000
0000
0000
,
0001
0001
0001
0000
,
0100
0000
1000
0000
,
0010
0010
0020
0000
,
0030
0000
0000
0000
,
1000
1000
1000
0000
,
0100
0000
0001
0000
,
0010
0010
0020
0000
,
0030
0000
0000
0000
,
1001
0000
0000
0000
,
0000
0000
0000
0000
,
1001
0000
0000
0000
,
0000
0000
0000
0000
,
0001
0000
0001
0000
,
0100
0000
0100
0000
,
1000
1000
1000
0000
,
2002
0000
3003
0000
,
1000
0000
0100
0000
,
0001
0001
0001
0000
,
0010
0000
0010
0010
,
0020
0000
0030
0000
,
0001
0000
0001
0000
,
0002
0000
0003
0000
,
1000
0000
1000
0000
,
2000
0000
3000
0000
,
0001
0000
0100
0000
,
0020
0000
0030
0000
,
1000
0000
0100
0000
,
0010
0000
0001
0000
,
0200
0000
0000
0000
,
0000
0000
0300
0100
,
0100
0000
0100
0000
,
0001
0000
0001
0000
,
1000
0000
1000
0000
,
0100
0100
0100
0000
,
0010
0000
0010
0000
,
0001
0000
0001
0000
,
1000
0000
1000
0000
,
0010
0010
0010
0000
,
1000
1000
1000
0000
,
0010
0000
0100
0000
,
0001
0000
0010
0000
,
0001
0001
0001
0000
,
0100
0100
0100
0000
,
2002
0000
3003
0000
,
0010
0010
0010
0000
,
1000
0000
0001
0000
,
0020
0000
0000
0000
,
0000
0000
0030
0010
,
0010
0000
0010
0000
,
0100
0000
0100
0000
,
0010
0000
0010
0000
,
2002
0000
0000
3003
0000
0000
0000
0000
,
0001
0000
1000
0000
,
0001
0000
1000
0000
,
0001
0000
1000
0000
,
0010
0010
0010
0000
,
0010
0010
0010
0000
,
0010
0010
0010
0010
,
0000
0000
0000
1001
;
