#TITLE:Dr. Chemical & Killing Machine;
#SUBTITLE:;
#ARTIST:Hommarju;
#TITLETRANSLIT:;
#SUBTITLETRANSLIT:;
#ARTISTTRANSLIT:;
#GENRE:Industrial Techno;
#CREDIT:;
#BANNER:Dr. Chemical & Killing Machine.png;
#BACKGROUND:Dr. Chemical & Killing Machine-bg.png;
#LYRICSPATH:;
#CDTITLE:cdtitle.png;
#MUSIC:Dr. Chemical & Killing Machine.ogg;
#OFFSET:-0.014714;
#SAMPLESTART:26.197533;
#SAMPLELENGTH:11.636358;
#SELECTABLE:YES;
#BPMS:0.000000=165.000000
;
#STOPS:
;
#BGCHANGES:;
#KEYSOUNDS:;
#ATTACKS:;

//---------------dance-single - ----------------
#NOTES:
     dance-single:
     :
     Hard:
     14:
     0.724313,0.814852,0.500121,0.534612,0.452695,588.000000,530.000000,58.000000,62.000000,0.000000,0.000000,0.724313,0.814852,0.500121,0.534612,0.452695,588.000000,530.000000,58.000000,62.000000,0.000000,0.000000:
// measure 0
0000
0000
0000
0000
,  // measure 1
0000
0000
0000
0000
,  // measure 2
0000
0000
0000
0000
,  // measure 3
0000
0000
0000
0000
,  // measure 4
1001
0000
1001
0000
1000
0100
1001
0000
,  // measure 5
0001
0100
0100
1001
0000
0110
0110
0000
,  // measure 6
1001
0000
1001
0000
0010
0100
1001
0000
,  // measure 7
1000
0010
0001
0010
1000
0100
0001
0100
,  // measure 8
1000
1000
1000
0000
0010
1000
0100
0000
,  // measure 9
1000
1000
0010
0100
0001
0000
0110
0000
,  // measure 10
0001
0001
0001
0000
0010
0001
0100
0000
,  // measure 11
0001
0001
0010
0100
1000
0000
0001
0100
,  // measure 12
0000
0001
0001
0000
1000
0010
0001
0000
,  // measure 13
0010
0010
1000
0100
0010
0000
1001
0000
,  // measure 14
1000
1000
1000
0000
0001
0010
1000
0000
,  // measure 15
1010
0000
0000
0110
0000
0000
0011
0000
2002
0000
0000
0000
3003
0000
0000
0000
,  // measure 16
0001
0000
0100
0000
1000
0100
0001
0000
,  // measure 17
1000
0010
0001
0010
1000
0100
0001
0100
,  // measure 18
1000
0000
0010
0000
0100
0001
0100
0001
0100
0000
0001
0000
0010
0000
0100
1000
,  // measure 19
0100
0000
0010
0000
0001
0100
0001
0100
0001
0000
0000
0000
1001
0000
0000
0000
,  // measure 20
1000
0000
0100
0000
0010
0001
0010
0001
0010
0000
0100
0000
1000
0000
0010
1000
,  // measure 21
0010
0000
0100
0000
0001
0010
0001
0010
0001
0000
0100
0000
1000
0000
0100
0000
,  // measure 22
0001
0000
0010
0000
0100
1000
0100
1000
0100
0000
0001
0000
0100
0000
0010
0001
,  // measure 23
0010
0000
1000
0000
0010
0100
0010
0100
0010
0000
0000
0000
1001
0000
0000
0000
,  // measure 24
1000
0000
0010
0000
0100
0010
0100
0010
0100
0000
1000
0000
0100
0000
0010
1000
,  // measure 25
0010
0000
0001
0000
0010
0100
0010
0100
0010
0000
1000
0000
0100
0000
0010
0000
,  // measure 26
0001
0000
0100
0010
0100
0000
0001
0000
0010
0000
0000
0000
0011
0000
0000
0000
,  // measure 27
1000
0000
0100
0010
0100
0000
1000
0000
0010
0000
0000
0000
1000
0001
1000
0001
,  // measure 28
1000
0000
0010
0100
0010
0000
1000
0000
0100
0000
0000
0000
1000
0100
0010
0000
,  // measure 29
0001
0000
0100
0010
1000
0000
0001
0000
0100
0000
0010
1000
0010
1000
0001
0000
,  // measure 30
1000
0000
0100
0010
0100
0000
0001
0000
0100
0000
0000
0000
1100
0000
0000
0000
,  // measure 31
0001
0000
0100
0010
0100
0000
1000
0000
0100
0000
0000
0000
0001
1000
0001
1000
,  // measure 32
0001
0000
0010
0100
0010
0000
1000
0000
0010
0000
0000
0000
0001
0010
0100
0000
,  // measure 33
1000
0000
0001
0100
0010
0000
1000
0000
1001
0000
0000
0000
0001
0000
1000
0000
,  // measure 34
0100
0000
0100
0000
0100
0100
0100
0000
,  // measure 35
1000
0100
0001
0100
1000
0010
0001
0010
,  // measure 36
1010
0000
0101
0000
0011
0010
1100
0000
,  // measure 37
0000
1010
0010
0101
0000
1001
1001
0000
,  // measure 38
0011
0000
1100
0000
0011
0100
1010
0000
,  // measure 39
0000
1100
0010
0101
0000
1001
0110
1001
,  // measure 40
0000
0010
0010
0000
1001
1001
1001
0000
,  // measure 41
0000
1100
0001
0101
0000
1010
0011
0000
,  // measure 42
0101
0000
1010
0000
1100
0110
0011
0000
,  // measure 43
0101
0000
0000
0110
0000
0000
1010
0000
2002
0000
0000
0000
3003
0000
0000
0000
,  // measure 44
2000
0000
0000
3200
0000
0000
0320
0000
0000
0000
0000
0000
0030
0000
0000
0000
,  // measure 45
0002
0000
0000
0203
0000
0000
0320
0000
0000
0000
0000
0000
0030
0000
0000
0000
,  // measure 46
0200
0000
0000
0302
0000
0000
0023
0000
0000
0000
0000
0000
0030
0000
0100
0000
,  // measure 47
0200
0000
0000
2300
0000
0000
3020
0000
0000
0000
0000
0000
0030
0000
0000
0000
,  // measure 48
0201
0000
0000
0320
0000
0000
2030
0000
0000
0000
0000
0000
3000
0000
0000
0000
,  // measure 49
1200
0000
0000
0320
0000
0000
0032
0000
0000
0000
0000
0000
0003
0000
0000
0000
,  // measure 50
0021
0000
0000
0032
0000
0000
0203
0000
0000
0000
0000
0000
0300
0000
0010
0000
,  // measure 51
1020
0000
0000
2030
0000
0000
3200
0000
0000
0000
0000
0000
0300
0000
0000
0000
,  // measure 52
2000
3000
0000
0200
0300
0000
0020
0030
0000
0000
0001
0000
0100
0000
0010
0000
,  // measure 53
2000
3000
0000
0200
0300
0000
0020
0030
0000
0000
0001
0000
0100
0000
0010
0000
,  // measure 54
0002
0003
0000
0020
0030
0000
2000
3000
0000
0000
0001
0000
1000
0000
0200
0300
,  // measure 55
0002
0003
0000
0200
0300
0000
2000
3000
0000
0000
1000
0000
0010
0000
0100
0000
,  // measure 56
0002
0003
0000
0200
0300
0000
0020
0030
0000
0000
1000
0000
0100
0000
0010
0000
,  // measure 57
0002
0003
0000
0200
0300
0000
0020
0030
0000
0000
1000
0000
0100
0000
0010
0000
,  // measure 58
2000
3000
0000
0020
0030
0000
0002
0003
0000
0000
1000
0000
0001
0000
0200
0300
,  // measure 59
2000
3000
0000
0200
0300
0000
0002
0003
0000
0000
0001
0000
0010
0000
0100
0000
,  // measure 60
2000
0000
3002
0000
,  // measure 61
2003
3002
2003
3002
,  // measure 62
1003
0000
0010
0000
0100
0000
0001
0010
0000
0001
0010
0000
0100
0000
1000
0010
,  // measure 63
0000
1000
0010
0000
0100
0000
0001
1000
0000
1000
0100
0000
0010
0000
0001
1000
,  // measure 64
0000
1000
0010
0000
0100
0000
1000
0100
0000
0010
0100
0000
0001
0000
0010
0100
,  // measure 65
0000
0001
0100
0000
0010
0000
0001
1000
0000
1000
0010
0100
0000
0100
0010
1000
,  // measure 66
0000
0001
0010
0000
0100
0000
1000
0010
0000
1000
0010
0000
0100
0000
0001
0010
,  // measure 67
0000
0001
0010
0000
0100
0000
1000
0001
0000
0001
0100
0000
0010
0000
1000
0001
,  // measure 68
0000
0001
0010
0000
0100
0000
0001
0100
0000
0010
0100
0000
1000
0000
0010
0100
,  // measure 69
0000
1000
0100
0000
0010
0000
1000
0001
0000
0010
0100
0010
0100
0010
0100
0010
,  // measure 70
0001
0000
1000
0010
0100
0000
0001
0000
0010
0000
1000
0000
0010
0000
0001
0000
,  // measure 71
0100
0000
0010
1000
0001
0000
0100
0000
1000
0000
0100
0000
0001
0000
0010
0100
,  // measure 72
1000
0000
0010
0100
0001
0000
0100
0000
0010
0000
1000
0000
0100
0010
0100
0000
,  // measure 73
0001
0000
0100
0010
0100
0000
1000
0000
0010
0000
0100
0000
0010
0100
0001
0000
,  // measure 74
1000
0000
0010
1000
0100
0000
1000
0000
0010
0000
0001
0000
0010
0000
1000
0000
,  // measure 75
0100
0000
0010
0001
0100
0000
0001
0000
1000
0000
0100
0000
0001
0000
0100
0010
,  // measure 76
0001
0000
0100
0010
1000
0000
0100
0000
0010
0000
0001
0000
0100
0010
0100
0000
,  // measure 77
1000
0000
0100
0010
0000
0010
0100
0000
0001
0010
0001
0000
1000
0010
1000
0000
,  // measure 78
2002
0000
0000
3003
;

//---------------dance-single - ----------------
#NOTES:
     dance-single:
     :
     Medium:
     10:
     0.476716,0.543235,0.198324,0.577726,0.012934,387.000000,364.000000,23.000000,67.000000,0.000000,0.000000,0.476716,0.543235,0.198324,0.577726,0.012934,387.000000,364.000000,23.000000,67.000000,0.000000,0.000000:
0000
0000
0000
0000
,
0000
0000
0000
0000
,
0000
0000
0000
0000
,
0000
0000
0000
0000
,
1000
0000
1000
0000
0100
1000
0001
0000
,
0100
0001
0100
0001
0000
1000
0100
0000
,
0010
0000
0010
0000
0001
1000
0010
0000
,
0200
0302
2003
3200
,
0310
0100
0010
0000
0010
0001
1000
0000
,
1000
0001
0100
0000
0101
0000
1000
0000
,
0010
0100
0010
0000
0010
1000
0001
0000
,
0001
1000
0100
0000
1100
0000
0002
0000
,
0003
1000
1000
0000
0001
0100
1000
0000
,
1000
0100
0001
0000
0110
0000
0001
0000
,
1000
0100
0001
0000
0001
0100
1000
0000
,
0001
0000
0000
1000
0000
0000
0001
0000
2002
0000
0000
0000
3003
0000
0000
0000
,
0001
0000
0001
0000
0001
0100
0001
0000
,
0200
0302
2003
3200
,
0310
0001
0100
0000
0010
1000
0100
0000
,
0010
0001
0100
0001
0010
0000
1001
0000
,
0100
1000
0010
0000
0100
0001
0010
0000
,
0100
1000
0010
1000
0100
0000
1001
0000
,
0001
0100
0010
0000
1000
0100
0010
0000
,
0001
0100
1000
0100
0001
0000
0110
0000
,
1000
0010
0100
0000
0001
0010
0100
0000
,
1000
0100
0001
0100
1000
0000
0001
0100
,
0020
0000
1030
0000
0010
1000
0100
0000
,
0020
0000
0031
0000
0010
0001
0100
0010
,
2000
0000
3010
0000
1000
0010
0100
0001
,
0020
0130
0011
1100
,
0002
0000
0103
0000
0010
0100
0001
0000
,
2000
0000
3100
0000
0010
0100
1000
0001
,
0200
0000
0310
0000
0100
0001
1000
0100
,
0010
0000
0000
0100
0000
0000
0010
0000
0220
0000
0000
0000
0330
0000
0000
0000
,
1000
0000
1000
0000
1000
0100
1000
0000
,
0200
2300
3002
0103
,
1010
0000
0011
0000
1000
0010
1000
0000
,
0000
1000
0100
1000
0000
0100
0010
0000
,
0011
0000
1010
0000
0001
0010
0001
0000
,
0000
0001
0100
0010
0000
1000
0100
0010
,
0000
0100
0100
0000
1000
0001
1000
0000
,
0000
0001
0100
0010
0000
1000
0100
0000
,
0011
0000
1100
0000
0001
0100
0001
0000
,
1000
0000
0000
0010
0000
0000
1000
0000
2020
0000
0000
0000
3030
0000
0000
0000
,
2000
0000
0000
0200
0000
0000
3300
0000
,
0002
0000
0000
0200
0000
0000
0303
0000
,
0002
0000
0000
0020
0000
0000
0033
1000
,
2000
0000
0000
0020
0000
0000
3030
0000
,
2001
0000
0000
0200
0000
0000
3300
0000
,
1002
0000
0000
0200
0000
0000
0303
0000
,
1002
0000
0000
0020
0000
0000
0033
1000
,
2001
0000
0000
0020
0000
0000
3030
0000
,
2000
0000
0000
3200
0000
0000
0310
0000
,
0002
0000
0000
0203
0000
0000
0310
0000
,
2000
0000
0000
3200
0000
0000
0301
0001
,
0200
0000
0000
2300
0000
0000
3010
0000
,
0200
0000
0000
0302
0000
0000
0013
0000
,
0200
0000
0000
2300
0000
0000
3001
0000
,
0200
0000
0000
2300
0000
0000
3100
0100
,
0002
0000
0000
0023
0000
0000
0130
0000
,
2000
0000
3002
0000
,
2003
3002
2003
3002
,
1003
0010
0100
0000
0010
0100
0001
0000
,
0010
0100
1000
0000
0001
0010
0100
0000
,
1000
0010
0100
0000
0010
1000
0100
0000
,
0010
0001
0100
0000
0010
0100
0001
0000
,
1000
0100
0010
0000
0010
0100
0001
0000
,
0001
0100
0010
0000
0010
0100
1000
0000
,
0001
0100
1000
0000
1000
0100
0001
0000
,
1000
0100
0010
0000
0220
0000
0330
0000
,
0001
0010
0001
0010
0001
0100
0001
0000
,
1000
0010
1000
0010
1000
0100
1000
0000
,
0001
0100
0010
0100
0001
0100
0010
0000
,
1000
0100
0010
0100
1000
0100
0010
0000
,
0001
1000
0010
0100
0001
1000
0100
0000
,
0010
0001
1000
0010
0100
0001
1000
0000
,
0100
0010
0001
0100
0010
1000
0100
0000
,
0010
0001
0100
0010
1000
0001
0010
0000
,
0220
0000
0000
0330
;

//---------------dance-single - ----------------
#NOTES:
     dance-single:
     :
     Easy:
     8:
     0.389257,0.543235,0.405270,0.620840,0.000000,316.000000,269.000000,47.000000,72.000000,0.000000,0.000000,0.389257,0.543235,0.405270,0.620840,0.000000,316.000000,269.000000,47.000000,72.000000,0.000000,0.000000:
0000
0000
0000
0000
,
0000
0000
0000
0000
,
0000
0000
0000
0000
,
0000
0000
0000
0000
,
1001
0000
1001
0000
0000
1000
0100
0000
,
0000
1000
0001
1000
0000
0001
0100
0000
,
1001
0000
1001
0000
0000
0001
1000
0000
,
0002
0023
0230
2300
,
3001
0001
0100
0100
,
0001
0100
1001
0000
,
1000
1000
0100
0100
,
1000
0100
1001
0002
,
0003
0001
0010
0010
,
0001
0010
1001
0000
,
1000
1000
0010
0010
,
1001
0110
2002
3003
,
1000
0000
0001
0000
,
2000
3200
0320
0032
,
1003
1010
1000
1100
,
1000
0010
1000
0000
0100
0000
1001
0000
,
0001
0011
0001
0101
,
0001
0010
0001
0000
0100
0000
1001
0000
,
1000
1100
0100
0101
,
0001
1000
0001
0000
0010
0000
1001
0000
,
0001
0101
0100
1100
,
1000
0001
1000
0000
0020
0000
0230
0000
,
0302
0000
0023
0000
0130
0010
0100
0000
,
0020
0000
0032
0000
0103
0010
0100
0000
,
0002
0000
0023
0000
0130
0010
0100
0000
,
0002
0203
2300
3010
,
2000
0000
3020
0000
0130
0010
0100
0000
,
0020
0000
2030
0000
3100
0010
0100
0000
,
2000
0000
3020
0000
0130
0010
0100
0000
,
2000
3200
0002
0303
,
0001
0000
1000
0000
,
0002
0023
0230
2300
,
3010
0000
1001
0000
0000
1000
0100
0000
,
0000
0010
0100
0010
0000
0010
0001
0000
,
0011
0000
1010
0000
0000
0001
0100
0000
,
0000
0010
0100
0010
0000
0010
1000
0000
,
0000
1000
0001
0000
1000
0001
1000
0000
,
0000
0010
0100
0010
0000
1000
0001
0000
,
1010
0000
0011
0000
0000
1000
0100
0000
,
0011
1100
0002
0203
,
0320
0000
0000
0030
0000
0000
0000
0000
,
0020
0000
0000
0030
0000
0000
0000
0000
,
2000
0000
0000
3000
0000
0000
0000
0000
,
0002
0000
0000
0003
0000
0000
0000
0000
,
0020
0000
0000
0030
0000
0000
0000
0000
,
0020
0000
0000
0030
0000
0000
0000
0000
,
0002
0000
0000
0003
0000
0000
0000
0000
,
2000
0000
0000
3000
0000
0000
0000
0000
,
0020
0200
0330
0000
,
0020
0200
0330
0000
,
0020
2000
3030
2000
,
3200
0020
0330
0000
,
0020
0200
0330
0000
,
0020
0200
0330
0000
,
0020
0002
0033
0002
,
0203
0020
0330
0000
,
2000
0000
3002
0000
,
2003
3002
2003
3002
,
1003
0100
0010
0001
,
1000
0010
0100
0001
,
0010
1000
0010
0001
,
0100
1000
0100
0001
,
0010
0100
1000
0001
,
0100
0010
1000
0001
,
0010
1000
0010
0001
,
0100
0010
2002
3003
,
1010
0000
1001
0000
1000
0100
1000
0000
,
0011
0000
1001
0000
0001
0100
0001
0000
,
0110
0000
1001
0000
0110
0000
0001
1000
,
0001
0011
1010
0001
,
0011
0000
1100
0000
0001
0100
0001
0000
,
1010
0000
0101
0000
1000
0100
1000
0000
,
0110
0000
1001
0000
0110
0000
1000
0001
,
1000
0000
1010
0000
0101
0000
0001
1000
,
0200
0000
0000
0300
;

//---------------dance-single - ----------------
#NOTES:
     dance-single:
     :
     Beginner:
     5:
     0.264842,0.407426,0.163833,0.267306,0.000000,215.000000,196.000000,19.000000,31.000000,0.000000,0.000000,0.264842,0.407426,0.163833,0.267306,0.000000,215.000000,196.000000,19.000000,31.000000,0.000000,0.000000:
0000
0000
0000
0000
,
0000
0000
0000
0000
,
0000
0000
0000
0000
,
0000
0000
0000
0000
,
1000
1000
0000
1000
,
0000
1000
0000
1000
,
0001
0001
0000
0001
,
0000
0001
0000
0001
,
1000
0000
0100
0000
,
1000
0100
1000
0000
,
0001
0000
0100
0000
,
0001
0100
0001
0001
,
0000
0010
0010
0000
,
0001
0010
0001
0000
,
1000
0000
0010
0000
,
1000
0010
1000
0000
,
0100
0000
0100
0000
,
0200
0000
0000
0000
,
0310
0001
0010
0001
,
0100
0010
1000
0000
,
0010
1000
0010
1000
,
0100
0010
0001
0000
,
0100
0010
0100
0001
,
0100
0010
1000
0000
,
0100
0010
0100
1000
,
0100
0010
0001
0000
,
1000
0010
1000
0000
,
0010
0100
0010
1000
,
0001
0010
0001
0000
,
0001
0010
0100
1000
,
0001
0100
0001
0000
,
0100
0010
0100
0001
,
1000
0100
1000
0000
,
0100
0010
0001
1000
,
0010
0000
0010
0000
,
0020
0000
0000
0030
,
1010
1010
0000
0110
,
0000
1010
0000
1001
,
0011
0011
0000
0110
,
0000
0011
0000
1001
,
0000
0110
0000
1001
,
0000
0011
0000
1010
,
0011
1010
0000
0011
,
1000
0100
0010
0001
,
0200
0000
0000
0300
0000
0000
0000
0000
,
0200
0000
0000
0300
0000
0000
0000
0000
,
0020
0000
0000
0030
0000
0000
0000
0000
,
2000
0000
0000
3000
0000
0000
0000
0000
,
0200
0000
0000
0300
0000
0000
0000
0000
,
0200
0000
0000
0300
0000
0000
0000
0000
,
0020
0000
0000
0030
0000
0000
0000
0000
,
0002
0000
0000
0003
0000
0000
0000
0000
,
2000
0002
3003
0000
,
2000
0002
3003
0000
,
2000
0020
3030
0000
,
0002
0020
0033
0000
,
0002
2000
3003
0000
,
0002
2000
3003
0000
,
0002
0020
0033
0000
,
2000
0020
3030
0000
,
2002
0000
0000
0000
,
0000
0000
0000
3003
,
1000
0100
1000
0000
,
0100
0001
0100
0000
,
0001
0010
0001
0000
,
0010
1000
0010
0000
,
1000
0100
1000
0000
,
0001
0010
0001
0000
,
0100
0001
0100
0000
,
0010
1000
0020
0000
,
1030
0001
0010
0100
,
1000
0010
0100
0001
,
0010
0001
1000
0010
,
0100
0001
1000
0100
,
0010
0001
0100
1000
,
0100
0001
0010
0100
,
1000
0010
0001
0010
,
1000
0100
0010
0001
,
0220
0000
0000
0330
;

//---------------dance-single - ----------------
#NOTES:
     dance-single:
     :
     Challenge:
     18:
     1.076615,1.154373,0.819163,0.974373,1.263236,874.000000,779.000000,95.000000,113.000000,7.000000,0.000000,1.076615,1.154373,0.819163,0.974373,1.263236,874.000000,779.000000,95.000000,113.000000,7.000000,0.000000:
0000
0000
0000
0000
,
0000
0000
0000
0000
,
0000
0000
0000
0000
,
0000
0000
0000
0000
,
0101
0000
1100
0000
1000
1100
0101
0000
,
0001
0011
1010
0011
0000
0011
1001
0000
,
1100
0000
0101
0000
0001
0101
1100
0000
,
1000
0010
0100
0010
0100
0001
0010
0100
1000
0010
0100
0010
0100
0001
0010
0100
,
1000
0000
1000
0000
1000
0100
0010
0001
0100
0000
0100
0000
0100
0000
0010
1000
,
0100
0000
0100
0000
0010
0100
1000
0001
0100
0000
0020
0000
2000
0000
3030
0000
,
0001
0000
0001
0000
0001
0100
0010
1000
0100
0000
0100
0000
0100
0000
0010
0001
,
0100
0000
0100
0000
0010
0100
0001
1000
0100
0000
0020
0000
0032
0000
1003
0000
,
MMMM
0000
1000
0000
1000
0010
0100
0001
0010
0000
0010
0000
0010
0000
0100
1000
,
0010
0000
0010
0000
1000
0010
0100
0001
0010
0000
0002
0000
0200
0000
0303
0000
,
0001
0000
0001
0000
0001
0010
0100
1000
0010
0000
0010
0000
0010
0000
0100
0001
,
0010
0000
0100
1000
0000
1000
0001
0000
1000
0010
0100
0010
0100
0001
0010
0100
,
1000
0000
1001
0000
1000
1001
1001
0000
,
0001
0010
0100
0010
0100
1000
0010
0100
0001
0010
0100
0010
0100
1000
0010
0100
,
0001
0000
0101
0000
1000
0100
0010
0100
1000
0000
1100
0000
0101
0000
0001
0010
,
0001
0000
0101
0000
1000
0010
0100
0010
1000
0000
0001
0000
0011
0000
0100
0000
,
1001
0000
1010
0000
0001
0010
0100
0010
0001
0000
0011
0000
1010
0000
1000
0100
,
1000
0000
1010
0000
0001
0100
0010
0100
0001
0000
0010
0001
0100
0010
1000
0000
,
1001
0000
1100
0000
0001
0100
0001
0010
0001
0000
0101
0000
1100
0000
1000
0010
,
1000
0000
1100
0000
0001
0100
0001
0010
0001
0000
1000
0000
1010
0000
0100
0000
,
1001
0000
0011
0000
1000
0010
1000
0100
1000
0000
1010
0000
0011
0000
0001
0100
,
0001
0000
0011
0000
1000
0010
1000
0100
0010
0001
0010
0001
1000
0010
1000
0010
,
0200
0300
0001
2000
3001
0000
0020
0130
0110
0000
0011
0000
1001
0000
0001
0100
,
0020
0030
1000
0002
1003
0000
0200
0310
0110
0000
0010
0000
0200
0320
0032
2003
,
3020
0030
0100
0002
0103
0000
0020
1030
1010
0000
1001
0000
0002
0023
0230
0300
,
0002
0003
0100
0020
0031
0000
2000
3010
1010
0000
0002
0203
0302
2003
3200
0320
,
0230
0300
1000
0002
1003
0000
0020
0130
0110
0000
1010
0000
1001
0000
1000
0100
,
0020
0030
0001
2000
3001
0000
0200
0310
0110
0000
0010
0000
0200
0320
2030
3002
,
0023
0030
0100
2000
3100
0000
0020
0031
0011
0000
1001
0000
2000
3020
0230
0300
,
2000
3000
0100
0020
0030
0100
0002
1003
1001
0000
1000
0100
0010
0001
0010
0001
,
1000
0000
0001
0000
1000
0001
1001
0000
,
1000
0010
0100
0001
0010
0001
0100
0010
1000
0100
1000
0010
0100
0001
0010
0001
,
1000
0000
0100
0000
1000
0100
0010
0100
0001
0000
0101
0000
0001
0100
0010
0100
,
1000
0000
1100
0000
1001
0000
1010
0000
0001
0000
0011
0000
1100
0000
0001
1000
,
0001
0000
0100
0000
0001
0100
0010
0100
1000
0000
1100
0000
1000
0100
0010
0100
,
0001
0000
0011
0000
0110
0000
1100
0000
0001
0100
0010
0100
0010
1000
0100
0010
,
MM0M
0000
0110
0000
0001
0010
0100
0010
1000
0000
1010
0000
1000
0010
0100
0010
,
0001
0000
0011
0000
1001
0000
0101
0000
1000
0000
1100
0000
0011
0000
1000
0010
,
1000
0000
0001
0000
1000
0010
0100
0010
0001
0000
0011
0000
0001
0010
0100
0010
,
1000
0000
0100
0010
0000
0010
0001
0000
1000
0010
0100
0010
0100
0001
0010
0100
,
2000
0000
0000
0001
0000
0000
0020
0000
0000
0000
0000
0000
3030
0000
0000
0000
,
0002
0000
0000
1000
0000
0000
0020
0000
0000
0000
0000
0000
0033
0000
0000
0000
,
2000
0000
0000
0010
0000
0000
0200
0000
0000
0000
0000
0000
3300
0000
0001
0000
,
0002
0000
0000
0010
0000
0000
0200
0000
0000
0000
0000
0000
0303
0000
0000
0000
,
0201
0000
0000
0010
0000
0000
0002
0000
0000
0000
0000
0000
0303
0000
0000
0000
,
1200
0000
0000
0010
0000
0000
2000
0000
0000
0000
0000
0000
3300
0000
0000
0000
,
1020
0000
0000
0001
0000
0000
2000
0000
0000
0000
0000
0000
3030
0000
0001
0000
,
0021
0000
0000
1000
0000
0000
0002
0000
0000
0000
0000
0000
0033
0000
0000
0000
,
0202
0303
0000
0200
0300
0000
0220
0330
0000
0000
0010
0000
1000
0000
0100
0000
,
2200
3300
0000
0200
0300
0000
0220
0330
0000
0000
0010
0000
0001
0000
0100
0000
,
0220
0330
0000
0002
0003
0000
2020
3030
0000
0000
0010
0000
1000
0000
0200
0300
,
0220
0330
0000
2000
3000
0000
0022
0033
0000
0000
0010
0000
0001
0000
0100
0000
,
0220
0330
0000
2020
3030
0000
2002
3003
0000
0000
0001
0000
1000
0000
0100
0000
,
0220
0330
0000
0022
0033
0000
2002
3003
0000
0000
1000
0000
0001
0000
0100
0000
,
0220
0330
0000
2020
3030
0000
2200
3300
0000
0000
0001
0000
1000
0000
0100
0000
,
0220
0330
0000
0022
0033
0000
0202
0303
0000
0000
1000
0000
0001
0000
0100
0000
,
0010
1000
0010
1000
0010
1000
0010
1000
0100
1000
0100
1000
0100
1000
0100
1000
,
0010
1000
0001
1000
0010
1000
0100
1000
0010
1000
0001
1000
0010
1000
0100
1000
,
0001
0010
0001
0010
0100
0010
0001
1000
0000
1000
0001
0100
0010
0100
0010
1000
,
0000
1000
0100
0010
0001
0010
0100
1000
0000
1000
0010
0100
0001
0010
0100
1000
,
0000
0001
0100
0010
0100
0010
0100
1000
0000
1000
0100
0010
0100
0010
0100
0001
,
0000
0001
0010
0100
0010
0100
0010
1000
0000
1000
0010
0001
0000
0010
0001
0100
,
0000
0010
1000
0010
0100
0010
0100
0001
0000
0001
1000
0100
0010
0100
0010
0001
,
0000
0001
0100
0010
1000
0010
0100
0001
0000
0001
0010
0100
1000
0010
0100
0001
,
0000
1000
0100
0010
1000
0010
0100
1000
0000
0001
0100
0010
0001
0010
0100
0001
,
0000
1000
0100
0010
0001
0100
0010
1000
0000
0010
1000
0001
1000
0001
1000
0001
,
1000
0100
0010
0001
0100
1000
0100
0001
0010
0100
1000
0010
0100
0001
0010
0001
,
0100
0010
1000
0001
0010
1000
0010
0001
0100
0010
1000
0100
0010
0001
0010
0100
,
1000
0001
0100
0010
1000
0100
0001
0100
1000
0010
0100
0001
0010
0001
0100
0010
,
1000
0100
0010
0001
1000
0010
0001
0010
1000
0100
1000
0100
0010
0001
0100
0010
,
1000
0100
0010
0001
1000
0010
0001
0010
0100
0001
0010
0100
0001
0100
0010
0001
,
1000
0001
0100
0010
0100
1000
0100
0001
0010
0100
0010
1000
0010
0100
1000
0001
,
1000
0010
0100
0001
0010
1000
0010
0001
0100
1000
0100
0001
0010
0100
1000
0010
,
0001
0010
1000
0100
0001
0100
1000
0010
1000
0100
0010
0100
0010
0001
0100
0010
,
2002
0000
0000
3003
;
