#TITLE:Dingodile;
#SUBTITLE:;
#ARTIST:Vicarious Visions Audio Team;
#TITLETRANSLIT:;
#SUBTITLETRANSLIT:;
#ARTISTTRANSLIT:;
#GENRE:Crikey Rock;
#CREDIT:;
#BANNER:Dingodile.png;
#BACKGROUND:Dingodile-bg.png;
#LYRICSPATH:;
#CDTITLE:cdtitle.png;
#MUSIC:Dingodile.ogg;
#OFFSET:-0.219508;
#SAMPLESTART:43.416508;
#SAMPLELENGTH:14.400002;
#SELECTABLE:YES;
#BPMS:0.000000=200.000000
;
#STOPS:
;
#BGCHANGES:;
#KEYSOUNDS:;
#ATTACKS:;

//---------------dance-single - ----------------
#NOTES:
     dance-single:
     :
     Challenge:
     14:
     0.830550,0.848656,0.596999,0.128584,0.123992,633.000000,568.000000,65.000000,14.000000,0.000000,0.000000,0.830550,0.848656,0.596999,0.128584,0.123992,633.000000,568.000000,65.000000,14.000000,0.000000,0.000000:
0000
0000
0000
0000
,
0000
0000
0000
0000
,
0000
0000
0000
0000
,
0000
0000
0000
0000
,
0001
0010
0000
0001
0000
0010
0000
1000
,
0010
1000
0000
0010
0000
0001
0010
0100
,
1000
0010
0000
1000
0000
0010
0000
0001
,
0010
0000
1000
0010
1000
0000
0000
0000
0010
0000
1000
0000
0010
0000
0100
0000
,
0001
0000
1000
0100
1000
0100
0010
0000
,
0100
0000
0011
0001
0100
0000
1010
1000
,
0100
0000
1000
0100
1000
0100
0010
0001
,
0100
0010
0000
0001
0000
0010
0100
0010
,
1000
0000
0001
0100
0001
0100
0010
0000
,
0100
0000
1010
1000
0100
0000
0011
0001
,
0100
0000
0001
0100
0001
0100
0010
1000
,
0100
0001
0100
0010
1000
0010
0001
1000
,
0100
0000
0101
0000
1100
0000
0001
0100
,
0010
1000
0100
1000
0010
0100
0001
0010
,
0001
0000
1100
0000
0101
0000
1000
0010
,
0100
0000
0001
0000
0010
0000
0001
0000
0100
0000
0010
0000
1000
0001
1000
0001
,
1000
0000
1000
0010
0000
0010
0001
0010
,
1000
0000
1000
0100
0000
0100
0001
0100
,
1000
0000
1000
0010
0000
0010
0100
0001
,
0010
1000
0010
0001
0100
1000
0100
0001
,
0010
0000
1001
0000
0010
0001
1001
0000
,
1000
0000
1001
1000
0010
1000
1001
0001
,
0010
0000
1001
0000
0100
0010
1001
0000
,
0001
0100
0001
0100
0001
0000
1000
0100
1000
0100
1000
0000
0010
0000
0000
0000
,
1001
0000
0001
0100
0001
0100
0010
0000
,
0100
0000
1010
1000
0100
0000
0011
0001
,
0100
0000
0001
0100
0001
0100
0010
1000
,
0100
0010
0000
1100
0000
0011
0001
0100
,
0010
0000
1000
0100
1000
0100
0010
0000
,
0100
0000
0011
0001
0100
0000
1010
1000
,
0100
0000
1000
0100
1000
0100
0010
0001
,
0100
1000
0100
0010
0001
0010
1000
0100
,
0120
0000
0031
1002
0000
1003
0010
0100
,
0120
0000
1030
2001
0000
3001
0010
0100
,
0110
0000
0011
0000
1010
0000
0001
0100
,
0000
1000
0100
0000
0001
0010
0100
1000
,
0001
0000
0001
0000
0100
0000
0100
0000
0010
0000
0010
0000
0100
0001
0100
0001
,
1000
0000
1000
0000
0100
0000
0100
0000
0010
0000
0010
0000
0100
1000
0100
1000
,
0020
0000
0031
0021
0000
1030
0100
0010
,
0120
0000
1030
1020
0000
0031
0100
0010
,
1010
0101
0011
1100
,
1010
0011
0101
1100
,
1000
0000
1000
0000
0010
0000
0010
0000
0100
0000
0100
0000
0010
1000
0010
1000
,
0001
0000
0001
0000
0010
0000
0010
0000
0100
0000
0100
0000
0010
0001
0010
0001
,
1000
0000
1000
0000
0010
0000
1000
0100
,
0010
0100
0010
0001
0100
0010
1000
1000
,
0001
0000
0001
0000
0010
0000
0001
0100
,
0010
0100
0010
1000
0100
0010
0001
0100
,
0110
0000
1010
0000
0110
0000
0001
0100
,
0010
1000
0100
0002
0000
0103
0010
0001
,
0011
0000
1100
0000
1010
0000
0001
0010
,
0100
1000
0001
0100
1000
0100
0001
0010
,
0100
0000
0010
0100
0010
0100
1000
0000
,
0110
0000
0001
0010
0100
0100
1000
0010
,
0100
0000
0010
0100
0010
0100
0001
0000
,
0110
0000
0000
0000
1000
0000
0010
0000
0100
0000
0100
0000
0010
1000
0010
1000
,
0001
0000
0010
0100
0010
0100
0001
0000
,
0110
0000
1000
0100
0001
0100
1000
0010
,
0001
0000
0010
0100
0010
0100
1000
0000
,
0110
0000
0000
0000
0001
0000
0100
0000
0010
0000
1000
0000
0100
0010
0100
0010
,
0001
0000
0001
0201
0000
0301
0100
0010
,
1000
0000
1000
1200
0000
0310
0001
0100
,
1000
0000
1000
1200
0000
0310
1000
0100
,
0001
0000
0001
0201
0000
0310
0100
1000
,
0001
0101
1010
0101
,
1000
1000
0100
0010
1000
1000
0010
0100
,
1000
0000
1100
0000
0011
0000
1100
1000
,
0001
0000
0100
0000
0001
0000
0001
0000
1000
0000
0100
0000
0010
0001
0010
0001
,
1000
1010
0101
1010
,
0001
0001
0100
0010
0001
0001
0010
0100
,
0001
0000
0011
0000
1100
0000
0011
0001
,
1000
0000
0010
0000
1000
0000
1000
0000
0100
0000
0010
0000
0001
0100
0001
0100
,
0010
1000
0010
1000
0100
1000
0100
1000
,
0100
0001
0100
0001
0010
0001
0010
0001
,
0100
0001
0100
0001
0100
1000
0100
1000
,
0010
0000
0001
0000
0010
0000
1000
0000
0100
0000
0010
0000
0001
0100
0001
0100
,
0010
1000
0010
1000
0010
0001
0010
0001
,
0100
0001
0100
0001
0100
1000
0100
1000
,
0100
0001
0100
0001
0010
0001
0010
0001
,
0010
0000
1000
0000
0100
0000
0001
0000
1000
0000
0010
0000
0001
0100
0010
1000
,
0002
0000
0000
0010
0000
0013
0000
0001
,
1000
0001
0000
0100
0000
0001
0100
0010
,
1000
0100
0000
0001
0000
0010
0000
1000
,
0100
0001
0000
0010
0000
1000
0100
0010
,
0001
0000
0000
0000
;

//---------------dance-single - ----------------
#NOTES:
     dance-single:
     :
     Hard:
     13:
     0.698029,0.727420,0.477599,0.110215,0.000000,532.000000,480.000000,52.000000,12.000000,0.000000,0.000000,0.698029,0.727420,0.477599,0.110215,0.000000,532.000000,480.000000,52.000000,12.000000,0.000000,0.000000:
0000
0000
0000
0000
,
0000
0000
0000
0000
,
0000
0000
0000
0000
,
0000
0000
0000
0000
,
1000
0010
0110
0000
,
0001
0010
0000
0110
0000
0000
0001
1000
,
0001
0100
0110
0000
,
1000
0100
0000
0110
0000
0001
0100
0010
,
1000
0000
0001
0010
0001
0010
0100
0000
,
0010
1001
0010
1001
,
0010
0000
0001
0010
0001
0010
0100
1000
,
0010
0100
0000
0010
0000
1000
0100
0010
,
0001
0000
1000
0010
1000
0010
0100
0000
,
0010
1001
0010
1001
,
0010
0000
1000
0010
1000
0010
0100
0001
,
0010
0100
0010
0001
0010
0100
0010
0001
,
1000
0000
0010
0000
1000
0000
0010
1000
,
0100
0000
0010
0001
0000
0100
0010
1000
,
0001
0000
0010
0000
0001
0000
0010
0001
,
0100
0000
0010
1000
0000
0100
0010
0001
,
1000
0000
0010
0100
0000
0001
0010
0100
,
1000
0000
0010
0100
0000
0001
0010
0100
,
1000
0000
0010
0100
0000
0001
0010
0100
,
1000
0010
0100
0001
0010
0001
0100
0010
,
1000
0000
0110
0000
1000
1000
0010
0000
,
1001
0000
0010
1000
0000
1000
0100
0010
,
0001
0000
0110
0000
0001
0001
0010
0000
,
0001
0100
0010
1000
0100
0010
0001
0000
,
1001
0000
1000
0010
1000
0010
0100
0000
,
0010
1001
0010
1001
,
0010
0000
1000
0010
1000
0010
0100
0001
,
0010
0100
0000
0011
0000
1100
0000
0001
,
0100
0000
0001
0010
0001
0010
0100
0000
,
0010
1001
0010
1001
,
0010
0000
0001
0010
0001
0010
0100
1000
,
0010
0100
0010
1000
0001
0100
0010
1000
,
0200
0000
0000
0302
0000
0000
0103
0000
,
0210
0000
1000
1000
0000
0010
0310
0000
,
0001
0000
0100
0000
1000
0000
0001
0010
,
0000
0010
1000
0000
0100
0010
0001
0000
,
1000
0010
0100
0010
1000
0100
0010
0000
,
1000
0100
0010
0100
1000
0010
0100
0000
,
0210
0000
1000
1000
0000
0001
0301
0000
,
2001
0000
0100
0100
0000
3010
1001
0000
,
1010
0101
0011
1100
,
1010
0011
0101
1100
,
0001
0010
0100
0010
0001
0100
0010
0000
,
0001
0100
0010
0100
0001
0010
0100
0000
,
0011
0000
0011
0000
1100
0000
0001
0010
,
0100
0000
0100
1000
0000
1000
0010
0000
,
1010
0000
1010
0000
0101
0000
1000
0010
,
0100
0000
0100
0001
0000
0001
0010
0100
,
1000
0000
0110
0000
1001
0000
0001
0100
,
0001
1000
0100
2000
0001
0000
0010
0000
,
3001
0000
0110
0000
1001
0000
1000
0100
,
0010
0001
0010
0001
1000
0010
0100
0001
,
1000
0000
0100
0000
0001
0000
0000
0110
,
0000
1001
0000
1000
0100
0010
0001
1000
,
0001
0000
0100
0000
1000
0000
0000
0110
,
0000
1001
0000
0001
1000
1000
0001
0000
,
1000
0000
0010
0000
0001
0000
0000
0011
,
0000
1010
0000
1000
0010
0100
0001
1000
,
0001
0000
0010
0000
1000
0000
0000
1010
,
0000
0011
0000
0001
0100
0000
0010
1000
,
0100
0000
0000
0012
0000
0000
0013
0001
,
0100
0000
0000
1020
0000
0000
0031
0010
,
1000
0000
0000
0021
0000
0000
1030
0010
,
0001
0000
0000
0220
0000
0330
0001
1000
,
0001
0100
1000
0100
,
0001
0010
0001
0010
0100
1000
0010
0100
,
0001
0000
0010
0000
1000
0000
0010
0001
,
1000
0001
1000
0001
0100
0000
0010
0010
,
1000
0100
0001
0100
,
1000
0010
1000
0010
0100
0001
0010
0100
,
1000
0000
0010
0000
0001
0000
0010
1000
,
0100
0010
0001
0100
0010
0000
1000
0100
,
0010
0001
1000
0001
0100
0001
1000
0001
,
0010
0001
1000
0001
0100
0001
0010
0100
,
1000
0010
1000
0001
1000
0100
1000
0001
,
1000
0010
1000
0100
0010
0001
0100
0010
,
1000
0100
1000
0010
0100
0001
0010
0001
,
0100
0010
1000
0100
0001
0100
1000
0010
,
0100
0001
0010
0001
0100
0010
1000
0001
,
1000
0100
0001
0100
1000
0010
0001
0010
,
2000
0000
0000
0010
0000
3010
0000
1000
,
0001
1000
0000
0100
0000
1000
0100
0010
,
0001
0100
0000
0010
0000
1000
0000
0100
,
0010
0001
0000
0100
0000
0010
1000
0100
,
0001
0000
0000
0000
;

//---------------dance-single - ----------------
#NOTES:
     dance-single:
     :
     Medium:
     10:
     0.535330,0.646595,0.422491,0.137769,0.000000,408.000000,362.000000,46.000000,15.000000,0.000000,0.000000,0.535330,0.646595,0.422491,0.137769,0.000000,408.000000,362.000000,46.000000,15.000000,0.000000,0.000000:
0000
0000
0000
0000
,
0000
0000
0000
0000
,
0000
0000
0000
0000
,
0000
0000
0000
0000
,
1000
0000
1010
0000
,
0001
0000
0000
0011
0000
0000
0001
0000
,
1000
0000
0101
0000
,
0001
0000
0000
1100
0000
0000
1000
0000
,
0001
0000
1000
0010
1000
0010
0100
0000
,
0000
0100
0000
0100
,
0000
0000
1000
0010
1000
0010
0100
0010
,
1000
0010
0000
1000
0000
0001
0000
0000
,
1000
0000
0001
0010
0001
0010
0100
0000
,
0000
0100
0000
0100
,
0000
0000
0001
0010
0001
0010
0100
0010
,
0001
1000
0001
1000
0001
1000
0001
1000
,
0001
0100
0010
1000
,
0100
1000
0010
0100
,
0001
0010
0001
0100
,
0010
1000
0100
0010
,
0001
0000
0100
0010
0000
0100
0001
0000
,
1000
0000
0100
0010
0000
0100
1000
0000
,
0001
0000
0100
0010
0000
1000
0100
0000
,
0010
0001
0100
0010
,
1000
0000
1010
0000
1000
0010
1000
0000
,
0101
0000
0000
0110
0000
0000
1000
0001
,
0010
0000
0011
0000
0001
0010
0001
0000
,
1100
0000
0000
0011
0000
0000
1001
0000
,
1000
0000
0001
0100
0001
0100
0010
0000
,
0000
0010
0000
0010
,
0000
0000
0001
0100
0001
0100
0010
0100
,
0001
0100
0000
1001
0000
1001
0000
0000
,
0001
0000
1000
0100
1000
0100
0010
0000
,
0000
0010
0000
0010
,
0000
0000
1000
0100
1000
0100
0010
0100
,
1000
0001
1000
0001
1000
0001
1000
0001
,
2000
0000
0000
3020
0000
0000
0130
0000
,
0102
0000
0000
0010
0000
0000
1003
0000
,
1001
0000
1000
0000
0100
0000
0000
0010
,
0000
0001
0100
0010
,
1000
0100
0001
0110
,
0001
0100
1000
0110
,
1002
0000
0000
0103
0000
0000
0011
0000
,
2001
0000
0000
3100
0000
0000
1010
0000
,
0001
0001
1000
1000
,
0011
1100
1010
0101
,
0001
0010
1000
0110
,
1000
0010
0001
0110
,
0001
0000
0001
0000
0100
0000
0010
1000
,
0010
0000
1000
0000
0100
0000
1000
0010
,
1000
0000
1000
0000
0100
0000
0010
0001
,
0010
0000
0001
0000
0100
0000
0001
1000
,
0001
0010
0100
1000
,
0010
0000
0100
0001
0000
1000
0100
0000
,
0001
0100
1000
0010
,
0100
0001
0100
0000
0010
1000
0010
0000
,
1000
0000
1000
0000
0100
0000
0000
1100
,
0000
0101
0000
1000
0100
0000
1000
0000
,
0001
0000
0001
0000
0100
0000
0000
0101
,
0000
1100
0000
0000
0001
0100
0001
0000
,
1000
0000
1000
0000
0010
0000
0000
0110
,
0000
1001
0000
1000
0100
0000
0010
0000
,
0001
0000
0001
0000
0010
0000
0000
0110
,
0000
1001
0000
0001
0100
0000
0010
0000
,
1000
0000
0000
2010
0000
0000
3001
0010
,
0001
0000
0000
0012
0000
0000
0103
0001
,
0100
0000
0000
2001
0000
0000
3100
1000
,
0100
0000
0000
2002
0000
3003
0001
1000
,
0001
0100
0010
1000
,
0100
0010
0001
0000
1000
0100
0010
0000
,
0001
0100
0010
1000
,
0001
0000
1000
0001
1000
0000
0001
0000
,
1000
0100
0010
0001
,
1000
0010
0100
0000
0010
0100
0001
0000
,
1000
0100
0010
0001
,
0100
0000
0010
0100
0010
0000
0100
0000
,
2001
0100
0001
0100
,
0010
0000
0100
0000
3001
0100
0001
0000
,
1002
0100
0010
0100
,
1003
0010
0100
0001
1000
0000
0100
0000
,
0021
0100
1000
0100
,
0001
0000
0130
0000
1000
0001
1000
0000
,
1020
0100
0001
0100
,
1030
0010
0100
0000
0001
0010
0100
1000
,
0002
1000
0000
1003
,
0000
0000
1000
0000
0000
0000
1000
0001
,
1000
0110
0000
1001
,
0000
0000
0110
0000
0000
0000
0001
0100
,
1000
0000
0000
0000
;

//---------------dance-single - ----------------
#NOTES:
     dance-single:
     :
     Beginner:
     4:
     0.229615,0.363710,0.091846,0.073477,0.000000,175.000000,165.000000,10.000000,8.000000,0.000000,0.000000,0.229615,0.363710,0.091846,0.073477,0.000000,175.000000,165.000000,10.000000,8.000000,0.000000,0.000000:
0000
0000
0000
0000
,
0000
0000
0000
0000
,
0000
0000
0000
0000
,
0000
0000
0000
0000
,
1000
0000
1000
0000
,
0001
0000
0001
0000
,
1000
0000
1000
0000
,
0001
0000
0001
0000
,
0000
1000
1000
0000
,
0000
0000
0000
0000
,
0000
1000
1000
0000
,
0010
0000
1000
0000
,
0000
1000
1000
0000
,
0000
0000
0000
0000
,
0000
1000
1000
0000
,
0100
0000
0010
0000
,
0001
0000
1000
0000
,
0001
0000
1000
0000
,
0010
0000
0100
0000
,
0010
0000
0100
0000
,
0001
0000
0001
0000
,
1000
0000
1000
0000
,
0001
0000
0001
0000
,
1000
0000
0001
0000
,
0010
0010
0010
0000
,
0010
0000
0010
0000
,
0100
0100
0100
0000
,
1001
0000
1001
0000
,
0000
0001
0001
0000
,
0000
0000
0000
0000
,
0000
0001
0001
0000
,
0010
0000
0001
0000
,
0000
0001
0001
0000
,
0000
0000
0000
0000
,
0000
0001
0001
0000
,
0100
0000
0010
0000
,
1000
0000
0010
0000
,
0220
0000
0330
0000
,
0001
0000
0010
0000
,
0100
0000
1000
0000
,
0001
0001
0001
0000
,
1000
1000
1000
0000
,
2002
0000
3003
0000
,
2002
0000
3003
0000
,
1000
0000
0010
0000
,
0100
0000
0001
0000
,
1000
1000
1000
0000
,
0001
0001
0001
0000
,
0010
0000
0010
0000
,
0100
0000
0100
0000
,
1000
0000
1000
0000
,
0001
0000
0001
0000
,
0100
0000
0010
0000
,
1000
0000
0001
0000
,
0010
0000
0100
0000
,
1000
0000
0001
0000
,
0100
0000
0000
0000
,
0100
0000
0010
0000
,
0100
0000
0000
0000
,
0100
0000
0010
0000
,
1000
0000
0000
0000
,
0100
0000
0010
0000
,
0001
0000
0000
0000
,
1000
0000
0001
0000
,
1001
0000
0000
0000
,
1001
0000
0000
0000
,
0110
0000
0000
0000
,
0110
0000
0000
0000
,
1000
0000
0100
0000
,
0010
0000
0010
0000
,
0001
0000
0100
0000
,
0010
0000
0010
0000
,
1000
0000
0001
0000
,
0010
0000
0010
0000
,
0100
0000
1000
0000
,
0001
0000
0001
0000
,
0100
0100
0100
0100
,
0100
0100
0100
0000
,
0010
0010
0010
0010
,
0010
0010
0010
0000
,
1000
1000
1000
1000
,
1000
1000
1000
0000
,
0001
1000
0001
1000
,
0001
1000
0001
0000
,
2002
0000
0000
0000
,
3003
0000
0000
0000
,
1000
0000
0001
0000
,
1000
0000
0001
0000
,
0010
0000
0000
0000
;

//---------------dance-single - ----------------
#NOTES:
     dance-single:
     :
     Easy:
     6:
     0.297843,0.404122,0.128584,0.082661,0.000000,227.000000,213.000000,14.000000,9.000000,0.000000,0.000000,0.297843,0.404122,0.128584,0.082661,0.000000,227.000000,213.000000,14.000000,9.000000,0.000000,0.000000:
0000
0000
0000
0000
,
0000
0000
0000
0000
,
0000
0000
0000
0000
,
0000
0000
0000
0000
,
1000
0000
0001
0000
,
1000
0000
0001
0000
,
1000
0000
0001
0000
,
1000
0000
0001
1000
,
0000
0001
0001
0000
,
0000
0000
0000
0000
,
0000
0001
0001
0100
,
0001
0000
0000
0010
0000
0010
0000
0000
,
0000
0001
0001
0000
,
0000
0000
0000
0000
,
0000
0001
0001
0100
,
0001
1000
0001
0010
,
0001
0000
0001
0000
,
0100
0000
0100
0000
,
0010
0000
0010
0000
,
1000
0000
1000
0000
,
0100
0010
0100
0000
,
0100
0010
0100
0000
,
0100
0010
0100
0000
,
1000
0000
0001
0000
,
0100
0100
0100
0000
,
1010
0000
0101
0000
,
0010
0010
0010
0000
,
1000
0001
1000
1001
,
0000
1000
1000
0000
,
0000
0000
0000
0000
,
0000
1000
1000
0100
,
1000
0000
0000
1001
0000
1001
0000
0000
,
0000
1000
1000
0000
,
0000
0000
0000
0000
,
0000
1000
1000
0010
,
1000
0001
1000
0100
,
2000
0000
3010
0000
,
2002
0000
3003
0000
,
0001
0001
0010
0000
,
0100
0100
1000
0000
,
0001
0001
0001
0000
,
1000
1000
1000
0000
,
2002
0000
3003
0010
,
2002
0000
3003
0010
,
1000
1000
0010
0000
,
0100
0100
0001
0000
,
1000
1000
1000
0000
,
0001
0001
0001
0000
,
1000
0100
1000
0000
,
0100
0000
0010
0000
,
0001
0100
0001
0000
,
0100
0000
0010
0000
,
1000
1000
0100
0000
,
0001
0001
0010
0000
,
1000
0100
0010
0000
,
0001
0100
0010
0000
,
0100
0000
0100
0000
,
0100
0100
0100
0000
,
0010
0000
0010
0000
,
0010
0010
0010
0000
,
1000
0000
1000
0000
,
1000
0001
1000
0000
,
0001
0000
0001
0000
,
0001
1000
0001
0000
,
0010
0000
0110
0000
,
0010
0000
0110
0000
,
0010
0000
1001
0000
,
0100
0000
1001
0000
,
1000
1000
1000
0000
,
0010
0000
1000
0000
,
0001
0001
0001
0000
,
0010
0000
0001
0000
,
1000
1000
1000
0000
,
0001
0000
0100
0000
,
0001
0001
0001
0000
,
1000
0000
0100
0000
,
0010
0100
0010
0100
,
0010
0100
0010
0100
,
1000
0001
1000
0001
,
1000
0001
1000
0001
,
0100
0010
0100
0010
,
0100
0010
0100
0010
,
1000
0001
0010
0100
,
1000
0100
0010
0001
,
2002
0000
0000
0000
,
3003
0000
0000
0000
,
1000
0000
0001
0000
,
1000
0000
0001
0000
,
1001
0000
0000
0000
;
