#TITLE:Destiny Sword;
#SUBTITLE:;
#ARTIST:CAPACITY GATE;
#TITLETRANSLIT:;
#SUBTITLETRANSLIT:;
#ARTISTTRANSLIT:;
#GENRE:Electric Step;
#CREDIT:;
#BANNER:Destiny Sword.png;
#BACKGROUND:Destiny Sword-bg.png;
#LYRICSPATH:;
#CDTITLE:cdtitle.png;
#MUSIC:Destiny Sword.ogg;
#OFFSET:-0.625968;
#SAMPLESTART:6.817517;
#SAMPLELENGTH:12.387097;
#SELECTABLE:YES;
#BPMS:0.000000=155.000000
;
#STOPS:
;
#BGCHANGES:;
#KEYSOUNDS:;
#ATTACKS:;

//---------------dance-single - ----------------
#NOTES:
     dance-single:
     :
     Challenge:
     15:
     0.743688,0.797605,0.167330,0.836649,0.994683,560.000000,542.000000,18.000000,90.000000,0.000000,0.000000,0.743688,0.797605,0.167330,0.836649,0.994683,560.000000,542.000000,18.000000,90.000000,0.000000,0.000000:
// measure 0
0000
0000
0000
0000
,  // measure 1
0000
0000
0000
0000
,  // measure 2
0000
0000
0000
0000
,  // measure 3
0000
0000
0000
0000
,  // measure 4
1000
0000
0000
0000
0000
0000
1000
0000
0000
0000
0000
0000
0010
0000
0000
1000
0000
0000
0000
0000
0000
0002
0000
0000
0000
0000
0000
0000
0000
0000
0013
0000
0000
0000
0000
0000
0100
0000
0000
0000
0000
0000
0010
0000
0001
0000
0010
0000
,  // measure 5
0002
0000
0000
0103
0000
0000
0002
1000
0000
1003
0001
0000
0010
0000
0001
0100
,  // measure 6
0020
0000
0000
2030
0000
0000
3200
0000
0320
0000
0000
0032
0000
0000
2003
0000
,  // measure 7
3020
0000
0000
0000
0130
0000
0010
0001
0000
0001
0010
0100
0010
1000
0010
1000
,  // measure 8
0001
0000
0000
0000
0000
0000
0001
0000
0000
0000
0000
0000
0010
0000
0000
0001
0000
0000
0000
0000
0000
2000
0000
0000
0000
0000
0000
0000
0000
0000
3010
0000
0000
0000
0000
0000
0100
0000
0000
0000
0000
0000
0010
0000
1000
0000
0010
0000
,  // measure 9
2000
0000
0000
3100
0000
0000
2000
0001
0000
3001
1000
0000
0010
0000
1000
0100
,  // measure 10
0020
0000
0000
0032
0000
0000
0203
0000
2300
0000
0000
3200
0000
0000
0320
0000
,  // measure 11
2030
0000
0000
0000
3001
0000
0010
0100
0020
0000
0000
0000
0031
1000
0000
1000
,  // measure 12
0001
0000
0001
0000
0100
0010
1000
0020
0000
0000
1030
0000
0001
0000
1000
0100
,  // measure 13
0010
0000
0100
0000
0001
0000
0200
0010
0000
0310
0100
0000
1000
0001
0100
0010
,  // measure 14
1000
0000
1000
0000
0100
0010
0001
2000
0000
0000
3001
0000
1000
0000
0010
0100
,  // measure 15
0001
0000
0010
0000
0100
0000
2000
0001
3000
1000
0010
0000
0001
0000
0010
0000
,  // measure 16
1000
0000
1000
0000
0100
0010
0001
0020
0000
0000
0031
0000
1000
0000
0001
0100
,  // measure 17
0010
0000
0100
0000
1000
0000
0200
0010
0000
0310
0100
0000
0001
1000
0100
0010
,  // measure 18
0001
0000
0001
0000
0100
0010
1000
0002
0000
0000
1003
0000
0001
0000
0010
0100
,  // measure 19
0010
0000
0000
1001
0000
0000
0110
0000
0000
0000
0001
0000
1000
0001
0000
1000
,  // measure 20
0001
0000
0000
0000
0000
0000
0001
0000
0000
0000
0000
0000
0010
0000
0000
0001
0000
0000
0000
0000
0000
2000
0000
0000
0000
0000
0000
0000
0000
0000
3010
0000
0000
0000
0000
0000
0100
0000
0000
0000
0000
0000
0001
0000
1000
0000
0001
0000
,  // measure 21
2000
0000
0000
3100
0000
0000
0020
0001
0000
0031
1000
0000
0010
0000
1000
0100
,  // measure 22
0020
0000
0000
0032
0000
0000
0203
0000
0320
0000
0000
2030
0000
0000
3002
0000
,  // measure 23
0023
0000
0000
0000
0130
0000
0010
1000
0000
1000
0010
0100
0010
0001
0010
0001
,  // measure 24
1000
0000
0000
0000
0000
0000
1000
0000
0000
0000
0000
0000
0010
0000
0000
1000
0000
0000
0000
0000
0000
0002
0000
0000
0000
0000
0000
0000
0000
0000
0013
0000
0000
0000
0000
0000
0100
0000
0000
0000
0000
0000
1000
0000
0001
0000
1000
0000
,  // measure 25
0002
0000
0000
0103
0000
0000
0020
1000
0000
1030
0001
0000
0010
0000
0001
0100
,  // measure 26
0020
0000
0000
2030
0000
0000
3200
0000
0302
0000
0000
0203
0000
0000
1300
0000
,  // measure 27
1001
0000
0000
1001
0000
0000
0101
0000
0000
0110
0000
0000
1010
0000
0000
0000
,  // measure 28
1000
0000
1000
0000
0001
0010
0000
0100
0000
0010
0001
0000
1000
0000
0010
0000
,  // measure 29
1000
0000
1000
0000
0001
0010
0000
0100
0000
0010
0001
0000
0001
0000
1000
0000
,  // measure 30
0001
0000
0001
0000
0100
0010
0000
0100
0000
1000
0100
0000
0010
0000
0100
0000
,  // measure 31
0001
0000
0001
0000
0010
0100
0000
0010
0000
1000
0010
0000
0100
0000
0010
0000
,  // measure 32
0001
0000
0001
0000
1000
0010
0000
0100
0000
0010
1000
0000
0100
0000
0010
0000
,  // measure 33
0001
0000
0001
0000
1000
0010
0000
0100
0000
0010
1000
0000
1000
0000
0001
0000
,  // measure 34
1000
0000
1000
0000
0100
0010
0000
0100
0000
0001
0100
0000
0010
0000
0100
0000
,  // measure 35
1100
0000
0000
1001
0000
0000
0101
0000
0000
1001
0000
0000
0001
0000
1000
0000
,  // measure 36
0100
0000
0100
0000
0010
0001
0000
2000
0000
3001
0100
0010
1000
0010
1000
0001
,  // measure 37
0100
0000
0100
0000
0010
1000
0000
0001
0000
0001
0000
1000
0100
0000
0010
0000
,  // measure 38
0001
0000
0001
0000
1000
0010
0000
0200
0000
0301
1000
0100
0010
0100
0010
0001
,  // measure 39
1000
0000
1000
0000
0001
0100
0000
0010
0000
0010
0000
0100
0001
0000
1000
0000
,  // measure 40
0100
0000
0100
0000
0010
0001
0000
0200
0000
0301
0100
0010
1000
0001
1000
0100
,  // measure 41
0010
0001
0000
0001
0000
1000
0000
0001
0100
0001
1000
0001
0010
0001
1000
0001
,  // measure 42
0200
0000
0000
0310
0000
0000
0010
1000
0200
0000
0000
0000
0310
0000
0001
0000
,  // measure 43
1000
0010
1000
0000
0010
0100
0001
2000
0000
0000
3100
0000
0010
0000
0001
0000
,  // measure 44
1000
0000
0000
0000
0000
0000
1000
0000
0000
0000
0000
0000
0010
0000
0000
1000
0000
0000
0000
0000
0000
0200
0000
0000
0000
0000
0000
0000
0000
0000
0310
0000
0000
0000
0000
0000
0001
0000
0000
0000
0000
0000
0100
0000
0001
0000
0100
0000
,  // measure 45
0020
0000
0000
0130
0000
0000
0002
1000
0000
1003
0001
0000
0010
0000
0001
0100
,  // measure 46
0020
0000
0000
2030
0000
0000
3200
0000
0320
0000
0000
0032
0000
0000
2003
0000
,  // measure 47
3020
0000
0000
0000
0130
0000
0010
0001
0000
0001
0010
0100
0010
1000
0010
1000
,  // measure 48
0001
0000
0000
0000
0000
0000
0001
0000
0000
0000
0000
0000
0010
0000
0000
0001
0000
0000
0000
0000
0000
0200
0000
0000
0000
0000
0000
0000
0000
0000
0310
0000
0000
0000
0000
0000
1000
0000
0000
0000
0000
0000
0100
0000
1000
0000
0100
0000
,  // measure 49
0020
0000
0000
0031
0000
0000
2000
0010
0000
3010
0100
0000
0001
0000
1000
0100
,  // measure 50
0020
0000
0000
0000
0031
0000
0010
0001
0200
0000
0000
2300
0000
0000
3200
0000
,  // measure 51
0302
0000
0000
0000
1003
0100
0000
0020
0000
0000
0031
0000
1000
0010
0000
1000
,  // measure 52
0001
0000
0000
0000
0000
0000
0001
0000
0000
0000
0000
0000
0010
0000
0000
0001
0000
0000
0000
0000
0000
2000
0000
0000
0000
0000
0000
0000
0000
0000
3010
0000
0000
0000
0000
0000
0100
0000
0000
0000
0000
0000
0010
0000
1000
0000
0001
0000
,  // measure 53
2000
0000
0000
3100
0000
0000
0020
0001
0000
0031
0100
0000
0010
0000
1000
0100
,  // measure 54
0020
0000
0000
0032
0000
0000
0203
0000
0320
0000
0000
2030
0000
0000
3002
0000
,  // measure 55
0023
0000
0000
0000
0130
0000
0010
1000
0000
1000
0010
0100
0010
0001
0010
0001
,  // measure 56
1000
0000
0000
0000
0000
0000
1000
0000
0000
0000
0000
0000
0010
0000
0000
1000
0000
0000
0000
0000
0000
0200
0000
0000
0000
0000
0000
0000
0000
0000
0310
0000
0000
0000
0000
0000
0001
0000
0000
0000
0000
0000
0010
0000
0001
0000
1000
0000
,  // measure 57
0020
0000
0000
0130
0000
0000
0020
1000
0000
1030
0100
0000
0010
0000
0100
0010
,  // measure 58
0002
0000
0000
0203
0000
0000
2300
0000
3200
0000
0000
0302
0000
0000
1003
0000
,  // measure 59
1001
0000
0000
1001
0000
0000
1100
0000
0000
0110
0000
0000
0011
0000
0000
0000
,  // measure 60
1000
0000
0001
0100
0001
0100
0010
1000
0100
0000
0010
0000
0000
0000
0100
1000
,  // measure 61
0001
0000
1000
0001
0100
0000
0010
0000
0000
0000
0100
0000
0001
0000
1000
0001
,  // measure 62
0010
0000
0000
0010
0000
0000
0010
0001
0000
0001
0100
0010
1000
0100
0010
0001
,  // measure 63
1000
0000
0000
0110
0000
0000
1001
0000
0000
0000
0001
0100
0010
1000
0000
1000
,  // measure 64
0200
0000
0000
0000
,  // measure 65
0000
0000
0000
0000
,  // measure 66
0300
0000
0000
0000
;

//---------------dance-single - ----------------
#NOTES:
     dance-single:
     :
     Hard:
     12:
     0.589638,0.582865,0.176626,0.920314,0.497341,444.000000,425.000000,19.000000,99.000000,0.000000,0.000000,0.589638,0.582865,0.176626,0.920314,0.497341,444.000000,425.000000,19.000000,99.000000,0.000000,0.000000:
// measure 0
0000
0000
0000
0000
,  // measure 1
0000
0000
0000
0000
,  // measure 2
0000
0000
0000
0000
,  // measure 3
0000
0000
0000
0000
,  // measure 4
1000
0000
0100
0000
0010
0001
0000
2000
0000
0000
3002
0000
0000
0000
0103
0010
,  // measure 5
0200
0000
0000
0301
0000
0000
2000
0000
0000
0000
0100
0000
3100
0000
0010
0001
,  // measure 6
0020
0000
0000
0032
0000
0000
2003
0000
3020
0000
0000
2030
0000
0000
3002
0000
,  // measure 7
0023
0000
0000
0000
0130
0000
0010
0001
0000
0001
0100
0000
1000
0000
0100
0000
,  // measure 8
0001
0000
0100
0000
0010
1000
0000
0002
0000
0000
2003
0000
0000
0000
3100
0010
,  // measure 9
0200
0000
0000
1300
0000
0000
0002
0000
0000
0000
0100
0000
0103
0000
0010
1000
,  // measure 10
0020
0000
0000
2030
0000
0000
3200
0000
0320
0000
0000
0032
0000
0000
0203
0000
,  // measure 11
0320
0000
0000
0000
1030
0000
0001
1000
0002
0000
0000
0000
1003
0000
0100
0000
,  // measure 12
0010
0000
0001
0000
0100
0000
0010
2000
0000
0000
3010
0000
1000
0000
0001
0010
,  // measure 13
0001
0010
0100
2000
0000
0010
3010
1000
,  // measure 14
0001
0000
0010
0000
0100
0000
1000
0002
0000
0000
0103
0000
0010
0000
1000
0001
,  // measure 15
1000
0100
0001
0200
0000
0310
0001
0100
,  // measure 16
0010
0000
1000
0000
0100
0000
0010
0002
0000
0000
0013
0000
0001
0000
1000
0010
,  // measure 17
1000
0010
0100
0002
0000
0010
0013
0001
,  // measure 18
1000
0000
0010
0000
0100
0000
0001
2000
0000
0000
3100
0000
0010
0000
0001
1000
,  // measure 19
0001
0000
0000
0110
0000
0000
2002
0000
0000
0000
0000
0000
3003
0000
0000
0000
,  // measure 20
0001
0000
0100
0000
0010
1000
0000
0002
0000
0000
2003
0000
0000
0000
3100
0010
,  // measure 21
0200
0000
0000
1300
0000
0000
0002
0000
0000
0000
0100
0000
0103
0000
0010
1000
,  // measure 22
0020
0000
0000
2030
0000
0000
3002
0000
0023
0000
0000
0032
0000
0000
2003
0000
,  // measure 23
3020
0000
0000
0000
0130
0000
0010
1000
0000
1000
0100
0000
0001
0000
0100
0000
,  // measure 24
1000
0000
0100
0000
0010
0001
0000
2000
0000
0000
3002
0000
0000
0000
0103
0010
,  // measure 25
0200
0000
0000
0301
0000
0000
2000
0000
0000
0000
0100
0000
3100
0000
0010
0001
,  // measure 26
0020
0000
0000
0032
0000
0000
0203
0000
0320
0000
0000
2030
0000
0000
3001
0000
,  // measure 27
1001
0000
0000
1001
0000
0000
1100
0000
0000
0110
0000
0000
0011
0000
0000
0000
,  // measure 28
0001
0000
0100
0000
0010
0000
0000
0100
0000
0000
0010
0000
0100
0000
0001
0000
,  // measure 29
1000
0000
0100
0000
0010
0000
0000
0100
0000
0000
1000
0000
0010
0000
0100
0000
,  // measure 30
0001
0000
0010
0000
1000
0000
0000
0010
0000
0000
1000
0000
0010
0000
0001
0000
,  // measure 31
1000
0000
0010
0000
0001
0000
0000
0010
0000
0000
0001
0000
0010
0000
1000
0000
,  // measure 32
0100
0000
0010
0000
0001
0000
0000
0010
0000
0000
0001
0000
0010
0000
0100
0000
,  // measure 33
1000
0000
0010
0000
0100
0000
0000
0010
0000
0000
1000
0000
0100
0000
0010
0000
,  // measure 34
0001
0000
0100
0000
1000
0000
0000
0100
0000
0000
1000
0000
0100
0000
0001
0000
,  // measure 35
0101
0000
0000
0110
0000
0000
1010
0000
0000
1001
0000
0000
0001
0000
0010
0000
,  // measure 36
0100
0000
0010
0000
0001
0000
0000
2000
0000
0000
3100
0000
0010
0000
0001
0000
,  // measure 37
0100
0000
0010
0000
1000
0000
0000
0010
0000
1000
0000
0010
1000
0000
0100
0000
,  // measure 38
0001
0000
0100
0000
0010
0000
0000
0200
0000
0000
0310
0000
0001
0000
0100
0000
,  // measure 39
1000
0000
0100
0000
0010
0000
0000
0100
0000
0010
0000
0100
0001
0000
1000
0000
,  // measure 40
0100
0000
0010
0000
0100
0000
0000
2000
0000
0000
3001
0000
1000
0000
0010
0000
,  // measure 41
0100
0000
0000
0010
0000
0100
0000
0000
0001
0000
1000
0000
0100
0000
0010
0000
,  // measure 42
0002
0000
0000
1003
0000
0000
1000
0010
2000
0000
0000
0000
3000
0000
0000
0000
,  // measure 43
1000
0000
0100
0000
0001
0000
0000
0100
0000
0000
0001
0000
0100
0000
1000
0000
,  // measure 44
0001
0000
0100
0000
0010
1000
0000
0002
0000
0000
2003
0000
0000
0000
3100
0010
,  // measure 45
0200
0000
0000
1300
0000
0000
0002
0000
0000
0000
0100
0000
0103
0000
0010
1000
,  // measure 46
0020
0000
0000
2030
0000
0000
3002
0000
0023
0000
0000
0032
0000
0000
2003
0000
,  // measure 47
3020
0000
0000
0000
0130
0000
0010
1000
0000
1000
0100
0000
0001
0000
0100
0000
,  // measure 48
1000
0000
0100
0000
0010
0001
0000
2000
0000
0000
3002
0000
0000
0000
0103
0010
,  // measure 49
0200
0000
0000
0301
0000
0000
0020
0000
0000
0000
0100
0000
0130
0000
1000
0010
,  // measure 50
2000
0000
0000
0000
3001
0000
0010
0001
0020
0000
0000
0230
0000
0000
2300
0000
,  // measure 51
3002
0000
0000
0000
0103
0010
0000
2000
0000
0000
3001
0000
0100
0000
0010
0000
,  // measure 52
1000
0000
0100
0000
0010
0001
0000
2000
0000
0000
3002
0000
0000
0000
0103
0010
,  // measure 53
0200
0000
0000
0301
0000
0000
2000
0000
0000
0000
0100
0000
3100
0000
0010
0001
,  // measure 54
0020
0000
0000
0032
0000
0000
2003
0000
3020
0000
0000
2030
0000
0000
3002
0000
,  // measure 55
0023
0000
0000
0000
0130
0000
0010
0001
0000
0001
0100
0000
1000
0000
0100
0000
,  // measure 56
0001
0000
0100
0000
0010
1000
0000
0200
0000
0000
0320
0000
0000
0000
0031
1000
,  // measure 57
0002
0000
0000
0103
0000
0000
0020
0000
0000
0000
1000
0000
1030
0000
0001
0010
,  // measure 58
0002
0000
0000
2003
0000
0000
3020
0000
0230
0000
0000
0302
0000
0000
1003
0000
,  // measure 59
1001
0000
0000
1001
0000
0000
1100
0000
0000
0110
0000
0000
0011
0000
0000
0000
,  // measure 60
1000
0010
0100
0001
0010
0001
0000
0001
,  // measure 61
0100
0010
0100
1000
0000
1000
0100
0001
,  // measure 62
0010
0000
0000
0100
0000
0000
0010
0000
0001
0000
0100
0000
0010
0000
1000
0000
,  // measure 63
1001
0000
0000
0110
0000
0000
1001
0000
0000
0000
1000
0000
0001
0010
0000
0001
,  // measure 64
0200
0000
0000
0000
,  // measure 65
0000
0000
0000
0000
,  // measure 66
0300
0000
0000
0000
;

//---------------dance-single - ----------------
#NOTES:
     dance-single:
     :
     Medium:
     8:
     0.375828,0.398803,0.102257,0.539174,0.167330,283.000000,272.000000,11.000000,58.000000,0.000000,0.000000,0.375828,0.398803,0.102257,0.539174,0.167330,283.000000,272.000000,11.000000,58.000000,0.000000,0.000000:
// measure 0
0000
0000
0000
0000
,  // measure 1
0000
0000
0000
0000
,  // measure 2
0000
0000
0000
0000
,  // measure 3
0000
0000
0000
0000
,  // measure 4
1000
0000
0000
0000
0010
0000
0000
1000
0000
0000
0200
0000
0000
0000
0310
0000
,  // measure 5
0001
0000
0000
0100
0000
0000
0200
0000
0000
0000
0000
0000
0300
0000
0010
0000
,  // measure 6
2000
3100
0002
0103
,  // measure 7
2000
0000
0000
0000
3000
0000
0000
0020
0000
0000
0130
0000
0001
0000
0100
0000
,  // measure 8
0001
0000
0000
0000
0010
0000
0000
0001
0000
0000
0200
0000
0000
0000
0310
0000
,  // measure 9
1000
0000
0000
0100
0000
0000
0200
0000
0000
0000
0000
0000
0300
0000
0010
0000
,  // measure 10
0002
1003
0020
1030
,  // measure 11
0200
0000
0300
0010
0002
0000
0003
0000
,  // measure 12
1000
0000
0000
0000
0001
0000
0000
0200
0000
0000
0301
0000
0000
0000
0010
0000
,  // measure 13
0001
0000
0001
0200
0000
0310
0000
0000
,  // measure 14
1000
0000
0000
0000
0001
0000
0000
0200
0000
0000
0301
0000
0000
0000
0001
0000
,  // measure 15
0010
0000
0001
1000
0000
0001
0100
0000
,  // measure 16
0001
0000
0000
0000
1000
0000
0000
0200
0000
0000
1300
0000
0000
0000
1000
0000
,  // measure 17
0010
0000
1000
0200
0000
0310
0000
0000
,  // measure 18
0001
0000
0000
0000
1000
0000
0000
0200
0000
0000
1300
0000
0000
0000
1000
0000
,  // measure 19
0010
0000
0000
0010
0000
0000
1001
0000
0000
0000
0000
0000
0000
0000
0000
0000
,  // measure 20
0001
0000
0000
0000
0010
0000
0000
0001
0000
0000
0200
0000
0000
0000
0310
0000
,  // measure 21
1000
0000
0000
0100
0000
0000
0200
0000
0000
0000
0000
0000
0300
0000
0010
0000
,  // measure 22
0002
0103
2000
3100
,  // measure 23
0002
0000
0000
0000
0003
0000
0000
0020
0000
0000
0130
0000
1000
0000
0100
0000
,  // measure 24
1000
0000
0000
0000
0010
0000
0000
1000
0000
0000
0200
0000
0000
0000
0310
0000
,  // measure 25
0001
0000
0000
0100
0000
0000
0200
0000
0000
0000
0000
0000
0300
0000
0010
0000
,  // measure 26
2000
3001
0020
0031
,  // measure 27
0100
0000
0000
0010
0000
0000
0100
0000
0000
0010
0000
0000
1001
0000
0000
0000
,  // measure 28
1000
0100
1000
0000
0100
0000
0100
0000
,  // measure 29
0001
0100
0001
0000
0100
0000
0100
0000
,  // measure 30
1000
0010
1000
0000
0010
0000
0010
0000
,  // measure 31
0001
0010
0001
0000
0010
0000
0010
0000
,  // measure 32
1000
0100
1000
0000
0010
0000
0010
0000
,  // measure 33
0001
0100
0001
0000
0010
0000
0010
0000
,  // measure 34
1000
0100
1000
0000
0010
0000
0010
0000
,  // measure 35
1000
0000
0000
0001
0000
0000
1000
0000
0000
0001
0000
0000
1000
0000
0001
0000
,  // measure 36
0010
0000
0000
0000
0001
0000
0000
2000
0000
0000
0000
0000
3001
0000
0100
0000
,  // measure 37
0010
0000
1000
0000
0001
0000
1000
0100
,  // measure 38
0010
0000
0000
0000
0001
0000
0000
0200
0000
0000
0000
0000
0310
0000
1000
0000
,  // measure 39
0100
0010
0001
1000
,  // measure 40
0001
0000
0000
0000
0100
0000
0000
0020
0000
0000
0000
0000
0130
0000
0010
0000
,  // measure 41
1000
0000
1000
0000
0001
1000
0001
0000
,  // measure 42
0220
0330
2002
3003
,  // measure 43
0010
0100
0010
0100
0010
0000
1001
0000
,  // measure 44
1000
0000
0000
0000
0010
0000
0000
1000
0000
0000
0200
0000
0000
0000
0310
0000
,  // measure 45
0001
0000
0000
0100
0000
0000
0200
0000
0000
0000
0000
0000
0300
0000
0010
0000
,  // measure 46
2000
3100
0002
0103
,  // measure 47
2000
0000
0000
0000
3000
0000
0000
0020
0000
0000
0130
0000
0001
0000
0100
0000
,  // measure 48
0001
0000
0000
0000
0010
0000
0000
0001
0000
0000
0200
0000
0000
0000
0310
0000
,  // measure 49
1000
0000
0000
0001
0000
0000
0020
0000
0000
0000
0000
0000
0030
0000
0100
0000
,  // measure 50
2000
0000
3000
0010
0200
0000
0301
1000
,  // measure 51
0200
0000
0000
0000
0310
0000
0000
0002
0000
0000
0000
0000
0003
0000
0000
0000
,  // measure 52
0001
0000
0000
0000
0010
0000
0000
0001
0000
0000
0200
0000
0000
0000
0310
0000
,  // measure 53
1000
0000
0000
0100
0000
0000
0200
0000
0000
0000
0000
0000
0300
0000
0010
0000
,  // measure 54
0002
0103
2000
3100
,  // measure 55
0002
0000
0000
0000
0003
0000
0000
0020
0000
0000
0130
0000
1000
0000
0100
0000
,  // measure 56
1000
0000
0000
0000
0010
0000
0000
0100
0000
0000
0002
0000
0000
0000
1003
0000
,  // measure 57
0100
0000
0000
0010
0000
0000
0200
0000
0000
0000
0000
0000
0300
0000
1000
0000
,  // measure 58
0002
0103
0020
1030
,  // measure 59
0100
0000
0000
0010
0000
0000
0100
0000
0000
0010
0000
0000
1001
0000
0000
0000
,  // measure 60
1010
0100
0011
0000
,  // measure 61
0101
0010
0010
1100
,  // measure 62
0001
0100
0010
1000
,  // measure 63
0100
0000
0000
0100
0000
0000
1001
0000
0000
0000
0100
0000
0010
0000
0000
0000
,  // measure 64
0200
0000
0000
0000
,  // measure 65
0000
0000
0000
0000
,  // measure 66
0300
0000
0000
0000
;

//---------------dance-single - ----------------
#NOTES:
     dance-single:
     :
     Easy:
     4:
     0.232402,0.276094,0.092961,0.418324,0.000000,175.000000,165.000000,10.000000,45.000000,0.000000,0.000000,0.232402,0.276094,0.092961,0.418324,0.000000,175.000000,165.000000,10.000000,45.000000,0.000000,0.000000:
// measure 0
0000
0000
0000
0000
,  // measure 1
0000
0000
0000
0000
,  // measure 2
0000
0000
0000
0000
,  // measure 3
0000
0000
0000
0000
,  // measure 4
1000
0001
2000
3000
,  // measure 5
0100
0100
0200
0300
,  // measure 6
1000
0010
0100
0001
,  // measure 7
0020
0030
0001
0001
,  // measure 8
1000
0001
2000
3000
,  // measure 9
0100
0100
0200
0300
,  // measure 10
0010
0001
0100
0010
,  // measure 11
2000
3000
0002
0003
,  // measure 12
1000
0010
1000
0000
,  // measure 13
0010
0100
0100
0000
,  // measure 14
0001
0010
0001
0000
,  // measure 15
1000
0010
0100
0001
,  // measure 16
1000
0100
1000
0000
,  // measure 17
0100
0010
0010
0000
,  // measure 18
0001
0100
0001
0000
,  // measure 19
2002
0000
3003
0000
,  // measure 20
0001
1000
0002
0003
,  // measure 21
0100
0100
0200
0300
,  // measure 22
0001
0010
0100
1000
,  // measure 23
0020
0030
1000
1000
,  // measure 24
0001
1000
0002
0003
,  // measure 25
0100
0100
0200
0300
,  // measure 26
0010
1000
0100
0010
,  // measure 27
2002
0000
0000
3003
,  // measure 28
0001
0100
0001
0000
,  // measure 29
0100
1000
0100
0000
,  // measure 30
1000
0010
1000
0000
,  // measure 31
0010
0001
0010
0000
,  // measure 32
0001
0100
0001
0000
,  // measure 33
1000
0100
1000
0000
,  // measure 34
0010
0100
0010
0000
,  // measure 35
2002
0000
0000
3003
,  // measure 36
2000
0000
3000
0000
,  // measure 37
0200
0000
0300
0010
,  // measure 38
0002
0000
0003
0000
,  // measure 39
0200
0000
0300
0010
,  // measure 40
2002
0000
3003
0000
,  // measure 41
0220
0000
0330
0000
,  // measure 42
1001
0000
1001
0000
,  // measure 43
0200
0000
0300
1001
,  // measure 44
1000
0001
2000
3000
,  // measure 45
0100
0100
0200
0300
,  // measure 46
1000
0010
0100
0001
,  // measure 47
0020
0030
0001
0001
,  // measure 48
1000
0001
2000
3000
,  // measure 49
0010
0010
0020
0030
,  // measure 50
2000
3000
0002
0003
,  // measure 51
0010
0001
2000
3000
,  // measure 52
0001
1000
0002
0003
,  // measure 53
0100
0100
0200
0300
,  // measure 54
0001
0010
0100
1000
,  // measure 55
0020
0030
1000
1000
,  // measure 56
0001
1000
0200
0300
,  // measure 57
0010
0010
0020
0030
,  // measure 58
0100
1000
0001
0100
,  // measure 59
2002
0000
0000
3003
,  // measure 60
1000
0010
1000
0000
,  // measure 61
0001
0010
0000
0010
,  // measure 62
0001
0000
0100
0010
,  // measure 63
2002
0000
3003
0000
,  // measure 64
0200
0000
0000
0000
,  // measure 65
0000
0000
0000
0000
,  // measure 66
0300
0000
0000
0000
;

//---------------dance-single - ----------------
#NOTES:
     dance-single:
     :
     Beginner:
     1:
     0.096945,0.148738,0.018592,0.074369,0.000000,73.000000,71.000000,2.000000,8.000000,0.000000,0.000000,0.096945,0.148738,0.018592,0.074369,0.000000,73.000000,71.000000,2.000000,8.000000,0.000000,0.000000:
// measure 0
0000
0000
0000
0000
,  // measure 1
0000
0000
0000
0000
,  // measure 2
0000
0000
0000
0000
,  // measure 3
0000
0000
0000
0000
,  // measure 4
1000
0000
0000
0000
,  // measure 5
0001
0000
0000
0000
,  // measure 6
0100
0000
0010
0000
,  // measure 7
0100
0000
0000
0000
,  // measure 8
0001
0000
0000
0000
,  // measure 9
1000
0000
0000
0000
,  // measure 10
0100
0000
0010
0000
,  // measure 11
0100
0000
0000
0000
,  // measure 12
1000
0000
0000
0000
,  // measure 13
0010
0000
0000
0000
,  // measure 14
1000
0000
0000
0000
,  // measure 15
0001
0000
0000
0000
,  // measure 16
0010
0000
0000
0000
,  // measure 17
0001
0000
0000
0000
,  // measure 18
1000
0000
0000
0000
,  // measure 19
2002
0000
3003
0000
,  // measure 20
0001
0000
0000
0000
,  // measure 21
1000
0000
0000
0000
,  // measure 22
0010
0000
0100
0000
,  // measure 23
0010
0000
0000
0000
,  // measure 24
1000
0000
0000
0000
,  // measure 25
0001
0000
0000
0000
,  // measure 26
0010
0000
0100
0000
,  // measure 27
0020
0000
0030
0000
,  // measure 28
0001
0000
0000
0000
,  // measure 29
0001
0000
0000
0000
,  // measure 30
0100
0000
0000
0000
,  // measure 31
0100
0000
0000
0000
,  // measure 32
1000
0000
0000
0000
,  // measure 33
1000
0000
0000
0000
,  // measure 34
0010
0000
0000
0000
,  // measure 35
0020
0000
0030
0000
,  // measure 36
0001
0000
0000
0000
,  // measure 37
0001
0000
0000
0000
,  // measure 38
1000
0000
0000
0000
,  // measure 39
1000
0000
0000
0000
,  // measure 40
0010
0000
0000
0000
,  // measure 41
0100
0000
0000
0000
,  // measure 42
0010
0000
0010
0000
,  // measure 43
0020
0000
0030
0000
,  // measure 44
1000
0000
0000
0000
,  // measure 45
0001
0000
0000
0000
,  // measure 46
0100
0000
0010
0000
,  // measure 47
0100
0000
0000
0000
,  // measure 48
0001
0000
0000
0000
,  // measure 49
1000
0000
0000
0000
,  // measure 50
0100
0000
0010
0000
,  // measure 51
0100
0000
0000
0000
,  // measure 52
1000
0000
0000
0000
,  // measure 53
0001
0000
0000
0000
,  // measure 54
0010
0000
0100
0000
,  // measure 55
0010
0000
0000
0000
,  // measure 56
0001
0000
0000
0000
,  // measure 57
1000
0000
0000
0000
,  // measure 58
0010
0000
0100
0000
,  // measure 59
0020
0000
0030
0000
,  // measure 60
1000
0000
0000
0000
,  // measure 61
0001
0000
0000
0000
,  // measure 62
0010
0000
0010
0000
,  // measure 63
2002
0000
3003
0000
,  // measure 64
0100
0000
0000
0000
;
