#VERSION:0.83;
#TITLE:Demetrius;
#SUBTITLE:;
#ARTIST:James Landino;
#TITLETRANSLIT:;
#SUBTITLETRANSLIT:;
#ARTISTTRANSLIT:;
#GENRE:Electro Baroque;
#ORIGIN:;
#CREDIT:;
#BANNER:Demetrius.png;
#BACKGROUND:Demetrius-bg.png;
#PREVIEWVID:;
#JACKET:Demetrius-jacket.png;
#CDIMAGE:;
#DISCIMAGE:;
#LYRICSPATH:;
#CDTITLE:cdtitle.png;
#MUSIC:Demetrius.ogg;
#OFFSET:-0.052605;
#SAMPLESTART:30.052603;
#SAMPLELENGTH:15.000001;
#SELECTABLE:YES;
#BPMS:0.000=128.000;
#STOPS:;
#DELAYS:;
#WARPS:;
#TIMESIGNATURES:0.000=4=4;
#TICKCOUNTS:0.000=4;
#COMBOS:0.000=1;
#SPEEDS:0.000=1.000=0.000=0;
#SCROLLS:0.000=1.000;
#FAKES:;
#LABELS:0.000=Song Start;
#BGCHANGES:;
#KEYSOUNDS:;
#ATTACKS:
;

//---------------dance-single - ----------------
#NOTEDATA:;
#CHARTNAME:;
#STEPSTYPE:dance-single;
#DESCRIPTION:;
#CHARTSTYLE:;
#DIFFICULTY:Challenge;
#METER:15;
#RADARVALUES:0.726341,0.798913,0.340707,0.288290,0.685781,582.000000,543.000000,39.000000,33.000000,25.000000,1.000000,0.000000,0.000000,0.000000,0.726341,0.798913,0.340707,0.288290,0.685781,582.000000,543.000000,39.000000,33.000000,25.000000,1.000000,0.000000,0.000000,0.000000;
#CREDIT:;
#NOTES:
// measure 0
0000
0000
0000
0000
,  // measure 1
0000
0000
0000
0000
,  // measure 2
0000
0000
0000
0000
,  // measure 3
0000
0000
0000
0000
,  // measure 4
0000
0000
1000
0010
0100
1000
0100
0010
,  // measure 5
1000
0010
0100
1000
0100
0010
1000
1000
,  // measure 6
0001
0010
0100
0001
0100
0010
0001
0010
,  // measure 7
0100
0000
0000
0000
0000
0000
0000
0000
0001
0000
0000
0000
0000
0000
0000
0000
0100
0000
0000
0000
0000
0000
0000
0000
0010
0000
0000
0000
0000
0000
0000
0000
0001
0000
0000
0000
0000
1000
0000
0000
0010
0000
0000
0000
0000
1000
0000
0000
0010
0000
0000
0000
0000
0000
0000
0000
0100
0000
0000
0000
0000
0000
0000
0000
,  // measure 8
0002
0000
0013
0100
0010
0000
0100
0000
2000
0000
3010
0000
0100
0000
0001
0000
,  // measure 9
2000
3100
0010
0100
0002
0000
0203
0000
,  // measure 10
2300
0000
3010
0100
0010
0000
0100
0000
0002
0000
0013
0000
0100
0000
1000
0000
,  // measure 11
0020
0031
0010
1000
0200
0000
0310
0001
,  // measure 12
2000
3010
1000
0010
1000
0000
0001
0000
0020
0000
0031
0010
0001
0000
0010
0000
,  // measure 13
0200
0000
0000
0000
0000
0000
1300
0000
0000
0001
0000
0000
1000
0000
0000
0000
0000
0000
0001
0000
0000
0000
0000
0000
0200
0000
0000
0000
0000
0000
0310
0000
0100
0000
0010
0000
0100
0000
0000
0000
0000
0000
0000
0000
0000
0000
0000
0000
,  // measure 14
0020
0000
1030
0001
1000
0000
0100
0000
0010
0001
0010
0100
0010
0000
0001
0000
,  // measure 15
1001
0000
0000
0000
0000
0000
1000
0001
1000
0001
1000
0001
1000
0000
0000
0000
0000
0000
0000
0000
0000
0000
0000
0000
,  // measure 16
1001
0000
1000
0010
0100
0000
0010
0000
1010
0000
1000
0000
0100
0000
0010
0000
,  // measure 17
0110
0100
1000
0010
0120
0000
1030
0000
,  // measure 18
1001
0000
0001
0010
0100
0000
0010
0000
0011
0000
0001
0000
0100
0000
0010
0000
,  // measure 19
0110
0100
0001
0010
0120
0000
0031
1000
,  // measure 20
0010
0100
0001
0100
0010
0000
1000
0000
1010
0000
0010
1000
0001
0000
1000
0000
,  // measure 21
1001
0000
0001
1000
0100
0000
0010
0000
0210
0000
0000
0000
1300
0000
0000
0000
,  // measure 22
1001
0000
0001
0100
0010
0000
1000
0000
0100
0010
0100
1000
0100
0000
0010
0000
,  // measure 23
1001
0000
0000
0000
0000
0000
0000
0000
0000
0000
0000
0000
1000
0000
0001
0000
1000
0000
0001
0000
0000
0000
0000
0000
1000
0000
0000
0001
0000
0000
0100
0000
0000
0000
0000
0000
0100
0000
0000
0000
0000
0000
0100
0000
0000
0000
0000
0000
,  // measure 24
0001
0000
1000
0100
1000
0100
1000
0100
0010
0000
0001
0100
0001
0100
0001
0100
,  // measure 25
0010
0000
1000
0100
1000
0100
0010
0001
1000
0000
1010
0000
1020
0000
0000
0000
,  // measure 26
1030
0000
0001
0010
0001
0010
0001
0010
0100
0000
1000
0010
1000
0010
1000
0010
,  // measure 27
0100
0000
0000
0000
0000
0000
0001
0000
0000
1000
0000
0000
0100
0000
0000
0000
0000
0000
1000
0000
0000
0000
0000
0000
2100
0000
0000
0000
0000
0000
0000
0000
3001
0000
0100
0000
0002
0000
0000
0000
0000
0000
0000
0000
0000
0000
0000
0000
,  // measure 28
1003
0000
0100
0010
0001
0010
0100
0010
0001
0000
0100
0010
1000
0010
0100
0010
,  // measure 29
1000
0000
0100
0010
0001
0010
0100
0010
0001
0000
1000
0000
0010
0000
0100
0000
,  // measure 30
0010
0100
0010
0100
0010
0100
0010
0100
0010
0100
0010
0100
0010
0100
0010
0100
,  // measure 31
0010
0000
0000
0000
0000
0000
0000
0000
0110
0000
0110
0000
1000
0100
0010
0001
,  // measure 32
0200
0000
0000
0000
M301
0100
M100
0100
M001
0100
M100
0100
M001
0000
0010
0000
,  // measure 33
0200
0000
0000
0000
130M
0100
010M
0100
100M
0100
010M
0100
100M
0000
0000
0000
,  // measure 34
1001
0000
0000
0000
M001
0100
M100
0100
M001
0100
M100
0100
M001
0000
0010
0000
,  // measure 35
0200
0000
0000
0000
0310
0001
1000
0001
0100
0001
1000
0001
0010
0001
1000
0001
,  // measure 36
0200
0000
0000
0000
M301
0100
M100
0100
M001
0010
M010
0010
M001
0000
0100
0000
,  // measure 37
0020
0000
0000
0000
103M
0100
010M
0100
100M
0010
001M
0010
100M
0000
0000
0000
,  // measure 38
1001
0000
0000
0000
0110
0000
0000
0000
0001
1000
0001
1000
0100
0010
0100
0010
,  // measure 39
0001
0000
1000
0010
1000
0000
0100
0000
0010
0000
0001
0100
0001
0000
1000
0100
,  // measure 40
0010
0000
0001
0100
0010
0100
0010
0100
0001
0000
1000
0100
0010
0100
0010
0100
,  // measure 41
1000
0000
0010
0100
0001
0100
0001
0100
0010
0000
1000
0100
0010
0001
0010
0100
,  // measure 42
1000
0000
0001
0100
0010
1000
0010
0100
0001
0000
0010
0100
1000
0100
1000
0100
,  // measure 43
0010
0001
1000
0010
0100
0001
1000
0100
0010
0000
0001
0100
0001
0100
0001
0100
,  // measure 44
0010
0000
1000
0010
0100
0010
1000
0010
0100
0000
0001
0010
0100
0010
0001
0010
,  // measure 45
0100
0000
1000
0001
0100
0001
1000
0001
0100
0000
0001
1000
0100
1000
0001
1000
,  // measure 46
0100
0010
0100
0010
0001
1000
0001
1000
0100
0010
0001
1000
0100
0010
0001
1000
,  // measure 47
0200
0000
0000
0000
0000
0000
0000
0000
1300
0001
0100
0000
0010
0000
0100
0000
,  // measure 48
1001
0000
0001
0010
0100
0000
0010
0000
0011
0000
0001
0000
0100
0000
1000
0000
,  // measure 49
1100
1000
0100
0001
1002
0000
0013
0000
,  // measure 50
1001
0000
1000
0010
0100
0000
0010
0000
1010
0000
1000
0000
0100
0000
0001
0000
,  // measure 51
0101
0001
0100
1000
2001
0000
3010
1000
,  // measure 52
0001
0010
0100
1000
0010
0000
1000
0000
1010
0000
1000
0100
0001
0000
0100
0000
,  // measure 53
1100
0000
0001
0100
1000
0000
0100
0000
0201
0000
0000
0000
0310
0000
0000
0000
,  // measure 54
1001
0000
1000
0100
0010
0000
0001
0000
1000
0010
0001
0010
1000
0000
0010
0000
,  // measure 55
2002
0000
0000
0000
0000
0000
0000
0000
0010
0000
0000
0000
3003
0000
1000
0001
,  // measure 56
1000
0000
0010
1000
1001
0000
0010
0001
,  // measure 57
1001
0000
0010
1000
0100
0000
1000
0000
1001
0000
0010
0001
0100
0000
0001
0000
,  // measure 58
0220
0000
0000
0000
,  // measure 59
0330
0000
0000
0000
;

//---------------dance-single - ----------------
#NOTEDATA:;
#CHARTNAME:;
#STEPSTYPE:dance-single;
#DESCRIPTION:;
#CHARTSTYLE:;
#DIFFICULTY:Hard;
#METER:11;
#RADARVALUES:0.424323,0.412342,0.148513,0.297026,0.021840,340.000000,323.000000,17.000000,34.000000,22.000000,1.000000,0.000000,0.000000,0.000000,0.424323,0.412342,0.148513,0.297026,0.021840,340.000000,323.000000,17.000000,34.000000,22.000000,1.000000,0.000000,0.000000,0.000000;
#CREDIT:;
#NOTES:
// measure 0
0000
0000
0000
0000
,  // measure 1
0000
0000
0000
0000
,  // measure 2
0000
0000
0000
0000
,  // measure 3
0000
0000
0000
0000
,  // measure 4
0000
2001
0010
0001
,  // measure 5
0100
0001
0010
3001
,  // measure 6
1002
0010
1000
0100
,  // measure 7
1000
0000
0010
0000
1003
1000
0001
0000
,  // measure 8
1000
0010
1000
0010
0100
0010
0100
0010
,  // measure 9
0100
0001
0100
0001
2000
0000
3200
0000
,  // measure 10
0310
0001
0010
0001
0010
0100
0010
0100
,  // measure 11
1000
0001
0100
0001
2000
0000
3001
0000
,  // measure 12
0010
0100
1000
1000
0010
0100
0001
0001
,  // measure 13
1000
0100
0010
0001
2000
0000
3001
0000
,  // measure 14
0100
0010
0100
0010
1000
0100
0010
0000
,  // measure 15
1001
0110
1001
0000
,  // measure 16
0001
0100
0001
0100
1000
0100
1000
0100
,  // measure 17
0001
0100
0010
1000
0002
0000
0023
0000
,  // measure 18
0031
0010
0001
0010
1000
0010
1000
0010
,  // measure 19
0001
0010
1000
0010
0002
0000
0103
0000
,  // measure 20
0010
1000
0100
0100
0010
0001
0100
0100
,  // measure 21
0010
1000
0001
0010
0200
0000
0310
0000
,  // measure 22
0001
0100
0010
1000
0100
0010
0001
0000
,  // measure 23
0101
0000
1100
0000
0101
0000
0001
0001
,  // measure 24
1000
0000
1000
0100
0001
0000
0001
0100
,  // measure 25
1000
0000
1000
0100
0010
0010
0010
0000
,  // measure 26
1001
0000
1000
0010
0001
0000
0001
0010
,  // measure 27
1000
0000
1000
0010
0200
0000
0302
0000
,  // measure 28
1003
0000
0001
0100
1000
0000
1000
0100
,  // measure 29
0001
0000
0001
0010
1000
0000
1000
0010
,  // measure 30
0002
0010
0010
0010
,  // measure 31
0013
0000
0000
0000
0001
0001
0100
0010
,  // measure 32
2000
0000
0000
0000
3100
M00M
0100
0000
0001
0000
1000
0000
0001
0000
0100
0000
,  // measure 33
0002
0000
0000
0000
0103
M00M
0100
0000
1000
0000
0010
0000
2000
0000
0000
0000
,  // measure 34
3002
0000
0000
0000
0013
M00M
0010
0000
1000
0000
0001
0000
1000
0000
0010
0000
,  // measure 35
2000
0000
3001
0010
0100
0010
0100
0010
,  // measure 36
0012
0000
0000
0000
0103
M00M
0100
0000
1000
0000
0010
0000
0001
0000
0010
0000
,  // measure 37
2000
0000
0000
0000
3100
M00M
0100
0000
0001
0000
0010
0000
1000
0000
0010
0000
,  // measure 38
0001
0000
1001
0000
1000
0010
0100
0001
,  // measure 39
2000
3200
0320
0032
,  // measure 40
1003
0000
0010
1000
0100
0000
1000
0100
,  // measure 41
0001
0000
0001
0100
1000
0000
0100
1000
,  // measure 42
0010
0000
0100
0001
1000
0000
0100
1000
,  // measure 43
0001
0100
0001
0100
0010
1000
0010
1000
,  // measure 44
0001
0000
0010
0001
0100
0000
0001
0100
,  // measure 45
1000
0000
1000
0100
0001
0000
0100
0001
,  // measure 46
0020
1000
0001
1000
,  // measure 47
0032
0000
0000
0000
0103
0100
0001
0000
,  // measure 48
1000
0100
1000
0100
0001
0100
0001
0100
,  // measure 49
1000
0010
0001
0010
2000
0000
3020
0000
,  // measure 50
1030
0010
1000
0010
0001
0010
0001
0010
,  // measure 51
1000
0100
0001
0100
2000
0000
3100
0000
,  // measure 52
0010
0001
0100
0100
0010
1000
0100
0100
,  // measure 53
0001
0100
1000
0010
0002
0000
0013
0000
,  // measure 54
1000
0010
0100
0001
0010
0100
1000
0000
,  // measure 55
2002
0000
0010
3003
,  // measure 56
MM1M
1001
M1MM
1001
,  // measure 57
MMM1
0110
1MMM
0110
,  // measure 58
2002
0000
0000
0000
,  // measure 59
3003
0000
0000
0000
;

//---------------dance-single - ----------------
#NOTEDATA:;
#CHARTNAME:;
#STEPSTYPE:dance-single;
#DESCRIPTION:;
#CHARTSTYLE:;
#DIFFICULTY:Medium;
#METER:6;
#RADARVALUES:0.319490,0.386571,0.550372,0.366915,0.000000,256.000000,193.000000,63.000000,42.000000,20.000000,1.000000,0.000000,0.000000,0.000000,0.319490,0.386571,0.550372,0.366915,0.000000,256.000000,193.000000,63.000000,42.000000,20.000000,1.000000,0.000000,0.000000,0.000000;
#CREDIT:;
#NOTES:
// measure 0
0000
0000
0000
0000
,  // measure 1
0000
0000
0000
0000
,  // measure 2
0000
0000
0000
0000
,  // measure 3
0000
0000
0000
0000
,  // measure 4
0000
2001
0100
0001
,  // measure 5
0100
0001
0100
3010
,  // measure 6
1002
0100
1000
0100
,  // measure 7
1000
0100
0013
0010
,  // measure 8
1001
0000
0101
0000
,  // measure 9
1100
0000
0102
1003
,  // measure 10
1001
0000
0011
0000
,  // measure 11
1010
0000
0022
0033
,  // measure 12
2100
0000
3200
0000
,  // measure 13
0302
0000
0023
0000
,  // measure 14
2000
0000
0000
3030
,  // measure 15
1001
0110
1001
0000
,  // measure 16
1100
0100
0110
0010
,  // measure 17
0011
0001
0101
1010
,  // measure 18
0101
0001
1001
1000
,  // measure 19
1100
0100
0220
0330
,  // measure 20
0012
1003
0102
1003
,  // measure 21
2010
3001
2100
3001
,  // measure 22
1002
0100
0010
0103
,  // measure 23
1001
0110
1001
0000
,  // measure 24
1000
0100
0001
0100
,  // measure 25
1000
0100
0001
0001
,  // measure 26
0010
1000
0010
0001
,  // measure 27
0010
1000
0100
0100
,  // measure 28
0010
0001
1000
0010
,  // measure 29
0100
0001
1000
0100
,  // measure 30
0020
0100
0100
0100
,  // measure 31
0130
0000
0010
0110
,  // measure 32
1002
M010
10M0
M013
,  // measure 33
2001
001M
00M1
301M
,  // measure 34
1002
M100
1M00
M103
,  // measure 35
2001
310M
0M11
110M
,  // measure 36
2001
001M
01M0
3M01
,  // measure 37
1002
M010
01M0
1M03
,  // measure 38
0011
1200
M001
130M
,  // measure 39
0002
0203
0320
2030
,  // measure 40
3001
0010
1000
0010
,  // measure 41
0001
0100
1000
0100
,  // measure 42
0001
0010
0100
0010
,  // measure 43
0001
0100
0020
0030
,  // measure 44
1000
0010
0001
0010
,  // measure 45
1000
0100
0001
0100
,  // measure 46
2000
0001
0001
0001
,  // measure 47
3001
0000
0001
1001
,  // measure 48
0101
0100
0110
0010
,  // measure 49
1010
1000
1100
0011
,  // measure 50
1100
1000
1001
0001
,  // measure 51
0101
0100
0220
0330
,  // measure 52
2010
3001
2100
3001
,  // measure 53
0012
1003
0102
1003
,  // measure 54
2001
0100
0010
3100
,  // measure 55
2002
0000
0010
3003
,  // measure 56
1010
0010
0011
0001
,  // measure 57
0101
0100
1100
1000
,  // measure 58
2002
0000
0000
0000
,  // measure 59
3003
0000
0000
0000
;

//---------------dance-single - ----------------
#NOTEDATA:;
#CHARTNAME:;
#STEPSTYPE:dance-single;
#DESCRIPTION:;
#CHARTSTYLE:;
#DIFFICULTY:Easy;
#METER:4;
#RADARVALUES:0.182209,0.309257,0.200930,0.200930,0.000000,146.000000,123.000000,23.000000,23.000000,0.000000,0.000000,0.000000,0.000000,0.000000,0.182209,0.309257,0.200930,0.200930,0.000000,146.000000,123.000000,23.000000,23.000000,0.000000,0.000000,0.000000,0.000000,0.000000;
#CREDIT:;
#NOTES:
// measure 0
0000
0000
0000
0000
,  // measure 1
0000
0000
0000
0000
,  // measure 2
0000
0000
0000
0000
,  // measure 3
0000
0000
0000
0000
,  // measure 4
0000
1000
0000
1000
,  // measure 5
0000
1000
0000
1000
,  // measure 6
0000
0001
0000
0001
,  // measure 7
0000
0001
0001
0000
,  // measure 8
1000
0000
0010
0000
,  // measure 9
0100
0000
0010
0100
,  // measure 10
0001
0000
0010
0000
,  // measure 11
0100
0000
0010
0000
,  // measure 12
0001
0000
0100
0000
,  // measure 13
1000
0000
0010
0000
,  // measure 14
0001
0000
0000
0000
,  // measure 15
0001
1000
0001
0000
,  // measure 16
1001
0000
0011
0000
,  // measure 17
1001
0000
0001
0100
,  // measure 18
0001
0000
1001
0000
,  // measure 19
0011
0000
1001
0000
,  // measure 20
2000
0000
3020
0000
,  // measure 21
0230
0000
0302
0000
,  // measure 22
2000
0000
3003
0000
,  // measure 23
1001
1001
1001
0000
,  // measure 24
1000
0000
1000
0000
,  // measure 25
1000
0000
0010
0010
,  // measure 26
0001
0000
0001
0000
,  // measure 27
0001
0000
0100
0100
,  // measure 28
1000
0000
0001
0000
,  // measure 29
1000
0000
0001
0000
,  // measure 30
0200
0000
0000
0000
,  // measure 31
0300
0000
0100
0100
,  // measure 32
0002
0100
1003
0000
,  // measure 33
2000
0100
3001
1001
,  // measure 34
2000
0100
3001
0000
,  // measure 35
0002
0103
0010
0010
,  // measure 36
2000
0010
3001
0000
,  // measure 37
0002
0010
1003
1001
,  // measure 38
0001
0001
1000
1000
,  // measure 39
0200
0000
0000
0300
,  // measure 40
0010
0000
0001
0000
,  // measure 41
0100
0000
0010
0000
,  // measure 42
1000
0000
0100
0000
,  // measure 43
0010
0100
0010
0000
,  // measure 44
0100
0000
1000
0000
,  // measure 45
0010
0000
0100
0000
,  // measure 46
0001
0000
1000
0000
,  // measure 47
0200
0000
0300
0000
,  // measure 48
1001
0000
1010
0000
,  // measure 49
1001
0000
1000
0100
,  // measure 50
1000
0000
1001
0000
,  // measure 51
1010
0000
1001
0000
,  // measure 52
0002
0000
0023
0000
,  // measure 53
0230
0000
2300
0000
,  // measure 54
0002
0000
3003
0000
,  // measure 55
0220
0000
0330
0000
,  // measure 56
1001
0000
1001
0000
,  // measure 57
1001
1000
1001
0001
,  // measure 58
2002
0000
0000
0000
,  // measure 59
3003
0000
0000
0000
;

//---------------dance-single - ----------------
#NOTEDATA:;
#CHARTNAME:;
#STEPSTYPE:dance-single;
#DESCRIPTION:;
#CHARTSTYLE:;
#DIFFICULTY:Beginner;
#METER:2;
#RADARVALUES:0.127297,0.253346,0.043680,0.052416,0.000000,102.000000,97.000000,5.000000,6.000000,0.000000,0.000000,0.000000,0.000000,0.000000,0.127297,0.253346,0.043680,0.052416,0.000000,102.000000,97.000000,5.000000,6.000000,0.000000,0.000000,0.000000,0.000000,0.000000;
#CREDIT:;
#NOTES:
// measure 0
0000
0000
0000
0000
,  // measure 1
0000
0000
0000
0000
,  // measure 2
0000
0000
0000
0000
,  // measure 3
0000
0000
0000
0000
,  // measure 4
1000
0000
0000
0000
,  // measure 5
1000
0000
0000
0000
,  // measure 6
0001
0000
0000
0000
,  // measure 7
0001
0000
0000
0000
,  // measure 8
1000
0000
0000
0000
,  // measure 9
0010
0000
0000
0000
,  // measure 10
0100
0000
0000
0000
,  // measure 11
0001
0000
0000
0000
,  // measure 12
0010
0000
0000
0000
,  // measure 13
0100
0000
0000
0000
,  // measure 14
1000
0000
0000
0000
,  // measure 15
0001
0000
1000
0000
,  // measure 16
0001
0000
0001
0000
,  // measure 17
0100
0000
0100
0000
,  // measure 18
0010
0000
0010
0000
,  // measure 19
1000
0000
1000
0000
,  // measure 20
0100
0000
0010
0000
,  // measure 21
0100
0000
0010
0000
,  // measure 22
0200
0000
0300
0000
,  // measure 23
0100
0100
0100
0000
,  // measure 24
1000
0000
1000
0000
,  // measure 25
1000
0000
1000
0000
,  // measure 26
0001
0000
0001
0000
,  // measure 27
0001
0000
0001
0000
,  // measure 28
1000
0000
0001
0000
,  // measure 29
1000
0000
0001
0000
,  // measure 30
2000
0000
0000
0000
,  // measure 31
3000
0000
0000
0000
,  // measure 32
0001
0001
0001
0000
,  // measure 33
0001
0001
0001
0000
,  // measure 34
0001
0001
0001
0000
,  // measure 35
0100
0000
0010
0000
,  // measure 36
1000
1000
1000
0000
,  // measure 37
1000
1000
1000
0000
,  // measure 38
0100
0000
0010
0000
,  // measure 39
0002
0000
0003
0000
,  // measure 40
1000
0000
1000
0000
,  // measure 41
0010
0000
0010
0000
,  // measure 42
0100
0000
0100
0000
,  // measure 43
0001
0001
0001
0000
,  // measure 44
1000
0000
1000
0000
,  // measure 45
0100
0000
0100
0000
,  // measure 46
0010
0000
0010
0000
,  // measure 47
0002
0000
0003
0000
,  // measure 48
1000
0000
1000
0000
,  // measure 49
0100
0000
0100
0000
,  // measure 50
0010
0000
0010
0000
,  // measure 51
0001
0000
0001
0000
,  // measure 52
0100
0000
0010
0000
,  // measure 53
0100
0000
0010
0000
,  // measure 54
0200
0000
0300
0000
,  // measure 55
0020
0000
0030
0000
,  // measure 56
1001
0000
1001
0000
,  // measure 57
1001
0000
1001
0000
,  // measure 58
1001
0000
0000
0000
;
