#VERSION:0.83;
#TITLE:Dance of the Sugar Plum Fairy;
#SUBTITLE:;
#ARTIST:Lindsey Stirling;
#TITLETRANSLIT:;
#SUBTITLETRANSLIT:;
#ARTISTTRANSLIT:;
#GENRE:Electronic Ballet;
#ORIGIN:;
#CREDIT:;
#BANNER:Dance of the Sugar Plum Fairy.png;
#BACKGROUND:Dance of the Sugar Plum Fairy-bg.png;
#PREVIEWVID:;
#JACKET:Dance of the Sugar Plum Fairy-jacket.png;
#CDIMAGE:;
#DISCIMAGE:;
#LYRICSPATH:;
#CDTITLE:cdtitle.png;
#MUSIC:Dance of the Sugar Plum Fairy.ogg;
#OFFSET:3.415946;
#SAMPLESTART:6.870869;
#SAMPLELENGTH:13.714285;
#SELECTABLE:YES;
#BPMS:0.000=70.000,
72.000=35.000,
77.000=70.000;
#STOPS:;
#DELAYS:;
#WARPS:;
#TIMESIGNATURES:0.000=4=4;
#TICKCOUNTS:0.000=4;
#COMBOS:0.000=1;
#SPEEDS:0.000=1.000=0.000=0;
#SCROLLS:0.000=1.000;
#FAKES:;
#LABELS:0.000=Song Start;
#BGCHANGES:4.000=Dance of the Sugar Plum Fairy.avi=1.000=1=0=0=StretchNoLoop==CrossFade==,
99999=-nosongbg-=1.000=0=0=0 // don't automatically add -songbackground-
;
#KEYSOUNDS:;
#ATTACKS:
;

//---------------dance-single - ----------------
#NOTEDATA:;
#CHARTNAME:;
#STEPSTYPE:dance-single;
#DESCRIPTION:;
#CHARTSTYLE:;
#DIFFICULTY:Challenge;
#METER:14;
#RADARVALUES:0.600060,0.798079,0.228171,0.414856,1.031954,405.000000,383.000000,22.000000,40.000000,0.000000,0.000000,0.000000,0.000000,0.000000,0.600060,0.798079,0.228171,0.414856,1.031954,405.000000,383.000000,22.000000,40.000000,0.000000,0.000000,0.000000,0.000000,0.000000;
#CREDIT:;
#NOTES:
0000
0000
0000
0000
,
0000
0000
0000
0000
,
0000
0000
0000
0000
,
1001
0000
0000
0000
0000
0000
0001
0000
0000
0010
0000
0000
0002
0000
0000
0003
0010
0001
0010
0000
0000
0000
0000
0000
0100
0000
0000
0000
0000
0000
1000
0000
0000
0000
0000
0000
0001
0000
0000
0001
0000
0000
0002
0000
0000
0000
0000
0000
,
0103
0000
0100
0000
0200
0000
0000
0000
1300
0000
1000
0000
2000
0000
0000
0000
3001
0000
0010
0000
1000
0000
0100
0000
0002
0000
0000
0000
0103
0010
0100
1000
,
0001
0000
1000
0010
2000
0000
3010
0000
0102
0000
1003
0000
2100
0000
3010
0000
,
0102
0000
0000
0000
0013
0000
0000
0000
2100
0000
0000
0000
3001
0000
0000
0000
0001
0000
0010
0000
1000
0000
0010
0000
0002
0000
0000
0000
1003
0010
1000
0010
,
1000
0000
0001
0100
1000
0000
1100
0000
0110
0000
0101
0000
1000
1000
1000
0000
,
0100
0000
0100
0000
0100
0000
0000
0000
0001
0000
0001
0000
0001
0000
0000
0000
1000
0000
0010
0000
0001
0000
0100
0000
1000
0000
0000
0000
0100
0010
0100
0001
,
2000
0000
0000
0000
0010
0000
0001
0000
0010
0000
0000
0000
3100
0010
0100
1000
0002
0000
0000
0000
0010
0000
1000
0000
0010
0000
0000
0000
1003
0010
0100
0001
,
2000
0000
0000
0000
0000
0000
0000
0000
0000
0000
0000
0000
0000
0000
0000
0000
0000
0000
0000
0000
0000
0000
0000
0000
3100
0000
0000
0000
0000
0000
0000
0000
0000
0000
0000
0000
0010
0000
0000
0000
0000
0000
0001
0000
0000
0000
0000
0000
1000
0000
0000
0000
0000
0000
0000
0000
0000
0000
0000
0000
0010
0000
0000
0000
0000
0000
0000
0000
0000
0000
0000
0000
0100
0000
0000
0000
0010
0000
0000
0000
0100
0000
0000
0000
0010
0000
0000
0000
0100
0000
0000
0000
0010
0000
0000
0000
0100
0000
0000
0000
0000
0000
0000
0000
0000
0000
0000
0000
0000
0000
0000
0000
0000
0000
0000
0000
0000
0000
0000
0000
0010
0000
0000
0000
0000
0000
1000
0000
0000
0000
0000
0000
0001
0000
0000
0000
0000
0000
0010
0000
0000
0000
0000
0000
0100
0000
0000
0000
0000
0000
0000
0000
0000
0000
0000
0000
0000
0000
0000
0000
0000
0000
0000
0000
0000
0000
0000
0000
0000
0000
0000
0000
0000
0000
0000
0000
0000
0000
0000
0000
0000
0000
0000
0000
0000
0000
0000
0000
0000
0000
0000
0000
,
1000
0100
1000
0100
0010
0100
0010
0100
1000
0100
1000
0100
1000
0001
1000
0001
0100
0001
0100
0001
0100
0010
0100
0010
0100
0001
0100
0001
1000
0001
1000
0001
,
1000
0100
1000
0100
0010
0100
0010
0100
0010
0001
0010
0001
1000
0100
0010
0001
2000
0000
0000
0000
3010
0000
0001
0000
2000
0000
0000
0000
3001
0000
0010
0000
,
1000
0000
0001
0000
1000
0000
0100
0000
0001
0000
1000
0000
0001
0000
0100
0000
1000
0000
0001
0100
0010
1000
0010
1000
0001
1000
0001
1000
0100
1000
0100
1000
,
0001
1000
0001
1000
0001
0100
0001
0100
0001
1000
0001
1000
0001
0010
0001
0010
0001
1000
0001
1000
0010
1000
0010
1000
0001
1000
0001
1000
0100
0010
0001
1000
,
0020
0000
0130
0001
0020
0000
0130
0010
0001
0100
1000
0001
0010
1000
0100
0001
,
0200
1000
1000
1300
0120
0001
0001
0031
,
0201
0000
0000
0000
0010
0000
0000
0000
0010
0000
0000
0000
0310
0000
0000
0000
2001
0000
0000
0000
0100
0000
0000
0000
3100
0000
0000
0000
1000
0100
0010
0001
,
0200
0000
0000
0000
0000
0000
0000
0000
0000
0000
0000
0000
0000
0000
0000
0000
0300
0000
0000
0000
0010
0000
0100
0000
0020
0000
0000
0000
0000
0000
0000
0000
0000
0000
0000
0000
2030
0000
0000
0000
0000
0000
0000
0000
0000
0000
0000
0000
0000
0000
0000
0000
0000
0000
0000
0000
0000
0000
0000
0000
0002
0000
0000
0000
0000
0000
0000
0000
0000
0000
0000
0000
0000
0000
0000
0000
0000
0000
0000
0000
0000
0000
0000
0000
0000
0000
0000
0000
0000
0000
0000
0000
0000
0000
0000
0000
0000
0000
0000
0000
0000
0000
0000
0000
0000
0000
0000
0000
0000
0000
0000
0000
0000
0000
0000
0000
0000
0000
0000
0000
0000
0000
0000
0000
0000
0000
0000
0000
0000
0000
0000
0000
0000
0000
0000
0000
0000
0000
0000
0000
0000
0000
0000
0000
3003
0000
0000
0000
0000
0000
0000
0000
0000
0000
0000
0000
0000
0000
0000
0000
0000
0000
0000
0000
0000
0000
0000
0000
0000
0000
0000
0000
0000
0000
0000
0000
0000
0000
0000
0000
0000
0000
0000
0000
0000
0000
0000
0000
0000
0000
0000
0000
,
0000
0000
0000
0000
0000
0000
0000
0000
0000
0000
0000
0000
1001
0000
0000
0000
0000
0000
1000
0000
0000
0010
0000
0000
2000
0000
0000
0000
3010
1000
0010
0000
0000
0000
0000
0000
0101
0000
0000
0000
0000
0000
1100
0000
0000
0000
0000
0000
,
0001
0000
0001
0000
0010
0001
0100
0010
1000
0000
1000
0000
0010
1000
0100
0010
0001
0000
0001
0000
0100
0001
1000
0100
0010
0000
0001
0000
0100
0000
1000
0000
,
0200
0000
0000
0000
0301
0100
0001
0100
0001
0000
0000
0000
1000
0000
0100
0000
0020
0000
0000
0000
0031
0000
0000
0000
2001
0000
0000
0000
3010
0100
0001
1000
,
0200
0000
0310
0000
2100
0000
3010
0000
0102
0000
0013
0000
0001
0100
1000
0100
,
0002
0000
0000
0000
0013
0100
0010
0100
0010
0000
0000
0000
1100
0000
0001
0000
0102
0000
0000
0000
1003
0000
0000
0000
1010
0000
0000
0000
0011
0000
0000
0000
,
1010
0000
0000
0000
0000
0000
0000
0000
0000
0000
0000
0000
0100
0000
0000
0000
0000
0000
0000
0000
0000
0000
0000
0000
0001
0000
0000
0000
0000
0000
0000
0000
0000
0000
0000
0000
0001
0000
0000
0000
0000
0000
0000
0000
0000
0000
0000
0000
0010
0000
0000
0000
0100
0000
0000
0000
0010
0000
0000
0000
0001
0000
0000
0000
0000
0000
0000
0000
0000
0000
0000
0000
1000
0000
0000
0000
0000
0000
0000
0000
0000
0000
0000
0000
1000
0000
0000
0000
0000
0000
0000
0000
0000
0000
0000
0000
0010
0000
0000
0000
0100
0000
0000
0000
0010
0000
0000
0000
1000
0000
0000
0000
0000
0000
0000
0000
0000
0000
0000
0000
0001
0000
0000
0000
0000
0000
0000
0000
0000
0000
0000
0000
0001
0000
0000
0000
0000
0000
0000
0000
0000
0000
0000
0000
1000
0000
0000
0000
0000
0000
0010
0000
0000
0000
0000
0000
1000
0000
0000
0000
0000
0000
0100
0000
0000
0000
0000
0000
1000
0000
0000
0000
0000
0000
0010
0000
0000
0000
0000
0000
0100
0000
0000
0000
0000
0000
0001
0000
0000
0000
0000
0000
,
0020
0000
0000
0000
0031
0010
0100
0010
0002
0000
0000
0000
0010
0000
1000
0000
0010
0000
0000
0000
1003
0010
0100
0010
2000
0000
0000
0000
0010
0000
0001
0000
,
0010
0000
0000
0000
3001
0100
0010
0100
0002
0000
0000
0000
0100
0000
1000
0000
0100
0000
0000
0000
1003
0100
0010
0100
2000
0000
0000
0000
3001
0010
0100
0010
,
1000
0000
0000
0000
;

//---------------dance-single - ----------------
#NOTEDATA:;
#CHARTNAME:;
#STEPSTYPE:dance-single;
#DESCRIPTION:;
#CHARTSTYLE:;
#DIFFICULTY:Hard;
#METER:10;
#RADARVALUES:0.434117,0.462046,0.155571,0.425227,0.492642,293.000000,278.000000,15.000000,41.000000,0.000000,0.000000,0.000000,0.000000,0.000000,0.434117,0.462046,0.155571,0.425227,0.492642,293.000000,278.000000,15.000000,41.000000,0.000000,0.000000,0.000000,0.000000,0.000000;
#CREDIT:;
#NOTES:
0000
0000
0000
0000
,
0000
0000
0000
0000
,
0000
0000
0000
0000
,
1001
0000
0001
1000
0002
0000
0103
0000
0010
0000
1000
0000
0001
0010
0002
0000
,
1003
0001
2000
0000
3001
0100
0002
0000
1003
0100
0010
0100
0002
0000
0103
1000
,
0001
0000
0001
0100
0020
0000
1030
0000
2100
0000
3001
0000
0012
0000
0103
0000
,
2010
0000
3100
0000
0102
0000
1003
0000
0001
0100
0010
0100
2000
0000
3100
0001
,
0010
0000
0100
0010
0100
0000
1001
0000
0010
0000
1001
0000
1000
0010
1000
0000
,
1000
0001
1000
0000
1000
0100
1000
0000
0010
1000
0010
0001
0010
0000
1000
1000
,
0200
0000
0010
0010
0010
0000
0301
0001
0200
0000
0010
0010
0010
0000
1300
1000
,
0200
0000
0000
0310
0001
0100
2000
0000
3100
0000
1000
0100
0001
0000
0000
0000
,
1000
0100
0010
0001
1000
0100
0010
0001
1000
0010
0100
0001
0010
0001
0100
0010
,
1000
0100
0010
0001
1000
0010
0100
0001
2000
0000
3001
1000
0002
0000
1003
0001
,
0010
0001
1000
0001
0100
1000
0100
0001
0010
0100
1000
0001
0010
0100
1000
0001
,
0100
0010
1000
0100
1000
0010
0100
0001
0010
0100
1000
0001
0100
0010
1000
0001
,
0020
0000
0031
1000
0020
0000
1030
0001
0010
0100
0010
0100
1000
0010
0001
0010
,
2000
0100
0100
0100
3002
0010
0010
0010
,
2003
0000
0010
0000
0010
0000
0010
0000
3002
0000
0100
0000
0103
0000
0001
1000
,
0200
0000
0320
0032
0000
2000
0000
0000
0000
0000
0000
0000
3003
0000
0000
0000
,
0000
0000
0000
0000
1001
0000
1000
0001
2000
0000
3010
0000
0011
0000
1010
0000
,
0001
0010
0100
0100
1000
0010
0100
0100
0001
1000
0100
0100
0010
0001
0100
1000
,
0200
0000
0301
0100
0001
0000
1000
0100
0020
0000
0130
0000
2000
0000
3001
0100
,
0020
0000
1030
0000
0102
0000
0013
0000
2100
0000
3010
0000
1000
0010
0001
0010
,
2000
0000
3100
0000
0110
0000
1000
0100
0002
0000
0103
0000
0101
0000
1100
0000
,
1000
0010
1000
0001
0010
0010
0100
1000
0010
0010
0100
0001
1000
0100
0001
1000
,
0020
0000
0031
0001
0200
0000
0010
0010
0010
0000
1300
1000
0200
0000
0010
0010
,
0010
0000
0301
0001
0200
0000
0010
0010
0010
0000
1300
1000
0200
0000
0301
0010
,
1000
0000
0000
0000
;

//---------------dance-single - ----------------
#NOTEDATA:;
#CHARTNAME:;
#STEPSTYPE:dance-single;
#DESCRIPTION:;
#CHARTSTYLE:;
#DIFFICULTY:Medium;
#METER:7;
#RADARVALUES:0.328922,0.364036,0.155571,0.477084,0.129643,222.000000,207.000000,15.000000,46.000000,0.000000,0.000000,0.000000,0.000000,0.000000,0.328922,0.364036,0.155571,0.477084,0.129643,222.000000,207.000000,15.000000,46.000000,0.000000,0.000000,0.000000,0.000000,0.000000;
#CREDIT:;
#NOTES:
// measure 0
0000
0000
0000
0000
,  // measure 1
0000
0000
0000
0000
,  // measure 2
0000
0000
0000
0000
,  // measure 3
1001
0000
0001
0010
0002
0000
1003
0000
0001
0000
0100
0000
1000
0000
2000
0000
,  // measure 4
3100
0000
0200
0000
0301
0000
0002
0000
0013
0100
0010
0100
0020
0000
0031
0000
,  // measure 5
0001
0000
1000
0010
2000
0000
3001
0000
2001
0000
3100
0000
1002
0000
0013
0000
,  // measure 6
2001
0000
3010
0000
1002
0000
0103
0000
0001
1000
0001
1000
0002
0000
0013
0000
,  // measure 7
1100
0000
0001
0100
0001
0000
0010
0000
0100
0000
0010
0000
1000
0000
1000
0000
,  // measure 8
0010
0000
0010
0000
0001
0000
0001
0000
1000
0010
1000
0010
1000
0000
0001
0000
,  // measure 9
0002
0010
0100
1003
2000
0010
0100
3001
,  // measure 10
0002
0000
0000
0000
0103
0010
0100
0000
1001
0000
0010
0100
0010
0000
0000
0000
,  // measure 11
1000
0100
0010
0001
0100
1000
0001
0010
,  // measure 12
1000
0000
0001
0000
0010
0000
0100
0010
0002
0000
1003
0000
2000
0000
3001
0000
,  // measure 13
0002
0023
0032
2003
3001
0100
0010
1000
,  // measure 14
0100
0000
0001
0000
1000
0000
0010
0000
0001
0000
0100
0000
0010
0000
1000
0001
,  // measure 15
0020
0130
0020
0130
2000
3020
0032
0023
,  // measure 16
1030
0100
1000
0100
0001
0100
0001
0100
,  // measure 17
1000
0000
0010
0000
1000
0000
0010
0000
0001
0000
0010
0000
0001
0000
0010
1000
,  // measure 18
0200
0000
0000
0300
,  // measure 19
0000
0000
0000
0000
1001
0000
0001
0010
0002
0000
0103
0000
0101
0000
1100
0000
,  // measure 20
2000
0000
0010
0000
3002
0000
0010
0000
2003
0000
0100
0000
3001
0100
0001
0100
,  // measure 21
0020
0000
1030
0000
1000
0000
0100
1000
0200
0000
0310
0000
0002
0000
1003
0010
,  // measure 22
2000
0000
3001
0000
0012
0000
0103
0000
2010
0000
3100
0000
0010
0100
0010
0100
,  // measure 23
0020
0000
0130
0000
1001
0000
1000
0010
2000
0000
3100
0000
1100
0000
0101
0000
,  // measure 24
0002
0000
0013
0000
0020
0000
1030
0000
2000
0000
3100
0000
0001
0100
0010
1000
,  // measure 25
0002
1003
2000
0010
0100
3001
0002
0010
,  // measure 26
0100
0000
1003
0000
2000
0000
0010
0000
0100
0000
3001
0000
0001
0000
1000
0001
,  // measure 27
0010
0000
0000
0000
;

//---------------dance-single - ----------------
#NOTEDATA:;
#CHARTNAME:;
#STEPSTYPE:dance-single;
#DESCRIPTION:;
#CHARTSTYLE:;
#DIFFICULTY:Easy;
#METER:3;
#RADARVALUES:0.200020,0.238024,0.176314,0.414856,0.000000,135.000000,118.000000,17.000000,40.000000,0.000000,0.000000,0.000000,0.000000,0.000000,0.200020,0.238024,0.176314,0.414856,0.000000,135.000000,118.000000,17.000000,40.000000,0.000000,0.000000,0.000000,0.000000,0.000000;
#CREDIT:;
#NOTES:
// measure 0
0000
0000
0000
0000
,  // measure 1
0000
0000
0000
0000
,  // measure 2
0000
0000
0000
0000
,  // measure 3
1000
0010
2000
3000
0001
0000
0011
0000
,  // measure 4
1010
0000
1100
0000
0100
0001
0020
0030
,  // measure 5
0001
1000
0002
0003
0200
0300
2020
3030
,  // measure 6
0202
0303
0022
0033
1000
0100
2000
3000
,  // measure 7
0001
0010
0002
0003
1000
0000
1010
0000
,  // measure 8
0011
0000
0101
0000
0100
1000
0010
1000
,  // measure 9
2000
0000
3100
0100
0200
0000
0310
0010
,  // measure 10
0020
0000
0031
0000
1000
0001
1000
0000
,  // measure 11
0001
0100
1000
0010
,  // measure 12
1000
0100
0002
0023
,  // measure 13
0130
1000
0010
0000
1000
0000
0100
0000
,  // measure 14
0001
0010
0001
0100
,  // measure 15
2000
0000
3020
0000
0130
0001
0010
0000
,  // measure 16
0002
0000
0203
0000
,  // measure 17
0320
0000
0000
0000
2030
0000
0000
3001
,  // measure 18
2002
0000
0000
3003
,  // measure 19
0000
0000
1001
0001
0020
0030
0001
0000
,  // measure 20
1000
0010
1000
0010
1000
0010
1000
1000
,  // measure 21
2000
3000
0100
0010
0200
0300
1000
0000
,  // measure 22
2002
3003
2020
3030
0022
0033
0001
0100
,  // measure 23
0002
0003
1001
1000
0020
0030
1001
0000
,  // measure 24
0001
0010
0001
0010
0001
0010
0001
1000
,  // measure 25
0002
0103
0200
0000
0310
0010
0020
0000
,  // measure 26
1030
1000
2000
0000
3001
0001
0001
0000
,  // measure 27
1001
0000
0000
0000
;

//---------------dance-single - ----------------
#NOTEDATA:;
#CHARTNAME:;
#STEPSTYPE:dance-single;
#DESCRIPTION:;
#CHARTSTYLE:;
#DIFFICULTY:Beginner;
#METER:1;
#RADARVALUES:0.094824,0.117197,0.062228,0.186685,0.000000,64.000000,58.000000,6.000000,18.000000,0.000000,0.000000,0.000000,0.000000,0.000000,0.094824,0.117197,0.062228,0.186685,0.000000,64.000000,58.000000,6.000000,18.000000,0.000000,0.000000,0.000000,0.000000,0.000000;
#CREDIT:;
#OFFSET:3.415946;
#BPMS:0.000000=70.000000
;
#STOPS:;
#DELAYS:;
#WARPS:;
#TIMESIGNATURES:0.000000=4=4
;
#TICKCOUNTS:0.000000=4
;
#COMBOS:0.000000=1
;
#SPEEDS:0.000000=1.000000=0.000000=0
;
#SCROLLS:0.000000=1.000000
;
#FAKES:;
#LABELS:0.000000=Song Start
;
#NOTES:
// measure 0
0000
0000
0000
0000
,  // measure 1
0000
0000
0000
0000
,  // measure 2
0000
0000
0000
0000
,  // measure 3
0110
0000
1000
1000
,  // measure 4
1000
1000
2000
3000
,  // measure 5
0001
0000
0100
0000
,  // measure 6
0010
0000
2000
3000
,  // measure 7
0110
0000
0001
0001
,  // measure 8
0001
0001
0002
0003
,  // measure 9
0020
0030
0200
0300
,  // measure 10
0010
0010
0020
0030
,  // measure 11
0001
0000
0100
0000
,  // measure 12
0010
0000
2000
3000
,  // measure 13
1000
1000
1000
0000
,  // measure 14
0100
0000
0010
0000
,  // measure 15
0002
0003
0001
0001
,  // measure 16
0002
0003
0200
0300
,  // measure 17
0020
0030
2000
3000
,  // measure 18
1001
0000
0000
0000
,  // measure 19
0000
0000
0000
0000
,  // measure 20
0000
0000
0110
0000
,  // measure 21
0001
0001
0001
0001
,  // measure 22
0002
0003
1000
0000
,  // measure 23
0100
0000
0010
0000
,  // measure 24
0002
0003
0110
0000
,  // measure 25
1000
1000
1000
1000
,  // measure 26
2000
3000
0020
0030
,  // measure 27
0200
0300
0002
0003
,  // measure 28
0000
1001
0000
0000
;
