#TITLE:DIORAMATIC MOMENT;
#SUBTITLE:;
#ARTIST:TЁЯRA;
#TITLETRANSLIT:;
#SUBTITLETRANSLIT:;
#ARTISTTRANSLIT:;
#GENRE:Hyper J-Pop;
#CREDIT:;
#BANNER:DIORAMATIC MOMENT.png;
#BACKGROUND:DIORAMATIC MOMENT-bg.png;
#LYRICSPATH:;
#CDTITLE:cdtitle.png;
#MUSIC:DIORAMATIC MOMENT.ogg;
#OFFSET:-0.365712;
#SAMPLESTART:56.366711;
#SAMPLELENGTH:15.980003;
#SELECTABLE:YES;
#BPMS:0.000000=150.000000
;
#STOPS:
;
#BGCHANGES:;
#KEYSOUNDS:;
#ATTACKS:;

//---------------dance-single - ----------------
#NOTES:
     dance-single:
     :
     Challenge:
     11:
     0.490646,0.579414,0.372001,0.605583,0.419583,397.000000,354.000000,43.000000,70.000000,32.000000,0.000000,0.490646,0.579414,0.372001,0.605583,0.419583,397.000000,354.000000,43.000000,70.000000,32.000000,0.000000:
// measure 0
0000
0000
0000
0000
,  // measure 1
0000
0000
0000
0000
,  // measure 2
0000
0000
0000
0000
,  // measure 3
0000
0000
0000
0000
,  // measure 4
0000
0000
0000
0000
,  // measure 5
0001
0000
0000
0100
0000
0000
0010
0000
1000
0000
0000
0100
0000
0000
0010
0100
,  // measure 6
0010
0000
0000
0001
0000
0000
1000
0000
0010
0000
0000
0100
0000
0000
0001
0000
,  // measure 7
1002
0000
0000
0000
0013
0000
0001
1000
0001
0000
0000
1000
0000
0000
0001
0000
,  // measure 8
0200
0000
2300
0000
3200
0000
0301
0010
,  // measure 9
0011
0000
0000
0000
1010
0000
0000
0000
1000
0000
0000
0100
0000
0000
0100
0000
,  // measure 10
2002
0000
0000
0000
0000
0000
0000
3003
MMMM
0000
0000
0000
0000
0000
0000
0000
,  // measure 11
1000
0000
0000
1000
0000
0000
0100
0000
0010
0000
0000
0010
0000
0000
0001
0000
,  // measure 12
0100
0000
0000
0010
0000
0000
1000
0000
0100
0000
0000
0000
0100
0000
0010
0000
,  // measure 13
0001
0000
0000
0001
0000
0000
0100
0000
0010
0000
0000
0010
0000
0000
1000
0000
,  // measure 14
0100
0000
0000
0010
0000
0000
0001
0000
0100
0000
0000
0000
0100
0000
0010
0000
,  // measure 15
1000
0000
0000
1000
0000
0000
0001
0000
0010
0000
0000
0010
0000
0000
0001
0000
,  // measure 16
0100
0000
0000
1000
0000
0000
0100
0000
0001
0000
0000
0000
0001
0000
1000
0100
,  // measure 17
1000
0000
0000
0001
0000
0000
0001
0000
0100
0000
0000
0001
0000
0000
0001
0000
,  // measure 18
2000
0000
0000
0000
3100
0000
0010
0000
0002
0000
0000
0000
1003
0000
0001
1000
,  // measure 19
0001
0000
0000
0100
0000
0000
0010
0000
1000
0000
0000
0100
0000
0000
1000
0000
,  // measure 20
0010
0000
0000
0100
0000
0000
0001
0000
0010
0000
0000
0000
1000
0000
0010
0000
,  // measure 21
0002
0000
0000
0000
0103
0000
0010
0000
1000
0000
0000
0100
0000
0000
0001
0000
,  // measure 22
0001
0000
0000
0100
0000
0000
1000
0000
0020
0000
0000
0000
0130
0000
0010
0000
,  // measure 23
0100
0000
0000
0100
0000
0000
0001
0000
1000
0000
0000
1000
0000
0000
0001
0000
,  // measure 24
0010
0000
0000
0100
0000
0000
1000
0000
0010
0000
0000
0100
0000
0000
0001
0000
,  // measure 25
2000
0000
0000
0000
3100
0000
0010
0000
0100
0000
0000
0010
0000
0000
0001
0000
,  // measure 26
0011
1100
0101
1010
,  // measure 27
0001
0000
0000
0011
0000
0000
0001
0000
2000
0000
0000
0000
3010
0000
1000
0000
,  // measure 28
1000
0000
0000
1010
0000
0000
0001
0000
0010
0000
0000
0011
0000
0000
1000
0000
,  // measure 29
0100
0000
0000
0110
0000
0000
0001
0000
0100
0000
0000
0110
0000
0000
1000
0000
,  // measure 30
0200
0000
0000
0000
0310
0000
0001
0000
1000
0000
0000
1000
0000
0000
0001
0000
,  // measure 31
0100
0000
0000
0010
0000
0000
1000
0000
0100
0000
0000
0010
0000
0000
0001
0000
,  // measure 32
0011
1100
1010
0101
,  // measure 33
2002
0000
0000
3003
0000
1001
0110
1001
,  // measure 34
0000
2000
3200
0320
,  // measure 35
0031
0000
0000
0100
0000
0M00
1000
0000
0001
0000
0000
0100
0000
0M00
1000
0001
,  // measure 36
1000
0000
0000
0100
0000
0M00
0001
0000
1000
0000
0000
0100
0000
0M00
0001
0000
,  // measure 37
0002
0000
0000
0000
1003
0000
0010
0100
0020
0000
0000
0000
2030
0000
0000
0000
,  // measure 38
3200
0000
0000
0302
0000
0000
0203
0000
2300
0000
0000
0000
3010
0000
0000
0000
,  // measure 39
1000
0000
0000
0010
0000
00M0
0001
0000
1000
0000
0000
0010
0000
00M0
0001
1000
,  // measure 40
0001
0000
0000
0010
0000
00M0
1000
0000
0001
0000
0000
0010
0000
00M0
1000
0000
,  // measure 41
1001
0000
0000
0000
1000
0000
0001
0100
0001
0000
2000
0000
0000
0000
3100
0000
,  // measure 42
0120
0000
0032
0000
0203
0000
0310
1000
,  // measure 43
1010
0000
0000
0001
0000
0000
0010
0000
0001
0000
0000
1000
0000
0000
0010
0000
,  // measure 44
0220
0000
0000
0000
0330
0000
0000
0010
0100
0000
0001
0000
1000
0000
0100
0000
,  // measure 45
0020
0000
0000
0000
0032
0000
0000
0013
,  // measure 46
0002
0203
0020
0330
,  // measure 47
0020
0000
0000
0000
0030
0000
1000
0010
2000
0000
0000
3100
0000
0000
0010
0000
,  // measure 48
0002
0000
0000
0103
0000
0000
0010
0000
2000
0000
0000
0000
3001
0000
0000
0000
,  // measure 49
1002
0000
0013
0000
2001
0000
3010
1000
,  // measure 50
1100
0011
0101
1000
,  // measure 51
1002
0000
0000
0100
0000
0000
0103
0000
2001
0000
0000
0100
0000
0000
3100
0000
,  // measure 52
0011
0000
0000
0011
0000
0000
0110
0000
2200
0000
0000
0000
0000
3300
MMMM
0000
,  // measure 53
0000
0002
0203
2300
,  // measure 54
3000
2000
3200
0302
,  // measure 55
1003
0000
0000
0010
0000
0MM0
0001
0000
0001
0000
0000
0100
0000
0MM0
1000
0000
,  // measure 56
1000
0000
0000
0100
0000
0MM0
0001
0000
0001
0000
0000
0010
0000
0MM0
1000
0000
,  // measure 57
2000
0000
0000
0000
3001
0000
0100
0010
0200
0000
0000
0000
0302
0000
0000
0000
,  // measure 58
0023
0000
0000
2030
0000
0000
3020
0000
0032
0000
0000
0000
0103
0000
0000
0000
,  // measure 59
0001
0000
0000
0010
0000
0MM0
1000
0000
1000
0000
0000
0100
0000
0MM0
0001
1000
,  // measure 60
0001
0000
0000
0100
0000
0MM0
1000
0000
1000
0000
0000
0010
0000
0MM0
0001
0000
,  // measure 61
1001
0000
0000
0000
0001
0000
1000
0010
1000
0000
0000
0001
0000
0000
0010
0000
,  // measure 62
0200
0000
2300
0000
3020
0000
0130
0001
,  // measure 63
1002
0000
0000
0000
0103
0000
0010
0100
0010
0000
0000
1000
0000
0000
0001
0000
,  // measure 64
0010
0000
0000
1000
0000
0000
0010
0000
0002
0000
0000
0000
0103
0000
0000
0000
,  // measure 65
0220
0000
0000
0000
0330
0000
0010
0100
0010
0000
0000
0010
0000
0000
0010
0000
,  // measure 66
2000
0000
3002
0000
0023
0000
0030
0100
,  // measure 67
0110
0000
0000
0000
1000
0000
0000
0000
0110
0000
0000
0001
0000
0000
0001
0000
,  // measure 68
1001
0000
0000
0000
1001
0000
0000
0001
0100
0000
1000
0000
0001
0000
0010
0000
,  // measure 69
2000
0000
0000
0000
,  // measure 70
0000
0000
3000
0000
;

//---------------dance-single - ----------------
#NOTES:
     dance-single:
     :
     Hard:
     10:
     0.441211,0.518423,0.320094,0.614235,0.246559,357.000000,320.000000,37.000000,71.000000,0.000000,0.000000,0.441211,0.518423,0.320094,0.614235,0.246559,357.000000,320.000000,37.000000,71.000000,0.000000,0.000000:
// measure 0
0000
0000
0000
0000
,  // measure 1
0000
0000
0000
0000
,  // measure 2
0000
0000
0000
0000
,  // measure 3
0000
0000
0000
0000
,  // measure 4
0000
0000
0000
0000
,  // measure 5
0001
0000
0010
0001
0100
0000
0010
1000
,  // measure 6
0100
0000
0010
0100
1000
0000
0010
0100
,  // measure 7
0002
0000
0003
0010
0001
0000
0100
0000
,  // measure 8
2001
0000
3020
0000
2030
0000
3000
0100
,  // measure 9
0110
0001
0110
1000
,  // measure 10
2002
0000
3003
0000
,  // measure 11
1000
0000
0000
1000
0000
0000
1000
0000
0100
0000
0000
0100
0000
0000
0100
0000
,  // measure 12
0010
0000
0000
0001
0000
0000
0100
0000
0020
0000
0000
0000
0030
0000
1000
0000
,  // measure 13
0001
0000
0000
0001
0000
0000
0001
0000
0100
0000
0000
0100
0000
0000
0100
0000
,  // measure 14
0010
0000
0000
1000
0000
0000
0100
0000
0020
0000
0000
0000
0030
0000
0001
0000
,  // measure 15
1000
0000
0000
1000
0000
0000
1000
0000
0010
0000
0000
0010
0000
0000
0010
0000
,  // measure 16
1000
0000
0000
0100
0000
0000
0010
0000
0002
0000
0000
0000
0003
0000
1000
0000
,  // measure 17
0010
0000
0000
0010
0000
0000
0010
0000
0100
0000
0000
0100
0000
0000
0010
0000
,  // measure 18
2000
0000
3000
0100
0020
0000
0030
0001
,  // measure 19
1000
0000
0000
1000
0000
0000
0010
0000
0100
0000
0000
0100
0000
0000
0010
0000
,  // measure 20
1000
0000
0000
0001
0000
0000
0010
0000
0200
0000
0000
0000
0310
0000
0001
0000
,  // measure 21
0200
0000
0000
0000
0300
0000
0010
0000
1000
0000
0000
1000
0000
0000
0100
0000
,  // measure 22
0001
0000
0000
0001
0000
0000
0100
0000
2000
0000
0000
0000
3000
0000
0001
0000
,  // measure 23
1000
0000
0000
1000
0000
0000
0001
0000
0100
0000
0000
0100
0000
0000
0010
0000
,  // measure 24
1000
0000
0000
0001
0000
0000
0100
0000
0001
0000
0000
1000
0000
0000
0100
0000
,  // measure 25
2000
0000
0000
0000
3000
0000
0100
0000
0010
0000
0000
0100
0000
0000
0010
0000
,  // measure 26
0002
0203
2300
3020
,  // measure 27
0031
0000
0000
0100
0000
0000
0001
0000
0200
0000
0000
0000
0310
0000
1000
0000
,  // measure 28
0100
0000
0000
1000
0000
0000
0100
0000
0001
0000
0000
0100
0000
0000
1000
0000
,  // measure 29
0001
0000
0000
0001
0000
0000
0001
0000
1000
0000
0000
1000
0000
0000
1000
0000
,  // measure 30
0002
0000
0000
0000
1003
0000
0000
0000
0010
0000
0000
0010
0000
0000
1000
0000
,  // measure 31
0100
0000
0000
0010
0000
0000
0010
0000
0001
0000
0000
0100
0000
0000
0100
0000
,  // measure 32
0010
0101
1010
1100
,  // measure 33
0022
0000
0000
0033
0000
1000
0100
0001
,  // measure 34
0000
0002
0203
2300
,  // measure 35
3010
0000
0000
1010
0000
0000
0001
0000
0010
0000
0000
0011
0000
0000
1000
0000
,  // measure 36
0010
0000
0000
1010
0000
0000
0001
0000
0010
0000
0000
0011
0000
0000
0100
0000
,  // measure 37
2000
0000
3001
0100
0020
0000
0032
0000
,  // measure 38
0013
0000
0000
0100
0000
0000
0010
0000
2000
0000
0000
0000
3001
0000
0000
0000
,  // measure 39
0100
0000
0000
0101
0000
0000
1000
0000
0100
0000
0000
1100
0000
0000
0001
0000
,  // measure 40
0100
0000
0000
0101
0000
0000
1000
0000
0100
0000
0000
1100
0000
0000
0010
0000
,  // measure 41
0002
0000
0103
0010
1000
0200
0000
0001
,  // measure 42
0302
0000
0203
0000
2300
0000
3001
0100
,  // measure 43
0010
0000
0000
1000
0000
0000
0001
0000
0010
0000
0000
0001
0000
0000
1000
0000
,  // measure 44
2002
0000
3003
0000
1000
0100
0010
0001
,  // measure 45
0200
0000
0000
0000
0302
0000
0000
0013
,  // measure 46
0002
0203
0020
0330
,  // measure 47
2000
0000
0000
0000
0000
0000
0100
0000
3100
0000
0000
0010
0000
0000
0100
0000
,  // measure 48
1000
0000
0000
0001
0000
0000
1000
0000
0001
0000
0000
0000
1001
0000
0000
0000
,  // measure 49
2010
0000
3001
0000
0012
0000
0103
0010
,  // measure 50
1000
1100
0012
1003
,  // measure 51
0001
0000
0000
0001
0000
0000
0100
0000
1000
0000
0000
1000
0000
0000
0100
0000
,  // measure 52
0001
0000
0000
0001
0000
0000
0001
0000
0220
0000
0000
0000
0000
0000
0330
0000
,  // measure 53
0000
2000
3020
0230
,  // measure 54
0300
0002
0023
0230
,  // measure 55
0310
0000
0000
0011
0000
0000
0001
0000
0100
0000
0000
0101
0000
0000
1000
0000
,  // measure 56
0100
0000
0000
1100
0000
0000
1000
0000
0010
0000
0000
1010
0000
0000
0100
0000
,  // measure 57
0002
0000
1003
0100
0020
0000
2030
0000
,  // measure 58
3010
0000
0000
0100
0000
0000
0010
0000
0002
0000
0000
0000
1003
0000
0000
0000
,  // measure 59
0100
0000
0000
1100
0000
0000
1000
0000
0010
0000
0000
1010
0000
0000
0001
0000
,  // measure 60
0010
0000
0000
0011
0000
0000
0001
0000
0100
0000
0000
0101
0000
0000
0010
0000
,  // measure 61
2000
0000
0000
0000
3100
0000
0010
0000
0001
0000
0000
0100
0000
0000
1000
0000
,  // measure 62
2000
3200
0302
0013
,  // measure 63
0012
0000
0000
0000
1003
0000
0010
0000
1000
0000
0000
0100
0000
0000
0001
0000
,  // measure 64
0001
0000
0000
0100
0000
0000
1000
0000
2000
0000
0000
0000
3001
0000
0000
0000
,  // measure 65
2002
3003
0200
0300
,  // measure 66
0002
0000
2003
0000
3002
0000
0003
1000
,  // measure 67
1010
0001
0011
1000
,  // measure 68
1001
0000
1001
0000
1000
0010
0001
0100
,  // measure 69
2000
0000
0000
0000
,  // measure 70
0000
0000
3000
0000
;

//---------------dance-single - ----------------
#NOTES:
     dance-single:
     :
     Medium:
     7:
     0.369529,0.457432,0.268187,0.467164,0.000000,299.000000,268.000000,31.000000,54.000000,0.000000,0.000000,0.369529,0.457432,0.268187,0.467164,0.000000,299.000000,268.000000,31.000000,54.000000,0.000000,0.000000:
// measure 0
0000
0000
0000
0000
,  // measure 1
0000
0000
0000
0000
,  // measure 2
0000
0000
0000
0000
,  // measure 3
0000
0000
0000
0000
,  // measure 4
0000
0000
0000
0000
,  // measure 5
1000
0000
0001
0010
0001
0000
1000
0010
,  // measure 6
1000
0000
0001
0010
0001
0000
0100
0000
,  // measure 7
2002
3003
0001
0010
,  // measure 8
1000
0010
0002
0003
,  // measure 9
1001
0100
1001
0010
,  // measure 10
2002
0000
3003
0000
,  // measure 11
1000
1000
0100
0100
,  // measure 12
0010
0000
0100
1000
0002
0000
0003
1000
,  // measure 13
0001
0001
0100
0100
,  // measure 14
0010
0000
0100
0001
2000
0000
3000
0001
,  // measure 15
1000
1000
0001
0001
,  // measure 16
0010
0000
0100
0010
0002
0000
0003
0100
,  // measure 17
0001
0001
1000
1000
,  // measure 18
0020
0000
0000
0100
0130
0000
0000
0010
,  // measure 19
1000
1000
0001
0001
,  // measure 20
1000
0000
0100
0010
0100
0000
1000
0001
,  // measure 21
0200
0000
0300
0010
0100
0000
0100
0000
,  // measure 22
0001
0000
1000
0100
0020
0000
0030
0100
,  // measure 23
1000
1000
0001
0001
,  // measure 24
0100
0000
0010
1000
0001
0000
0010
0001
,  // measure 25
2000
0000
3000
0001
1000
0000
0100
0000
,  // measure 26
0011
0011
1100
1100
,  // measure 27
0001
0000
0100
0001
0200
0000
0301
0000
,  // measure 28
1000
0000
0100
1000
0200
0000
0310
0000
,  // measure 29
0001
0000
1000
0100
1000
0000
0001
0100
,  // measure 30
0002
0003
0010
0001
,  // measure 31
1000
1000
0010
0010
,  // measure 32
0001
0001
0100
0100
,  // measure 33
2000
0000
0000
0000
0000
0001
0001
3001
,  // measure 34
0000
1001
1001
1001
,  // measure 35
1000
0000
0001
0010
0001
0000
1000
0010
,  // measure 36
1000
0000
0001
0010
0001
0000
1000
0010
,  // measure 37
2000
0000
3000
0001
0010
0000
0100
0000
,  // measure 38
1000
0000
0010
0100
0002
0000
0003
0000
,  // measure 39
1001
0000
1000
0100
1000
0000
0001
0100
,  // measure 40
0001
0000
1000
0100
1000
0000
0001
0100
,  // measure 41
0002
0000
0003
1000
0100
0000
0010
0000
,  // measure 42
0011
1001
0202
0303
,  // measure 43
1000
0010
0001
0010
,  // measure 44
2020
0000
3030
0000
,  // measure 45
2000
0000
3200
0000
,  // measure 46
0301
0100
2000
3000
,  // measure 47
0002
0000
0103
1000
,  // measure 48
0100
0001
0010
0100
,  // measure 49
2000
3010
0002
0013
,  // measure 50
2000
3200
0320
0031
,  // measure 51
0101
0010
1100
0010
,  // measure 52
1001
0000
0110
0000
2002
0000
0000
3003
,  // measure 53
0000
2000
3200
0302
,  // measure 54
0003
0002
0023
2030
,  // measure 55
3001
0000
0010
0100
1000
0000
0010
0100
,  // measure 56
0001
0000
0010
0100
1000
0000
0010
0100
,  // measure 57
0002
0000
0003
0010
0100
0000
1000
0000
,  // measure 58
0001
0000
0100
0010
0200
0000
0300
0000
,  // measure 59
0001
0000
0010
0001
0100
0000
0010
1000
,  // measure 60
0100
0000
0010
0001
0100
0000
0010
1000
,  // measure 61
0200
0000
0300
0010
0100
0000
1000
0000
,  // measure 62
1010
1001
2200
3300
,  // measure 63
0012
0000
0003
0100
0010
0000
1000
0000
,  // measure 64
1001
0000
0001
1000
0002
0000
0003
0000
,  // measure 65
2002
3003
2000
3000
,  // measure 66
0200
0320
0032
0003
,  // measure 67
1001
0100
1001
0010
,  // measure 68
1001
0000
1001
0000
1000
0100
0010
0001
,  // measure 69
2000
0000
0000
0000
,  // measure 70
0000
0000
3000
0000
;

//---------------dance-single - ----------------
#NOTES:
     dance-single:
     :
     Easy:
     5:
     0.281782,0.396441,0.112466,0.449862,0.000000,228.000000,215.000000,13.000000,52.000000,0.000000,0.000000,0.281782,0.396441,0.112466,0.449862,0.000000,228.000000,215.000000,13.000000,52.000000,0.000000,0.000000:
// measure 0
0000
0000
0000
0000
,  // measure 1
0000
0000
0000
0000
,  // measure 2
0000
0000
0000
0000
,  // measure 3
0000
0000
0000
0000
,  // measure 4
0000
0000
0000
0000
,  // measure 5
1000
1000
0100
0100
,  // measure 6
0010
0010
0001
0100
,  // measure 7
2002
3003
0001
0100
,  // measure 8
0010
1000
0200
0300
,  // measure 9
1000
0100
0001
0010
,  // measure 10
2000
0000
3000
0000
,  // measure 11
1000
0100
1000
0100
,  // measure 12
0010
0001
2000
3000
,  // measure 13
0001
0100
0001
0100
,  // measure 14
0010
1000
0002
0003
,  // measure 15
1000
0010
1000
0001
,  // measure 16
0010
0001
2000
3000
,  // measure 17
0001
0100
0001
1000
,  // measure 18
0200
0000
0310
0000
,  // measure 19
0001
0001
0100
0100
,  // measure 20
1000
0100
0001
0010
,  // measure 21
0200
0300
1000
1000
,  // measure 22
0100
0001
0200
0300
,  // measure 23
1000
1000
0010
0010
,  // measure 24
0100
0001
1000
0100
,  // measure 25
0020
0030
0010
0010
,  // measure 26
0100
1000
0001
0100
,  // measure 27
0010
0010
0020
0030
,  // measure 28
0010
1000
0001
0010
,  // measure 29
0100
0100
0010
0010
,  // measure 30
0200
0300
1000
0001
,  // measure 31
0100
0100
0010
0010
,  // measure 32
1000
0001
1000
0001
,  // measure 33
2002
0000
3003
0110
,  // measure 34
0000
0001
0001
0001
,  // measure 35
1000
0010
0001
0010
,  // measure 36
1000
0010
0001
0010
,  // measure 37
2000
3000
1000
0100
,  // measure 38
0010
0001
0200
0300
,  // measure 39
0001
0100
1000
0100
,  // measure 40
0001
0100
1000
0100
,  // measure 41
0002
0003
0001
0010
,  // measure 42
1000
0010
0002
0003
,  // measure 43
1000
0010
0100
0001
,  // measure 44
2002
0000
3003
0000
,  // measure 45
2000
0000
3200
0000
,  // measure 46
0310
0010
0020
0000
,  // measure 47
0032
0000
0103
0100
,  // measure 48
0010
0010
1000
0001
,  // measure 49
0020
0130
0200
0310
,  // measure 50
0002
2003
3002
1003
,  // measure 51
0010
0010
0100
0100
,  // measure 52
1001
0000
1001
0000
2002
0000
0000
3003
,  // measure 53
0000
2000
3200
0320
,  // measure 54
0030
0002
0203
0320
,  // measure 55
1030
0100
0001
0010
,  // measure 56
0001
0100
1000
0010
,  // measure 57
2000
3000
1000
0100
,  // measure 58
0010
0001
2000
3000
,  // measure 59
0001
0100
1000
0010
,  // measure 60
1000
0100
0001
0010
,  // measure 61
0002
0003
1000
0010
,  // measure 62
0001
0010
2000
3000
,  // measure 63
2002
3003
0001
0010
,  // measure 64
1000
0010
0002
0003
,  // measure 65
2002
0000
3003
0000
,  // measure 66
0002
2003
3002
0003
,  // measure 67
0001
0100
1000
0010
,  // measure 68
0001
0101
1001
1100
,  // measure 69
0220
0000
0000
0000
,  // measure 70
0000
0000
0330
0000
;

//---------------dance-single - ----------------
#NOTES:
     dance-single:
     :
     Beginner:
     3:
     0.169316,0.213468,0.025954,0.112466,0.000000,137.000000,134.000000,3.000000,13.000000,0.000000,0.000000,0.169316,0.213468,0.025954,0.112466,0.000000,137.000000,134.000000,3.000000,13.000000,0.000000,0.000000:
// measure 0
0000
0000
0000
0000
,  // measure 1
0000
0000
0000
0000
,  // measure 2
0000
0000
0000
0000
,  // measure 3
0000
0000
0000
0000
,  // measure 4
0000
0000
0000
0000
,  // measure 5
1000
0000
1000
0000
,  // measure 6
0001
0000
0001
0000
,  // measure 7
0100
0000
0010
0000
,  // measure 8
1000
1000
1000
0000
,  // measure 9
0100
0000
0100
0000
,  // measure 10
2002
0000
3003
0000
,  // measure 11
1000
0000
1000
0000
,  // measure 12
0100
0000
1000
0000
,  // measure 13
0001
0000
0001
0000
,  // measure 14
0100
0000
0001
0000
,  // measure 15
1000
0000
1000
0000
,  // measure 16
0100
0000
0010
0000
,  // measure 17
0001
0000
0001
0000
,  // measure 18
0200
0000
0300
0000
,  // measure 19
0001
0000
0001
0000
,  // measure 20
1000
0000
1000
0000
,  // measure 21
0100
0000
0010
0000
,  // measure 22
0100
0000
0100
0000
,  // measure 23
1000
0000
1000
0000
,  // measure 24
0001
0000
0001
0000
,  // measure 25
0100
0000
0010
0000
,  // measure 26
0010
0010
0010
0000
,  // measure 27
1000
0000
1000
0000
,  // measure 28
0001
0000
0001
0000
,  // measure 29
1000
0000
0100
0000
,  // measure 30
0010
0000
0001
0000
,  // measure 31
0100
0000
0100
0000
,  // measure 32
0010
0000
0010
0000
,  // measure 33
0020
0000
0030
0010
,  // measure 34
0000
0010
0010
0010
,  // measure 35
0010
0000
1000
0000
,  // measure 36
0100
0000
1000
0000
,  // measure 37
0010
0000
1000
0000
,  // measure 38
0001
0001
0001
0000
,  // measure 39
0010
0000
0001
0000
,  // measure 40
0100
0000
0001
0000
,  // measure 41
0010
0000
0001
0000
,  // measure 42
1000
1000
1000
0000
,  // measure 43
0010
0000
0010
0000
,  // measure 44
2002
0000
3003
0000
,  // measure 45
2000
0000
3000
0000
,  // measure 46
0200
0000
0300
0000
,  // measure 47
0020
0000
0030
0000
,  // measure 48
0001
0000
0001
0000
,  // measure 49
1000
0000
1000
0000
,  // measure 50
0010
0010
0010
0000
,  // measure 51
0100
0000
0100
0000
,  // measure 52
0001
0000
0001
0000
0002
0000
0000
0003
,  // measure 53
0000
1000
1000
1000
,  // measure 54
0000
0001
0001
0001
,  // measure 55
0001
0000
0010
0000
,  // measure 56
1000
0000
0010
0000
,  // measure 57
0001
0000
0100
0000
,  // measure 58
0010
0010
0010
0000
,  // measure 59
1000
0000
0010
0000
,  // measure 60
0001
0000
0010
0000
,  // measure 61
1000
0000
0100
0000
,  // measure 62
0010
0010
0010
0000
,  // measure 63
0001
0000
0100
0000
,  // measure 64
0010
0010
0010
0000
,  // measure 65
2002
0000
3003
0000
,  // measure 66
0000
0000
0000
0000
,  // measure 67
1000
0000
0001
0000
,  // measure 68
0010
0010
0010
0010
,  // measure 69
0020
0000
0000
0000
,  // measure 70
0000
0000
0030
0000
;
