#TITLE:Color Pulse;
#SUBTITLE:;
#ARTIST:Off the Hook;
#TITLETRANSLIT:;
#SUBTITLETRANSLIT:;
#ARTISTTRANSLIT:;
#GENRE:Squidtronica;
#CREDIT:;
#BANNER:Color Pulse.png;
#BACKGROUND:Color Pulse-bg.png;
#LYRICSPATH:;
#CDTITLE:cdtitle.png;
#MUSIC:Color Pulse.ogg;
#OFFSET:-0.492144;
#SAMPLESTART:16.231850;
#SAMPLELENGTH:15.737705;
#SELECTABLE:YES;
#BPMS:0.000000=122.000000
;
#STOPS:
;
#BGCHANGES:;
#KEYSOUNDS:;
#ATTACKS:;

//---------------dance-single - ----------------
#NOTES:
     dance-single:
     :
     Challenge:
     13:
     0.586034,0.716860,0.508320,0.267537,0.374552,460.000000,403.000000,57.000000,30.000000,21.000000,0.000000,0.586034,0.716860,0.508320,0.267537,0.374552,460.000000,403.000000,57.000000,30.000000,21.000000,0.000000:
// measure 0
0000
0000
0000
0000
,  // measure 1
0000
0000
0000
0000
,  // measure 2
0000
0000
0000
0000
,  // measure 3
0000
0000
0000
0000
,  // measure 4
1001
0000
0000
0000
0000
0000
0000
0000
0000
0000
0000
0000
0000
0000
0000
0000
0010
0000
0000
0000
0000
0000
0000
0000
0000
0000
0000
0000
0000
0000
0000
0000
0000
0000
0000
0000
0000
0000
0000
0000
1002
0000
0000
0000
0000
0000
0000
0000
0100
0000
0000
0000
0000
0000
0000
0000
0000
0000
0000
0000
0000
0000
0000
0003
,  // measure 5
1001
0000
0000
0000
0000
0000
0000
0000
0000
0000
0000
0000
0000
0000
0000
0000
0010
0000
0000
0000
0000
0000
0000
0000
0000
0000
0000
0000
0000
0000
0000
0000
0000
0000
0000
0000
0000
0000
0000
0000
2001
0000
0000
0000
0000
0000
0000
0000
0100
0000
0000
0000
0000
0000
0000
0000
0000
0000
0000
0000
0000
0000
0000
3000
,  // measure 6
1001
0000
0000
0000
0000
0000
0000
0000
0000
0000
0000
0000
0000
0000
0000
0000
0010
0000
0000
0000
0000
0000
0000
0000
0000
0000
0000
0000
0000
0000
0000
0000
0000
0000
0000
0000
0000
0000
0000
0000
1002
0000
0000
0000
0000
0000
0000
0000
0100
0000
0000
0000
0000
0000
0000
0003
1001
0000
0000
0000
0000
0000
0000
0000
,  // measure 7
0000
1100
0000
0000
0022
0000
0000
0033
0000
0000
0010
0001
0100
0000
0010
0000
,  // measure 8
1010
0000
0011
0000
1000
0010
0001
0010
,  // measure 9
1000
0100
0001
0100
1000
0010
0200
0000
,  // measure 10
0001
0000
0000
0000
0310
1000
0010
0000
1000
0000
0200
0000
0000
0000
0310
0000
,  // measure 11
0001
0000
1000
0010
1000
0010
1000
0010
0100
0000
0010
1000
0100
0000
0010
0000
,  // measure 12
0011
0000
1010
0000
0001
0010
2000
0000
,  // measure 13
3010
0001
0100
1000
0001
0010
2000
0000
,  // measure 14
0001
0000
0000
0000
0000
0000
0000
0000
0000
0000
0000
0000
0000
0000
0000
0000
3100
0000
0000
0000
0000
0000
0000
0000
0010
0000
0000
0000
0000
0000
0000
0000
0001
0000
0000
0000
0000
0000
0000
0000
0200
0000
0000
0000
0000
0000
0000
0000
0010
0000
0000
0000
0000
0000
0000
0300
0101
0000
0000
0000
0000
0000
0000
0000
,  // measure 15
0000
0110
0000
0000
2020
0000
0000
3030
0000
0000
1000
0001
1000
0001
1000
0000
,  // measure 16
0100
0000
0010
0000
0000
0000
0001
0000
0100
0000
0100
0010
1000
0000
0000
0000
,  // measure 17
0001
0100
0001
0100
0001
0000
1000
0000
0100
0010
0100
0010
0001
0000
0000
0000
,  // measure 18
1000
0000
0010
0000
0001
0000
0010
0000
1000
0000
0100
0010
0100
0000
2000
0000
,  // measure 19
0000
0000
0000
0000
3002
0000
0000
0000
0000
0000
0000
0000
0000
0000
0000
0003
0201
0000
0000
0000
0000
0000
0000
0000
0000
0000
0000
0000
0300
0000
0000
0000
0010
0000
0000
0000
0000
0000
0000
0000
1000
0000
0000
0000
0001
0000
0000
0000
1000
0000
0000
0000
0000
0000
0000
0000
0100
0000
0000
0000
0000
0000
0000
0000
,  // measure 20
0010
0000
0000
0000
0001
0000
1000
0000
0010
0100
0010
0000
1000
0000
0001
0000
,  // measure 21
0000
0000
0010
0100
0010
0100
0010
0100
1000
0000
0010
0100
0001
0000
0000
0000
,  // measure 22
1000
0000
0001
0010
0001
0000
4000
0000
3001
0100
0001
0100
0001
0000
1100
0000
,  // measure 23
0000
0101
0000
0000
1100
0000
0000
0000
0001
0000
0010
0001
0100
0000
0010
0000
,  // measure 24
1000
0000
0100
0000
0001
0000
0100
0000
1000
0010
1000
0010
0100
0000
0000
0000
,  // measure 25
0001
1000
0001
1000
0001
0000
1000
0000
0001
0010
0001
0010
0100
0000
0000
0000
,  // measure 26
1000
0010
1000
0000
0001
0000
1000
0100
1000
0100
1000
0001
0000
0100
0001
0100
,  // measure 27
0001
0000
1000
0010
0000
0001
0010
0000
1000
0000
0010
1000
0100
0000
0010
0000
,  // measure 28
0001
0000
0100
0000
1000
0000
0100
0000
0001
0010
0001
0010
0100
0000
0000
0000
,  // measure 29
1000
0001
1000
0001
1000
0000
0001
0000
1000
0010
1000
0010
0100
0000
0001
0010
,  // measure 30
0001
0010
0001
0000
1000
0000
0001
0100
0000
0010
1000
0000
0100
0000
1100
0000
,  // measure 31
0000
0110
0000
0000
0012
0000
0000
0000
1003
0000
0000
1000
0010
0000
0100
0000
,  // measure 32
0201
0000
0000
0301
1000
0000
0001
0000
0020
0000
0000
0000
0031
0000
0000
0000
,  // measure 33
1000
0000
1010
0000
0001
0000
0011
0000
1000
0000
0100
M0MM
0100
0000
0001
0000
,  // measure 34
0012
0000
0000
1003
0010
0000
1000
0000
0100
0000
0100
0000
1000
0000
0000
0000
,  // measure 35
0001
0000
0101
0000
1000
0000
1100
0000
0001
0000
0010
MM0M
0010
0000
1000
0000
,  // measure 36
0200
0000
0000
0010
0000
0000
1000
0000
0000
0010
0000
0000
1300
0000
0000
0000
,  // measure 37
1010
0000
0000
0000
0101
0000
0000
0000
0001
0000
0010
MM0M
0010
0000
1000
0000
,  // measure 38
0100
1001
0100
1001
0010
1001
0010
1001
,  // measure 39
0001
0000
0011
0000
1000
0000
1010
0000
0001
0000
0100
M0MM
0100
0000
1000
0000
,  // measure 40
1200
0000
0000
1300
0001
0000
1000
0000
0020
0000
0000
0000
1030
0000
0000
0000
,  // measure 41
0001
0000
0011
0000
1000
0000
1010
0000
0001
0000
0100
M0MM
0100
0000
1000
0000
,  // measure 42
2010
0000
0000
3001
0010
0000
0001
0000
0100
0000
0100
0000
0001
0000
0000
0000
,  // measure 43
1000
0000
1100
0000
0001
0000
0101
0000
1000
0000
0010
MM0M
0010
0000
0001
0000
,  // measure 44
0100
0000
0000
1001
0000
0000
1100
0000
0000
1001
0000
0000
0101
0000
0000
0000
,  // measure 45
0001
0000
0010
0000
1000
0000
0010
0000
0001
0000
0100
M0MM
0100
0000
1000
0000
,  // measure 46
0001
0101
1000
1100
0001
0011
1000
1010
,  // measure 47
0010
0100
0001
1000
0001
1000
0100
0010
0100
0010
0001
1000
0010
0100
0010
0100
,  // measure 48
0001
0000
1010
0000
0001
0010
1000
0010
,  // measure 49
0001
0100
1000
0100
0001
0010
0200
0000
,  // measure 50
1000
0000
0000
0000
0310
0001
0010
0000
0001
0000
0200
0000
0000
0000
0310
0000
,  // measure 51
1000
0000
0001
0010
0001
0010
0001
0010
0100
0000
0010
0001
0100
0000
0010
0000
,  // measure 52
1010
0000
0011
0000
1000
0010
0002
0000
,  // measure 53
0013
1000
0100
0001
1000
0010
0002
0000
,  // measure 54
1000
0000
0000
0000
0000
0000
0000
0000
0000
0000
0000
0000
0000
0000
0000
0000
0103
0000
0000
0000
0000
0000
0000
0000
0010
0000
0000
0000
0000
0000
0000
0000
1000
0000
0000
0000
0000
0000
0000
0000
0200
0000
0000
0000
0000
0000
0000
0000
0010
0000
0000
0000
0000
0000
0000
0300
1100
0000
0000
0000
0000
0000
0000
0000
,  // measure 55
0000
0110
0000
0000
0022
0000
0000
0033
0000
0000
0000
0000
0000
0000
0000
0000
;

//---------------dance-single - ----------------
#NOTES:
     dance-single:
     :
     Hard:
     10:
     0.431881,0.444948,0.240783,0.321044,0.062425,339.000000,312.000000,27.000000,36.000000,0.000000,0.000000,0.431881,0.444948,0.240783,0.321044,0.062425,339.000000,312.000000,27.000000,36.000000,0.000000,0.000000:
0000
0000
0000
0000
,
0000
0000
0000
0000
,
0000
0000
0000
0000
,
0000
0000
0000
0000
,
1002
0000
0103
0000
0000
1020
0000
0000
,
2030
0000
3001
0000
0000
0021
0000
0000
,
0032
0000
1003
0000
0000
2001
0000
3100
,
0000
0100
0000
0000
2002
0000
0000
3003
0000
0000
0000
0000
0000
0000
0000
0000
,
1010
0000
0011
0000
1000
0010
1000
0010
,
0100
0001
1000
0100
0010
0001
0200
0000
,
0010
0000
1300
0100
0001
0000
1000
0000
,
0001
0010
0100
1000
0010
0100
0001
0000
,
0011
0000
1010
0000
0001
0010
0002
0000
,
1003
0010
0001
0010
0001
0010
2000
0000
,
0100
0000
3001
0100
0010
2000
0000
3001
,
0000
0011
0000
0000
2200
0000
0000
3300
0000
0000
1000
0000
0100
0000
0010
0000
,
0001
1000
0000
1000
0010
0100
0001
0000
,
0010
0100
0010
0100
1000
0001
0100
0000
,
0010
0100
0010
0100
0001
1000
0100
0020
,
0000
0032
0000
0000
2003
0000
0000
3000
0001
0000
0100
0000
0010
0000
1000
0000
,
0001
0000
1000
0100
0001
0100
1000
0001
,
0000
1000
0010
0001
0010
1000
0001
0000
,
0010
0010
0100
0000
1000
1000
0001
0100
,
0000
0100
0000
0000
0100
0000
0000
0000
0010
0000
1000
0000
0100
0000
0000
0000
,
1000
0100
1000
0100
0001
0100
0010
0000
,
0001
0100
0001
0100
1000
0100
0010
0000
,
1000
0010
0100
0001
0010
0100
1000
0010
,
0100
0000
0000
0100
0000
0000
0100
0000
0001
0000
0001
0000
1000
0000
0000
0000
,
0001
0010
0001
0010
1000
0010
0100
0000
,
1000
0010
1000
0010
0001
0010
0100
0010
,
1000
0000
0001
0000
0010
0000
0100
0000
0000
0100
0000
0000
0010
0000
0001
0000
,
0000
0101
0000
0000
2020
0000
0000
3030
0000
0000
0000
0000
0001
0000
0100
0000
,
0010
0000
0000
0010
1000
0000
0001
0000
0010
0000
0000
0000
0100
0000
0000
0000
,
0010
0002
1003
0002
0103
0001
0001
0000
,
0100
0000
0000
0100
0001
0000
1000
0000
0100
0000
0010
0000
0100
0000
0000
0000
,
0100
2000
3001
2000
3010
1000
1000
0000
,
1002
0010
1000
0103
,
0002
0000
0023
0000
1030
0100
0001
0010
,
0000
1100
0000
1001
0000
0101
0000
0110
,
0000
1010
0000
1001
0000
1000
0001
0000
,
0010
0000
0000
0010
0001
0000
1000
0000
0010
0000
0000
0000
0100
0000
0000
0000
,
0010
2000
3001
2000
3100
1000
1000
0000
,
0100
0000
0000
0100
1000
0000
0001
0000
0100
0000
0010
0000
0100
0000
0000
0000
,
0100
0002
1003
0002
0013
0001
0001
1000
,
0010
0000
0000
0100
0000
0000
0010
0000
0000
0100
0000
0000
0001
0000
0000
0000
,
1000
0100
1000
0100
0010
0001
0010
0001
,
1000
0010
0100
0001
1000
0100
0010
0001
,
0100
1000
0100
0001
1000
0100
0110
0000
,
0011
0000
1010
0000
0001
0010
0001
0010
,
0100
1000
0001
0100
0010
1000
0200
0000
,
0010
0000
0301
0100
1000
0000
0001
0000
,
1000
0010
0100
0001
0010
0100
1000
0000
,
1010
0000
0011
0000
1000
0010
2000
0000
,
3001
0010
1000
0010
1000
0010
0002
0000
,
0100
0000
1003
0100
0010
0002
0000
1003
,
0000
1010
0000
0000
0202
0000
0000
0303
0000
0000
0000
0000
0000
0000
0000
0000
;

//---------------dance-single - ----------------
#NOTES:
     dance-single:
     :
     Medium:
     8:
     0.337606,0.346460,0.160522,0.267537,0.022295,265.000000,247.000000,18.000000,30.000000,0.000000,0.000000,0.337606,0.346460,0.160522,0.267537,0.022295,265.000000,247.000000,18.000000,30.000000,0.000000,0.000000:
0000
0000
0000
0000
,
0000
0000
0000
0000
,
0000
0000
0000
0000
,
0000
0000
0000
0000
,
1100
0000
0001
0000
0000
0101
0000
0000
,
0101
0000
1000
0000
0000
1010
0000
0000
,
1010
0000
0001
0000
0000
0011
0000
1000
,
0000
1000
0000
0000
2000
0000
0000
0000
3000
0000
0000
0000
0000
0000
0000
0000
,
2000
0000
3020
0000
0031
0100
1000
0000
,
0001
0000
0100
0000
0010
1000
0200
0000
,
0000
0000
0310
0001
1000
0000
0001
0000
,
1000
0001
0100
0000
0100
0001
1000
0000
,
0002
0000
0023
0000
1030
0100
0001
0000
,
0010
0100
1000
0000
0010
0100
0002
0000
,
0000
0000
0013
0000
0100
1000
0000
0010
,
0000
0010
0000
0000
0020
0000
0000
0000
0030
0000
0000
0000
0000
0000
0000
0000
,
1000
0000
1010
0000
0001
0100
0001
0000
,
1000
0100
0010
0000
0001
0100
0010
0000
,
1000
0000
1001
0000
0001
1000
0100
0000
,
1000
1001
0100
1001
,
0001
0000
0011
0000
1000
0100
1000
0000
,
0001
0100
0010
0000
1000
0100
0010
0000
,
0001
0000
0101
0000
1000
0000
0100
0010
,
0000
0010
0000
0000
0020
0000
0000
0000
0031
0000
1000
0000
0001
0000
0000
0000
,
1000
0010
1000
0000
0001
0100
0001
0000
,
1000
0010
1000
0000
0001
0010
0001
0000
,
1000
0010
0100
0000
0001
0010
0100
0000
,
1000
0000
0010
0000
0001
0010
1000
0000
,
0001
0010
0001
0000
1000
0100
1000
0000
,
0001
0010
0001
0000
1000
0010
1000
0000
,
0001
0010
0100
0000
1000
0010
0100
0001
,
0000
0001
0000
0000
0001
0000
0000
0000
0000
0000
0000
0000
0011
0000
0000
0000
,
1010
0000
0001
0010
0002
0000
1003
0000
,
0010
0000
0010
0000
1000
0010
0010
0000
,
1001
0000
0001
0100
0002
0000
1003
0000
,
0100
0000
0100
0000
0010
0001
0001
0000
,
2000
0010
0001
3100
,
0020
0000
0032
0000
0103
0010
1000
0010
,
0200
0001
0001
0010
,
0010
0000
1000
0000
1300
0100
0001
0000
,
0011
0000
1000
0010
2000
0000
3001
0000
,
0010
0000
0010
0000
0001
0010
0010
0000
,
1001
0000
1000
0100
2000
0000
3001
0000
,
0100
0000
0100
0000
0010
1000
1000
0000
,
2002
0000
0000
3003
,
2000
3200
0302
0203
,
1300
0010
0100
0001
,
0010
0100
0010
0100
0010
0100
0010
0000
,
0002
0000
0023
0000
1030
0100
0001
0000
,
1000
0000
0100
0000
0010
0001
0200
0000
,
0000
0000
0310
1000
0001
0000
1000
0000
,
0001
1000
0100
0000
0100
1000
0001
0000
,
2000
0000
3020
0000
0031
0100
1000
0000
,
0010
0100
0001
0000
0010
0100
2000
0000
,
0000
0000
3010
0000
0100
0001
0000
0010
,
0000
0010
0000
0000
0020
0000
0000
0000
0030
0000
0000
0000
0000
0000
0000
0000
;

//---------------dance-single - ----------------
#NOTES:
     dance-single:
     :
     Easy:
     4:
     0.211482,0.246357,0.053507,0.294291,0.000000,166.000000,160.000000,6.000000,33.000000,0.000000,0.000000,0.211482,0.246357,0.053507,0.294291,0.000000,166.000000,160.000000,6.000000,33.000000,0.000000,0.000000:
0000
0000
0000
0000
,
0000
0000
0000
0000
,
0000
0000
0000
0000
,
0000
0000
0000
0000
,
1001
0010
0000
0010
,
1001
0100
0000
0100
,
1001
0000
0010
0000
0000
0010
0000
0020
,
0000
0030
0000
0000
,
1000
1000
0010
0010
,
0100
0001
1000
0200
,
0300
0010
0010
0000
,
0010
0100
0010
0000
,
0100
0100
1000
1000
,
0001
0100
0010
2000
,
3000
0000
0001
0000
1000
0000
0000
2002
,
0000
3003
0000
0000
,
1000
0000
0010
0000
,
1000
0010
0100
0000
,
0001
0010
0100
0000
,
0010
0000
0010
0000
,
0001
0000
0100
0000
,
0010
1000
0100
0000
,
0010
0000
0001
0100
,
0010
1000
0001
0000
,
1000
1000
0100
0100
,
0010
0010
0001
0001
,
1000
0010
1000
0010
,
0100
0100
0100
0000
,
0001
0001
0010
0010
,
0100
0100
1000
1000
,
0001
0000
0100
0000
0001
0000
0000
2002
,
0000
3003
0000
0000
,
0002
0023
0002
0033
,
0001
0001
0001
0001
,
2000
3020
2000
3030
,
1000
1000
1000
1000
,
0200
0000
0000
0300
,
0020
0032
2003
3020
,
0130
0100
0010
0010
,
0100
0100
0001
0001
,
2000
3200
2000
3300
,
1000
1000
1000
1000
,
0002
0203
0002
0303
,
0001
0001
0001
0001
,
0020
0000
0000
0030
,
0200
2300
3002
0203
,
0310
0100
0010
0100
,
0001
0010
0100
1000
,
0001
0001
0010
0010
,
0100
1000
0001
0200
,
0300
0010
0010
0000
,
0010
0100
0010
0000
,
0100
0100
0001
0001
,
1000
0100
0010
0002
,
0003
0000
1000
0000
0001
0000
0000
2002
,
0000
3003
0000
0000
;

//---------------dance-single - ----------------
#NOTES:
     dance-single:
     :
     Beginner:
     1:
     0.084083,0.147145,0.053507,0.115933,0.000000,66.000000,60.000000,6.000000,13.000000,0.000000,0.000000,0.084083,0.147145,0.053507,0.115933,0.000000,66.000000,60.000000,6.000000,13.000000,0.000000,0.000000:
0000
0000
0000
0000
,
0000
0000
0000
0000
,
0000
0000
0000
0000
,
0000
0000
0000
0000
,
1001
0000
0000
0000
,
1001
0000
0000
0000
,
1001
0000
0000
0000
,
1001
0000
0000
0000
,
2000
0000
3000
0000
,
0020
0000
0030
0000
,
0100
0000
0000
0000
,
0100
0000
0000
0000
,
0002
0000
0003
0000
,
0020
0000
0030
0000
,
0100
0000
0000
0000
,
1001
0000
0000
0000
,
1000
0000
0000
0000
,
0010
0000
0000
0000
,
1000
0000
0000
0000
,
0100
0000
0000
0000
,
0001
0000
0000
0000
,
0010
0000
0000
0000
,
0001
0000
0000
0000
,
0100
0000
0000
0000
,
1000
0000
0000
0000
,
0001
0000
0000
0000
,
1000
0000
1000
0000
,
1000
0000
0000
0000
,
0001
0000
0000
0000
,
1000
0000
0000
0000
,
0001
0000
0001
0000
,
0001
0000
0000
0000
,
1000
0000
0000
0000
,
0010
0000
0010
0000
,
0010
0000
0000
0000
,
1000
0000
1000
0000
,
2000
0000
3000
0000
,
0100
0000
0100
0000
,
0200
0000
0300
0000
,
0010
0000
0000
0000
,
0001
0000
0000
0000
,
0010
0000
0010
0000
,
0010
0000
0000
0000
,
0001
0000
0001
0000
,
0002
0000
0003
0000
,
0100
0000
0100
0000
,
0200
0000
0300
0000
,
0020
0000
0030
0000
,
2000
0000
3000
0000
,
0200
0000
0300
0000
,
0010
0000
0000
0000
,
0010
0000
0000
0000
,
0002
0000
0003
0000
,
0200
0000
0300
0000
,
0010
0000
0000
0000
,
1001
0000
0000
0000
;

//---------------dance-single - [B-SIDE] Squid Beatz 2----------------
#NOTES:
     dance-single:
     [B-SIDE] Squid Beatz 2:
     Edit:
     11:
     0.420415,0.615893,0.436977,0.071343,0.164981,330.000000,281.000000,49.000000,8.000000,0.000000,0.000000,0.420415,0.615893,0.436977,0.071343,0.164981,330.000000,281.000000,49.000000,8.000000,0.000000,0.000000:
// measure 0
0000
0000
0000
0000
,  // measure 1
0000
0000
0000
0000
,  // measure 2
0000
0000
0000
0000
,  // measure 3
0000
0000
0000
0000
,  // measure 4
0100
0000
1001
0000
0000
0010
0000
0000
,  // measure 5
0010
0000
1001
0000
0000
0100
0000
0000
,  // measure 6
0100
0000
1001
0000
0000
0010
0000
0100
,  // measure 7
0000
0010
0000
0000
1001
0000
0000
0000
0000
0000
1000
0100
1000
0000
0100
0000
,  // measure 8
0010
0000
0001
0000
0100
1000
0010
0000
,  // measure 9
0001
0100
0001
0100
1000
0010
0002
0000
,  // measure 10
0000
0000
0003
0000
0000
0001
0000
0010
,  // measure 11
0000
0010
0000
0000
1100
0000
0000
0000
0000
0000
0001
0100
0001
0000
0100
0000
,  // measure 12
0010
0000
1000
0000
0100
0001
0010
0000
,  // measure 13
1000
0100
1000
0100
0001
0010
2000
0000
,  // measure 14
0000
0000
3000
0000
0000
1000
0000
0010
,  // measure 15
0000
0010
0000
0000
1001
0000
0000
0000
0000
0000
0000
0000
0000
0000
0000
0000
,  // measure 16
1000
0000
1100
0000
0000
0000
1000
0000
0010
0000
1000
0100
0000
0000
0000
0000
,  // measure 17
1000
0000
0100
0000
0010
0000
0001
0000
0100
0000
0010
1000
0000
0000
0000
0000
,  // measure 18
0001
0110
1000
0110
,  // measure 19
0001
1001
0000
0000
,  // measure 20
0001
0000
0101
0000
0000
0000
0001
0000
0010
0000
0001
0100
0000
0000
0000
0000
,  // measure 21
0001
0000
0100
0000
0010
0000
1000
0000
0100
0000
0010
0001
0000
0000
0000
0000
,  // measure 22
0010
0000
1001
0000
1000
0001
0000
0100
,  // measure 23
0000
0100
0000
0000
1001
0000
0000
0000
0000
0000
1000
0010
1000
0000
0010
0000
,  // measure 24
0100
0000
0010
0000
0100
0010
1001
0000
,  // measure 25
0001
0100
1000
0100
0001
0100
1001
0000
,  // measure 26
0010
0000
1100
0000
0000
1000
0000
0010
,  // measure 27
0000
0010
0000
0000
0101
0000
0000
0000
0000
0000
0001
0010
0001
0000
0010
0000
,  // measure 28
0100
0000
0010
0000
0100
0010
1001
0000
,  // measure 29
1000
0100
0001
0100
1000
0100
1001
0000
,  // measure 30
0010
0000
0101
0000
0000
1000
0000
0010
,  // measure 31
0000
0010
0000
0000
1001
0000
0000
0000
0000
0000
0000
0000
0001
0000
0010
0000
,  // measure 32
0100
1000
0000
0100
1000
0000
0001
0000
0200
0000
0000
0000
0300
0000
0000
0000
,  // measure 33
0001
0100
1000
0100
0000
0110
0110
0000
,  // measure 34
0100
0001
0000
0100
0001
0000
1000
0000
0100
0000
0200
0000
0300
0000
0000
0000
,  // measure 35
1000
0100
0001
0100
0000
0110
0110
0000
,  // measure 36
0011
0000
0000
1001
0000
0000
1010
0000
0000
1001
0000
0000
0011
0000
0000
0000
,  // measure 37
1000
0010
1000
0010
0001
1000
0100
0001
,  // measure 38
0000
0101
0000
0011
0000
1100
0000
1010
,  // measure 39
0000
0101
0000
0011
0000
1001
1001
0000
,  // measure 40
1000
0010
0000
1000
0010
0000
0100
0000
0002
0000
0000
0000
0003
0000
0000
0000
,  // measure 41
0001
0010
1000
0010
0000
0110
0110
0000
,  // measure 42
0001
0010
0000
0001
0010
0000
0100
0000
1000
0000
2000
0000
3000
0000
0000
0000
,  // measure 43
1000
0010
0001
0010
0000
0110
0110
0000
,  // measure 44
1010
0000
0000
0101
0000
0000
0011
0000
0000
1100
0000
0000
1001
0000
0000
0000
,  // measure 45
0001
0010
0001
0010
1000
0001
0100
1000
,  // measure 46
0001
0100
0010
1000
0001
0100
0010
1000
,  // measure 47
0001
1000
0001
1000
0001
1000
0001
1000
0001
1000
0001
1000
0001
1000
0001
1000
,  // measure 48
0001
0000
0010
0000
1000
0100
0001
0000
,  // measure 49
1000
0100
1000
0100
0001
0010
2000
0000
,  // measure 50
0000
0000
3000
0000
0000
0001
0000
0010
,  // measure 51
0000
0010
0000
0000
1100
0000
0000
0000
0000
0000
1000
0001
1000
0000
0001
0000
,  // measure 52
1000
0000
0010
0000
0001
0100
1000
0000
,  // measure 53
0001
0100
0001
0100
1000
0010
0002
0000
,  // measure 54
0000
0000
0003
0000
0000
1000
0000
0010
,  // measure 55
0000
0010
0000
0000
1001
0000
0000
0000
0000
0000
0000
0000
0000
0000
0000
0000
;
