#VERSION:0.83;
#TITLE:Citadel;
#SUBTITLE:;
#ARTIST:Mameyudoufu;
#TITLETRANSLIT:;
#SUBTITLETRANSLIT:;
#ARTISTTRANSLIT:;
#GENRE:Artcore;
#ORIGIN:;
#CREDIT:;
#BANNER:Citadel.png;
#BACKGROUND:Citadel-bg.png;
#PREVIEWVID:;
#JACKET:Citadel-jacket.png;
#CDIMAGE:;
#DISCIMAGE:;
#LYRICSPATH:;
#CDTITLE:cdtitle.png;
#MUSIC:Citadel.ogg;
#OFFSET:-0.082200;
#SAMPLESTART:25.000233;
#SAMPLELENGTH:20.943607;
#SELECTABLE:YES;
#BPMS:0.000=183.000;
#STOPS:;
#DELAYS:;
#WARPS:;
#TIMESIGNATURES:0.000=4=4;
#TICKCOUNTS:0.000=4;
#COMBOS:0.000=1;
#SPEEDS:0.000=1.000=0.000=0;
#SCROLLS:0.000=1.000;
#FAKES:;
#LABELS:0.000=Song Start;
#BGCHANGES:;
#KEYSOUNDS:;
#ATTACKS:
;

//---------------dance-single - ----------------
#NOTEDATA:;
#CHARTNAME:;
#STEPSTYPE:dance-single;
#DESCRIPTION:;
#CHARTSTYLE:;
#DIFFICULTY:Challenge;
#METER:18;
#RADARVALUES:0.901675,1.190760,0.361769,0.323283,0.881332,820.000000,773.000000,47.000000,42.000000,0.000000,0.000000,0.000000,0.000000,0.000000,0.901675,1.190760,0.361769,0.323283,0.881332,820.000000,773.000000,47.000000,42.000000,0.000000,0.000000,0.000000,0.000000,0.000000;
#CREDIT:;
#NOTES:
// measure 0
0000
0000
0000
0000
,  // measure 1
0000
0000
0000
0000
,  // measure 2
0000
0000
0000
0000
,  // measure 3
0000
0000
0000
0000
,  // measure 4
0000
0000
0000
0000
,  // measure 5
0000
0000
0000
0000
,  // measure 6
0000
0000
0000
0000
,  // measure 7
0000
0000
0000
0000
,  // measure 8
0000
0000
0000
0000
,  // measure 9
0001
0000
0100
0000
0001
0100
0010
0000
1000
0000
1100
0000
0000
0000
0110
0000
,  // measure 10
0000
0000
0010
0000
0100
1000
0001
0000
0100
0000
0010
0100
0010
1000
0010
0000
,  // measure 11
1000
0000
0100
0000
1000
0100
0010
0000
0001
0000
0101
0000
0000
0000
0110
0000
,  // measure 12
0000
0000
0010
0000
0100
0001
1000
0000
0100
0000
0010
0100
0010
0001
0010
0000
,  // measure 13
0001
0000
0000
0000
0001
0100
0001
0000
1000
0000
0000
0000
1000
0000
0010
0000
,  // measure 14
1000
0000
0000
0000
1000
0100
1000
0000
0001
0000
0000
0000
0001
0000
0010
0000
,  // measure 15
0001
0001
0001
0100
0100
0010
0010
2000
,  // measure 16
0000
0010
0010
0002
0000
0000
3003
0000
,  // measure 17
0022
0000
0033
0220
0000
0330
2200
0000
,  // measure 18
3300
2002
3003
0001
0100
0100
0100
0100
,  // measure 19
0210
0000
0000
0000
0310
1000
0010
1000
0100
0000
0010
0001
1000
0000
0000
0000
,  // measure 20
1000
0001
0100
0000
0001
0000
0011
0000
0000
0000
0001
0000
1000
0000
0010
0000
,  // measure 21
1020
0000
0000
0000
0130
0000
0010
1000
0001
1000
0010
0000
0100
0000
0001
0000
,  // measure 22
0021
0000
0000
0000
0130
0000
0010
0001
1000
0001
0100
0010
1000
0000
0100
0000
,  // measure 23
0210
0000
0000
0000
0310
0001
0010
0001
0100
0000
0010
1000
0001
0000
0000
0000
,  // measure 24
0001
1000
0100
0000
1000
0000
1010
0000
0000
0000
1000
0000
0001
0000
0010
0100
,  // measure 25
0020
0000
0000
0000
1030
0000
0010
0100
0010
0001
1000
0000
0001
0000
0100
0000
,  // measure 26
0120
0000
0000
0000
0031
0000
0010
0100
0010
1000
0001
0000
1000
0000
0100
0000
,  // measure 27
0210
0000
0000
0000
0310
0001
1000
0010
0100
0000
0010
1000
0100
0000
0000
0000
,  // measure 28
0100
1000
0010
0000
0100
0000
0101
0000
0000
0000
1000
0000
0001
0000
0010
0000
,  // measure 29
0021
0000
0000
0000
0130
0000
1000
0001
0010
0001
0100
0000
0010
0000
1000
0000
,  // measure 30
1020
0000
0000
0000
0130
0000
0001
1000
0010
1000
0100
0010
0001
0000
0100
0000
,  // measure 31
0210
0000
0000
0000
0310
1000
0001
0010
0100
0000
0010
0001
0100
0000
0000
0000
,  // measure 32
0100
0001
0010
0000
0100
0000
1100
0000
0000
0000
0001
0000
1000
0000
0010
0100
,  // measure 33
0020
0000
0000
0000
0031
0000
0010
0100
0001
1000
0100
0000
0010
0000
0100
0000
,  // measure 34
0120
0000
0000
0000
1030
0000
0010
0100
1000
0000
0001
0000
0100
0010
0100
0010
,  // measure 35
1000
0100
1000
0020
0030
0010
0001
0100
,  // measure 36
0010
0000
1000
0000
1001
0000
0001
0010
0100
1000
0001
0000
1001
0000
1000
0000
,  // measure 37
0001
0100
0001
0020
0030
0010
1000
0100
,  // measure 38
0010
0000
0001
0000
0011
0000
0010
0001
1000
0001
0100
0000
0101
0000
0001
0000
,  // measure 39
1000
0010
1000
0200
0300
0100
1000
0100
,  // measure 40
0001
0000
1000
0000
1010
0000
0010
1000
0001
1000
0100
0000
1100
0000
1000
0000
,  // measure 41
0001
0010
0001
0200
0300
0100
0001
0100
,  // measure 42
1000
0000
0001
0100
0010
1000
0010
0100
0001
0010
0100
1000
0001
0000
0100
0000
,  // measure 43
0010
1000
0100
0002
0003
0001
0010
0100
,  // measure 44
1000
0000
0010
0000
1010
0000
0100
0001
1000
0001
0010
0000
1100
0000
0001
0000
,  // measure 45
0010
0001
0100
2000
3000
1000
0010
0100
,  // measure 46
0001
0000
0010
0000
0011
0000
0100
1000
0001
1000
0010
0000
0101
0000
0010
0000
,  // measure 47
1000
0001
0010
2000
3000
1000
0100
0001
,  // measure 48
0100
0000
1000
0000
1001
0000
0001
0100
0010
1000
0100
0000
0110
0000
0010
0000
,  // measure 49
0001
1000
0010
0002
0003
0001
0100
2010
,  // measure 50
0000
3200
0000
0320
0000
0032
0103
0010
,  // measure 51
2000
0000
0010
0000
3010
0000
0011
0000
0000
0000
1000
0000
0010
1000
0100
0000
,  // measure 52
0020
0000
0100
0000
0130
0000
0010
0001
1000
0010
0100
0000
0001
0000
1000
0000
,  // measure 53
0002
0000
0010
0000
0013
0000
1010
0000
0000
0000
0001
0000
0010
0001
0100
0000
,  // measure 54
0020
0000
1000
0000
1030
0000
0001
0010
0100
1000
0001
0000
0100
0000
0010
0000
,  // measure 55
1020
0000
0100
0000
0130
0001
0010
0000
0000
0000
0001
0010
0100
1000
0001
0000
,  // measure 56
1000
0010
0100
0001
1000
0100
0010
0001
0010
0100
1000
0001
0100
0000
0001
0000
,  // measure 57
0021
0000
0100
0000
0130
1000
0010
0000
0000
0000
1000
0000
0010
0100
0001
1000
,  // measure 58
0100
0000
0010
0000
0010
0000
0100
1000
0001
0100
0010
0000
1000
0010
0001
0010
,  // measure 59
2000
0000
0000
0000
,  // measure 60
0000
0000
0000
0000
,  // measure 61
3001
0000
0000
0000
0100
0001
0100
0000
0000
0000
0001
0100
0001
0000
0000
0000
,  // measure 62
1000
0100
1000
0000
0000
0000
0100
1000
0100
0000
0000
0000
1000
0000
0000
0000
,  // measure 63
0001
0000
0000
0000
1000
0010
1000
0000
0000
0000
0001
1000
0001
0000
0000
0000
,  // measure 64
0010
0001
0010
0000
0000
0000
0001
1000
0001
0000
0000
0000
1000
0000
0000
0000
,  // measure 65
0010
0000
0000
0000
0100
0001
0100
0000
0000
0000
0001
1000
0001
0000
0000
0000
,  // measure 66
1000
0100
1000
0000
0000
0000
0100
0010
0100
0000
0000
0000
0010
0100
0010
0001
,  // measure 67
1000
0000
0000
0000
0001
1000
0010
0000
0000
0000
0010
1000
0001
0000
0000
0000
,  // measure 68
0001
1000
0100
0000
0000
0000
0100
0010
0001
0000
0100
0010
1000
0000
0100
0010
,  // measure 69
0001
0000
0000
0000
1000
0001
0010
0000
0000
0000
0010
0001
1000
0000
0000
0000
,  // measure 70
1000
0001
0100
0000
0000
0000
0100
0010
1000
0000
0100
0010
0001
1000
0001
1000
,  // measure 71
0010
0000
0000
0000
1000
0001
0010
0000
0000
0000
0001
1000
0010
0000
0000
0000
,  // measure 72
0100
0001
0010
0000
0000
0000
0100
1000
0020
0000
0000
0000
0000
0000
0030
0000
,  // measure 73
0110
0000
0000
0110
0000
0000
0110
0000
1000
0010
0100
0001
0010
0000
0000
0110
,  // measure 74
0000
0000
1100
0000
0000
1001
0000
0000
0001
0000
0000
0010
0000
0000
0100
1000
,  // measure 75
0001
0000
1000
0010
0100
0010
1000
0001
0100
0000
0001
0010
0100
0010
0001
1000
,  // measure 76
0100
0000
0010
0001
1000
0010
0100
0010
1000
0000
0001
0100
1000
0100
0010
1000
,  // measure 77
0001
0000
0010
0100
1000
0001
1000
0010
1000
0000
0010
0100
0001
1000
0001
0010
,  // measure 78
0001
0000
1000
0010
0100
0001
1000
0100
0010
0000
0100
0001
0100
1000
0001
0010
,  // measure 79
0100
0000
0010
0001
1000
0001
0100
0010
1000
0000
0010
0100
0010
0001
0010
0100
,  // measure 80
0010
0000
1000
0001
0100
0001
1000
0001
0010
0000
0100
0010
1000
0010
0100
0010
,  // measure 81
0001
0000
0010
0001
1000
0010
0100
0001
1000
0001
1000
0001
0010
0100
0010
0100
,  // measure 82
1000
0001
0010
0100
1000
0001
0010
0100
1000
0010
0100
0001
1000
0100
0010
0001
,  // measure 83
1000
0000
0100
0010
0001
1000
0100
0010
0001
0100
0010
1000
0001
0100
0010
0100
,  // measure 84
1000
0000
0100
0010
1000
0001
0100
0010
1000
0100
0010
0001
1000
0100
0010
0100
,  // measure 85
0001
0000
0100
0010
0001
1000
0010
0100
0001
0100
0010
1000
0001
1000
0100
0010
,  // measure 86
1000
0000
0010
0100
1000
0001
0100
0010
1000
0100
0010
0001
1000
0001
0100
0010
,  // measure 87
0001
0000
0010
0100
0001
1000
0100
0010
0100
1000
0001
0100
0010
0001
0010
1000
,  // measure 88
0001
1000
0100
0010
0100
1000
0010
0100
0001
1000
0100
0010
1000
0010
0001
1000
,  // measure 89
0001
0100
0010
1000
0001
0010
0100
1000
0001
0100
0001
1000
0001
1000
0100
0010
,  // measure 90
0110
0000
0000
0000
0000
0000
1001
0000
0000
0000
1000
0100
0010
0001
0100
0010
,  // measure 91
0100
0000
0000
0000
;

//---------------dance-single - ----------------
#NOTEDATA:;
#CHARTNAME:;
#STEPSTYPE:dance-single;
#DESCRIPTION:;
#CHARTSTYLE:;
#DIFFICULTY:Medium;
#METER:11;
#RADARVALUES:0.473929,0.560358,0.284797,0.531108,0.000000,431.000000,394.000000,37.000000,69.000000,0.000000,0.000000,0.000000,0.000000,0.000000,0.473929,0.560358,0.284797,0.531108,0.000000,431.000000,394.000000,37.000000,69.000000,0.000000,0.000000,0.000000,0.000000,0.000000;
#CREDIT:;
#NOTES:
// measure 0
0000
0000
0000
0000
,  // measure 1
0000
0000
0000
0000
,  // measure 2
0000
0000
0000
0000
,  // measure 3
0000
0000
0000
0000
,  // measure 4
0000
0000
0000
0000
,  // measure 5
0000
0000
0000
0000
,  // measure 6
0000
0000
0000
0000
,  // measure 7
0000
0000
0000
0000
,  // measure 8
0000
0000
0000
0000
,  // measure 9
0101
0000
1000
0000
0000
0011
0000
1100
,  // measure 10
0000
0001
0001
0000
0100
0010
1000
0000
,  // measure 11
1100
0000
0001
0000
0000
1010
0000
0101
,  // measure 12
0000
1000
1000
0000
0100
0010
0001
0000
,  // measure 13
0100
0100
0010
0010
,  // measure 14
1000
0001
0010
0100
,  // measure 15
1000
0001
1000
0001
0100
0010
0100
0020
,  // measure 16
0000
0000
0000
2000
0000
0000
3030
0000
,  // measure 17
2002
0000
3003
2200
0000
3300
0220
0000
,  // measure 18
0330
0022
0000
0033
1000
0100
1000
0100
,  // measure 19
0020
0000
0031
0100
0000
0001
0002
0003
,  // measure 20
0100
0200
0300
0202
0303
0000
0001
1000
,  // measure 21
0200
0000
0310
0002
0000
0023
0000
0230
,  // measure 22
0000
0000
1300
0001
1000
0001
0100
0000
,  // measure 23
0020
0000
1030
0100
0000
1000
2000
3000
,  // measure 24
0100
0200
0300
2200
3300
0000
0001
1000
,  // measure 25
0020
0000
0130
0002
0000
0023
0000
0230
,  // measure 26
0000
0000
1300
0010
0100
0001
1000
0000
,  // measure 27
0020
0000
0130
0001
0000
0010
0020
0030
,  // measure 28
0100
0200
0300
2200
3300
0000
1000
0001
,  // measure 29
0200
0000
0310
2000
0000
3020
0000
0230
,  // measure 30
0000
0000
0301
1000
0001
1000
0100
0000
,  // measure 31
0020
0000
0130
1000
0000
0010
0020
0030
,  // measure 32
0100
0200
0300
0202
0303
0000
1000
0001
,  // measure 33
0020
0000
0130
2000
0000
3020
0000
0230
,  // measure 34
0000
0000
0301
0010
0100
1000
0001
0000
,  // measure 35
1000
0010
1000
0020
0000
1000
1030
0000
,  // measure 36
0010
1010
0010
0101
,  // measure 37
0001
0010
0001
0020
0000
0001
0031
0000
,  // measure 38
0010
1100
0010
0101
,  // measure 39
0001
1000
0001
0020
0000
0001
0031
0000
,  // measure 40
0010
0011
0010
1100
,  // measure 41
1000
0001
1000
0010
0000
0010
0100
0001
,  // measure 42
2000
3200
0320
0032
,  // measure 43
1003
0010
1000
0020
0000
0100
0130
0000
,  // measure 44
0001
0100
0001
0000
1000
0100
1000
0000
,  // measure 45
0001
0010
0001
0020
0000
0100
0130
0000
,  // measure 46
0010
0001
1000
0000
0001
1000
0010
0000
,  // measure 47
0100
0001
1000
0002
0000
0010
0013
0000
,  // measure 48
0001
0010
0001
0000
1000
0010
1000
0000
,  // measure 49
0100
1000
0001
1000
0000
1000
0010
0200
,  // measure 50
0000
0302
0000
0023
0000
0230
0000
0000
,  // measure 51
0310
0010
0000
1100
0000
1001
0000
0001
,  // measure 52
0010
0100
0000
0100
0010
0001
1000
0000
,  // measure 53
0010
0010
0000
0101
0000
1001
0000
1000
,  // measure 54
0010
0100
0000
0001
0010
0100
1000
0000
,  // measure 55
0010
0110
0000
0101
0000
1100
0000
0001
,  // measure 56
2000
3020
0230
0302
,  // measure 57
0013
0110
0000
1100
0000
0101
0000
1000
,  // measure 58
0010
1000
0001
0000
0010
0001
0100
0010
,  // measure 59
0200
0000
0000
0000
,  // measure 60
0000
0000
0000
0000
,  // measure 61
0310
0000
0000
0010
0000
0000
0010
0000
,  // measure 62
0000
0010
0000
0000
0010
0000
1001
0000
,  // measure 63
0001
0000
0000
0010
0000
0000
0001
0000
,  // measure 64
0000
0010
0000
0000
0001
0000
1001
0000
,  // measure 65
1000
0000
0000
0010
0000
0000
1000
0000
,  // measure 66
0000
0010
0000
0000
1000
0010
0100
0001
,  // measure 67
1000
0000
0000
0100
0000
0000
0010
0000
,  // measure 68
0000
0001
0000
0000
0010
0000
0100
1000
,  // measure 69
0001
0000
0000
0100
0000
0000
0010
0000
,  // measure 70
0000
1000
0000
0000
0010
0100
0001
1000
,  // measure 71
0100
0000
0000
0010
0000
0000
0001
0000
,  // measure 72
0000
1000
0000
0000
0010
0000
0000
0000
,  // measure 73
0220
0000
0330
0000
0001
1000
2002
0000
,  // measure 74
0000
0000
0000
3003
,  // measure 75
1000
1000
0100
0100
,  // measure 76
0001
0000
0001
0000
0001
0100
0010
1000
,  // measure 77
0001
0001
0100
0100
,  // measure 78
1000
0000
1000
0000
1000
0100
0010
0001
,  // measure 79
1000
0000
0010
0000
0100
0001
1000
0100
,  // measure 80
0010
0000
0001
0000
1000
0010
0100
0001
,  // measure 81
1000
0000
0001
0010
0100
0000
1000
0100
,  // measure 82
0010
0001
1000
0001
1000
0001
0100
0000
,  // measure 83
1001
0000
0001
0010
0100
0000
0100
1000
,  // measure 84
0010
0000
0100
0001
0100
0010
0100
0010
,  // measure 85
1000
0000
1000
0010
0100
0000
0100
0001
,  // measure 86
0010
0000
0100
1000
0100
0010
0100
0010
,  // measure 87
0001
0000
0100
0001
0100
0000
1000
0100
,  // measure 88
0001
0000
0010
0001
0010
0000
1000
0010
,  // measure 89
0001
0000
1000
0010
0100
0001
1000
0001
,  // measure 90
1001
0000
0000
1001
0000
1000
0100
0010
,  // measure 91
0100
0000
0000
0000
;

//---------------dance-single - ----------------
#NOTEDATA:;
#CHARTNAME:;
#STEPSTYPE:dance-single;
#DESCRIPTION:;
#CHARTSTYLE:;
#DIFFICULTY:Easy;
#METER:9;
#RADARVALUES:0.365068,0.525335,0.192431,0.431044,0.000000,332.000000,307.000000,25.000000,56.000000,0.000000,0.000000,0.000000,0.000000,0.000000,0.365068,0.525335,0.192431,0.431044,0.000000,332.000000,307.000000,25.000000,56.000000,0.000000,0.000000,0.000000,0.000000,0.000000;
#CREDIT:;
#NOTES:
// measure 0
0000
0000
0000
0000
,  // measure 1
0000
0000
0000
0000
,  // measure 2
0000
0000
0000
0000
,  // measure 3
0000
0000
0000
0000
,  // measure 4
0000
0000
0000
0000
,  // measure 5
0000
0000
0000
0000
,  // measure 6
0000
0000
0000
0000
,  // measure 7
0000
0000
0000
0000
,  // measure 8
0000
0000
0000
0000
,  // measure 9
1000
0000
0000
0000
0000
0010
0000
0100
,  // measure 10
0000
0000
0001
1000
,  // measure 11
0001
0000
0000
0000
0000
0010
0000
0100
,  // measure 12
0000
0000
1000
0001
,  // measure 13
0100
0000
0000
0010
0000
0000
0000
1000
,  // measure 14
0000
0001
0000
0010
0000
0000
0100
0000
,  // measure 15
1000
0000
0000
0010
0000
0100
0000
0002
,  // measure 16
0000
0000
0000
2000
0000
0000
3003
0000
,  // measure 17
1002
0000
0000
0023
0000
0000
0230
0000
,  // measure 18
0000
2300
0000
0000
3001
0000
0001
0000
,  // measure 19
1001
0000
0001
0100
0000
0000
0010
0000
,  // measure 20
1000
0001
0000
0001
0000
0000
1000
0000
,  // measure 21
0200
0000
0000
0320
0000
0032
0000
2003
,  // measure 22
0000
3020
0230
0301
,  // measure 23
1001
0000
1000
0100
0000
0000
0010
0000
,  // measure 24
0001
1000
0000
1000
0000
0000
0010
0000
,  // measure 25
0200
0000
0000
0302
0000
0023
0000
0230
,  // measure 26
0000
2300
3020
1030
,  // measure 27
1001
0000
0001
0010
0000
0000
0100
0000
,  // measure 28
1000
0010
0000
0010
0000
0000
0100
0000
,  // measure 29
0200
0000
0000
0320
0000
2030
0000
3002
,  // measure 30
0000
0023
0230
1300
,  // measure 31
1001
0000
1000
0010
0000
0000
0100
0000
,  // measure 32
0001
0010
0000
0010
0000
0000
0010
0000
,  // measure 33
0200
0000
0000
2300
0000
3020
0000
0230
,  // measure 34
0000
0302
0023
0230
,  // measure 35
1300
0000
0010
0200
0000
0000
0301
0000
,  // measure 36
0100
0010
0100
0001
,  // measure 37
1000
0000
0100
0020
0000
0000
0130
0000
,  // measure 38
1000
0000
0100
0000
0010
0001
1000
0000
,  // measure 39
0001
0000
0100
0020
0000
0000
1030
0000
,  // measure 40
0010
0100
0001
1000
,  // measure 41
0001
0000
0010
0200
0000
0000
1300
0001
,  // measure 42
0200
0320
0230
0302
,  // measure 43
0013
0000
0100
2000
0000
0000
3100
0000
,  // measure 44
0001
0100
1000
0001
,  // measure 45
1000
0000
0010
2000
0000
0000
3010
0000
,  // measure 46
0001
0000
0010
0000
1000
0001
1000
0000
,  // measure 47
0001
0000
0010
0002
0000
0000
0013
0000
,  // measure 48
1000
0010
0001
1000
,  // measure 49
0001
0000
0100
0002
0000
0000
1003
0200
,  // measure 50
0000
0320
0000
0032
0000
2003
0000
0000
,  // measure 51
3010
0100
0000
0110
0000
0100
0000
0101
,  // measure 52
0000
0100
0000
0001
1000
0000
0001
0000
,  // measure 53
0010
0100
0000
0110
0000
0100
0000
1100
,  // measure 54
0000
0100
0000
0010
0001
0000
1000
0000
,  // measure 55
0001
0100
0000
1010
0000
1001
0000
0001
,  // measure 56
0020
0230
2300
3002
,  // measure 57
1003
0100
0000
0011
0000
1001
0000
1000
,  // measure 58
0010
0000
0100
0000
0010
1000
0100
0000
,  // measure 59
0220
0000
0000
0000
,  // measure 60
0000
0000
0000
0330
,  // measure 61
0001
0000
0000
0001
0000
0000
0001
0000
,  // measure 62
0000
0001
0000
0000
0001
0000
0000
0000
,  // measure 63
1000
0000
0000
1000
0000
0000
1000
0000
,  // measure 64
0000
1000
0000
0000
1000
0000
0000
0000
,  // measure 65
0010
0000
0000
0010
0000
0000
0010
0000
,  // measure 66
0000
0010
0000
0000
0010
0000
0100
0000
,  // measure 67
0001
0000
0000
1000
0000
0000
0001
0000
,  // measure 68
0000
1000
0000
0000
0001
0000
1000
0000
,  // measure 69
0100
0000
0000
0010
0000
0000
0100
0000
,  // measure 70
0000
0010
0000
0000
0100
0000
1000
0000
,  // measure 71
0010
0000
0000
0100
0000
0000
0001
0000
,  // measure 72
0000
1000
0000
0000
0200
0000
0000
0000
,  // measure 73
0320
0000
0031
2000
,  // measure 74
0000
0000
0000
0000
,  // measure 75
3001
0100
0010
1000
,  // measure 76
0100
0000
0010
0000
0001
0010
0001
0000
,  // measure 77
1000
0010
0100
0001
,  // measure 78
0010
0000
0100
0000
1000
0010
1000
0000
,  // measure 79
0001
0000
0010
0000
0001
0010
0001
0000
,  // measure 80
1000
0000
0100
0000
1000
0100
1000
0000
,  // measure 81
0001
0000
0100
0000
0010
1000
0001
0000
,  // measure 82
0010
0001
1000
0000
0010
1000
0001
0000
,  // measure 83
1000
1100
0100
0101
,  // measure 84
0001
0000
0011
0000
1000
0001
1000
0001
,  // measure 85
0100
0101
0100
1100
,  // measure 86
1000
0000
1010
0000
0001
1000
0001
1000
,  // measure 87
0100
0000
0110
0000
0001
0010
0001
0000
,  // measure 88
0100
0000
0110
0000
1000
0010
1000
0000
,  // measure 89
0010
0000
1001
0000
1000
0001
1000
0000
,  // measure 90
1001
0000
0000
0110
0000
0000
0001
1000
,  // measure 91
0100
0000
0000
0000
;

//---------------dance-single - ----------------
#NOTEDATA:;
#CHARTNAME:;
#STEPSTYPE:dance-single;
#DESCRIPTION:;
#CHARTSTYLE:;
#DIFFICULTY:Beginner;
#METER:6;
#RADARVALUES:0.236415,0.315201,0.107761,0.115458,0.000000,215.000000,201.000000,14.000000,15.000000,0.000000,0.000000,0.000000,0.000000,0.000000,0.236415,0.315201,0.107761,0.115458,0.000000,215.000000,201.000000,14.000000,15.000000,0.000000,0.000000,0.000000,0.000000,0.000000;
#CREDIT:;
#NOTES:
// measure 0
0000
0000
0000
0000
,  // measure 1
0000
0000
0000
0000
,  // measure 2
0000
0000
0000
0000
,  // measure 3
0000
0000
0000
0000
,  // measure 4
0000
0000
0000
0000
,  // measure 5
0000
0000
0000
0000
,  // measure 6
0000
0000
0000
0000
,  // measure 7
0000
0000
0000
0000
,  // measure 8
0000
0000
0000
0000
,  // measure 9
1000
0000
0000
0000
,  // measure 10
0010
0000
0100
0000
,  // measure 11
0001
0000
0000
0000
,  // measure 12
0010
0000
0100
0000
,  // measure 13
1000
0000
1000
0000
,  // measure 14
0001
0000
0001
0000
,  // measure 15
1000
0001
0100
0010
,  // measure 16
0020
0000
0030
0000
,  // measure 17
2002
0000
0000
0000
,  // measure 18
0000
0000
3003
0000
,  // measure 19
1001
0000
1000
0000
,  // measure 20
0010
1000
0010
0000
,  // measure 21
1000
1000
0100
0000
,  // measure 22
0010
0000
0001
0001
,  // measure 23
1001
0000
0001
0000
,  // measure 24
0010
0001
0010
0000
,  // measure 25
0001
0001
1000
0000
,  // measure 26
0010
0000
0100
0001
,  // measure 27
1001
0000
1000
0000
,  // measure 28
0100
1000
0010
0000
,  // measure 29
0100
0100
0001
0000
,  // measure 30
1000
0000
0100
0100
,  // measure 31
1001
0000
0001
0000
,  // measure 32
0100
0001
0010
0000
,  // measure 33
0001
0001
1000
0000
,  // measure 34
0010
0100
0001
1000
,  // measure 35
0200
0000
0310
0000
,  // measure 36
0100
0010
0100
1000
,  // measure 37
0002
0000
1003
0000
,  // measure 38
0001
1000
0010
0100
,  // measure 39
0020
0000
0130
0000
,  // measure 40
0010
0100
0001
1000
,  // measure 41
0100
0000
0110
0000
,  // measure 42
1001
0000
1000
0010
,  // measure 43
0200
0000
0301
0000
,  // measure 44
0010
0100
1000
0001
,  // measure 45
0200
0000
0310
0000
,  // measure 46
1000
0001
0010
0100
,  // measure 47
2000
0000
3010
0000
,  // measure 48
0100
0001
0010
0100
,  // measure 49
0010
0000
0110
0000
,  // measure 50
1001
0000
1000
0010
,  // measure 51
0010
0000
0010
0000
,  // measure 52
0010
0100
0001
0000
,  // measure 53
0010
0000
0010
0000
,  // measure 54
0010
0100
1000
0000
,  // measure 55
1001
0000
1001
0000
,  // measure 56
0001
0010
0001
0000
,  // measure 57
1001
0000
1001
0000
,  // measure 58
1000
0010
0100
0001
,  // measure 59
0020
0000
0000
0000
,  // measure 60
0000
0000
0000
0030
,  // measure 61
0200
0000
0000
0000
,  // measure 62
0000
0000
0000
0300
,  // measure 63
2000
0000
0000
0000
,  // measure 64
0000
0000
0000
3000
,  // measure 65
0002
0000
0000
0000
,  // measure 66
0000
0000
0000
0003
,  // measure 67
0100
0000
0100
0000
,  // measure 68
0100
0000
0100
0100
,  // measure 69
0010
0000
0010
0000
,  // measure 70
0010
0000
0010
0010
,  // measure 71
1000
0000
0001
0000
,  // measure 72
1000
0000
0001
0000
,  // measure 73
0020
0000
0030
0200
,  // measure 74
0000
0000
0000
0000
,  // measure 75
1300
0100
1000
0000
,  // measure 76
1000
0010
1000
0000
,  // measure 77
0001
0010
0001
0000
,  // measure 78
0001
0100
0001
0000
,  // measure 79
1000
0100
0010
0000
,  // measure 80
0001
0100
0010
0000
,  // measure 81
1000
0100
0010
0001
,  // measure 82
0010
0100
1000
0000
,  // measure 83
0001
0100
0001
0100
,  // measure 84
0010
1000
0001
0000
,  // measure 85
1000
0100
1000
0100
,  // measure 86
0010
0001
1000
0000
,  // measure 87
0010
1000
0100
0000
,  // measure 88
0010
0001
0100
0000
,  // measure 89
0010
1000
0100
0010
,  // measure 90
0001
0000
0110
1000
,  // measure 91
0001
0000
0000
0000
;

//---------------dance-single - ----------------
#NOTEDATA:;
#CHARTNAME:;
#STEPSTYPE:dance-single;
#DESCRIPTION:;
#CHARTSTYLE:;
#DIFFICULTY:Hard;
#METER:14;
#RADARVALUES:0.670758,0.770492,0.415650,0.584989,0.184733,610.000000,556.000000,54.000000,76.000000,0.000000,0.000000,0.000000,0.000000,0.000000,0.670758,0.770492,0.415650,0.584989,0.184733,610.000000,556.000000,54.000000,76.000000,0.000000,0.000000,0.000000,0.000000,0.000000;
#CREDIT:;
#NOTES:
// measure 0
0000
0000
0000
0000
,  // measure 1
0000
0000
0000
0000
,  // measure 2
0000
0000
0000
0000
,  // measure 3
0000
0000
0000
0000
,  // measure 4
0000
0000
0000
0000
,  // measure 5
0000
0000
0000
0000
,  // measure 6
0000
0000
0000
0000
,  // measure 7
0000
0000
0000
0000
,  // measure 8
0000
0000
0000
0000
,  // measure 9
2000
0000
0010
3001
0000
0011
0000
0210
,  // measure 10
0000
0010
1000
1300
0100
0010
0010
0000
,  // measure 11
0002
0000
0010
1003
0000
1010
0000
0210
,  // measure 12
0000
0010
0001
0301
0100
0010
0010
0000
,  // measure 13
1000
0000
0001
0100
0001
0000
1000
0100
,  // measure 14
0010
0000
0001
0100
0010
0000
1000
0001
,  // measure 15
0010
0100
1000
0001
0100
0010
0100
0020
,  // measure 16
0000
1000
1000
2000
0000
0000
3030
0000
,  // measure 17
2002
0000
3003
2200
0000
3300
0220
0000
,  // measure 18
0330
0022
0033
0001
0100
0100
0100
0100
,  // measure 19
0210
0000
0001
0310
0000
2010
0002
3003
,  // measure 20
2001
3200
0310
0200
0000
0310
0001
1000
,  // measure 21
1020
0000
0100
0001
0000
0001
0000
0130
,  // measure 22
2010
0000
0000
0000
3010
0000
0100
0000
0001
0000
1000
0100
1000
0000
0100
0000
,  // measure 23
0210
0000
1000
0310
0000
0012
2000
3003
,  // measure 24
1002
0000
0203
0000
0310
0000
0200
0000
0000
0000
0301
0000
0001
0000
0010
0001
,  // measure 25
0020
0000
0100
1000
0000
0100
0000
0130
,  // measure 26
0012
0000
1003
0010
0001
1000
0100
0001
,  // measure 27
2001
0000
0010
3100
0000
1200
0020
0330
,  // measure 28
0012
2003
3010
0002
0000
0013
1000
0100
,  // measure 29
0210
0000
1000
0010
0000
0010
0000
0301
,  // measure 30
0201
0000
0000
0000
0310
0000
0001
0000
0100
0000
0010
1000
0010
0000
1000
0000
,  // measure 31
1002
0000
0010
0103
0000
0201
0020
0330
,  // measure 32
2010
0000
3002
0000
0013
0000
2000
0000
0000
0000
3010
0000
0001
0000
0100
0001
,  // measure 33
0200
0000
0001
0010
0000
0010
0000
1300
,  // measure 34
1200
0000
0000
0000
0310
0000
1000
0000
0001
0000
0010
0000
0100
0010
0100
0010
,  // measure 35
0100
1000
0010
0200
0000
0001
0001
0301
,  // measure 36
0100
0001
0011
0000
0010
0001
0101
0000
,  // measure 37
0100
0001
0010
0200
0000
1000
1000
1300
,  // measure 38
0100
1000
1010
0000
0010
1000
1100
0000
,  // measure 39
0001
0100
1000
0200
0000
0010
0010
0310
,  // measure 40
1000
0001
0011
0000
0001
1000
1010
0000
,  // measure 41
1000
0100
0001
0200
0000
0301
0100
1000
,  // measure 42
0001
0000
0100
0000
0010
1000
0010
0000
0100
0000
0001
0000
1000
0001
1000
0000
,  // measure 43
0001
0010
0100
0002
0000
0100
0100
0103
,  // measure 44
0001
0100
1100
0000
0100
1000
1010
0000
,  // measure 45
1000
0010
0100
2000
0000
0100
0100
3100
,  // measure 46
1000
0100
0101
0000
0100
0001
0011
0000
,  // measure 47
0001
0010
1000
0020
0000
0100
0100
0130
,  // measure 48
0010
0001
1010
0000
0010
1000
0011
0000
,  // measure 49
1000
0010
0001
0020
0000
1030
0001
2001
,  // measure 50
0000
3200
0000
0320
0000
0032
0103
0010
,  // measure 51
2010
3002
0013
0210
0000
1300
0000
0110
,  // measure 52
0010
0000
0001
0000
1000
0000
0010
0000
0100
0001
0100
0000
0001
0000
0010
0000
,  // measure 53
0012
2003
3010
0210
0000
0301
0000
0110
,  // measure 54
0010
0000
1000
0000
0100
0000
0010
0001
1000
0000
0010
1000
0001
0000
0010
0000
,  // measure 55
0210
2300
3010
1020
0000
0031
0000
0011
,  // measure 56
0010
0000
1000
0010
1000
0000
0001
0000
0010
0000
0100
1000
0001
0000
0100
0000
,  // measure 57
0210
0302
0013
0021
0000
1030
0000
1010
,  // measure 58
0010
0000
0001
0000
1000
0000
0010
0100
0001
0000
1000
0000
0001
1000
0001
1000
,  // measure 59
0200
0000
0000
0000
,  // measure 60
0000
0000
0000
0000
,  // measure 61
1300
0000
0100
1000
0000
0100
1000
0000
,  // measure 62
0001
0100
0000
0001
0100
0000
1001
0000
,  // measure 63
0001
0000
0100
0001
0000
1000
0001
0000
,  // measure 64
0010
0001
0000
1000
0001
0000
1001
0000
,  // measure 65
1000
0000
0100
1000
0000
0001
0100
0000
,  // measure 66
0010
0000
1000
0000
0000
0000
0001
0000
0010
0000
0000
0000
0001
1000
0001
1000
,  // measure 67
0001
0000
0001
0100
0000
0100
1000
0000
,  // measure 68
1000
0000
0100
0000
0000
0000
0100
0000
0001
0000
0100
0000
0010
0000
1000
0010
,  // measure 69
1000
0000
1000
0100
0000
0100
0001
0000
,  // measure 70
0001
0000
0100
0000
0000
0000
0100
0000
1000
0000
0100
0000
0010
0001
0010
0001
,  // measure 71
0010
0000
0001
0100
0000
1000
0100
0000
,  // measure 72
0001
0010
0000
1000
0020
0000
0000
0000
,  // measure 73
0031
0000
0000
0001
0000
0000
0001
0000
0100
0010
0100
0010
1000
0000
0000
1000
,  // measure 74
0000
0000
1000
0000
0000
1000
0000
0000
0100
0000
0000
0010
0000
0000
0001
0000
,  // measure 75
1000
0010
0100
1000
0100
0001
0010
1000
,  // measure 76
0010
0000
0001
0000
0100
0000
1000
0000
0100
0000
0010
0000
1000
0010
1000
0010
,  // measure 77
2000
0000
3100
0001
0100
1000
0010
0001
,  // measure 78
0010
0000
1000
0000
0100
0000
0001
0000
0100
0000
0010
0000
0001
0010
0001
0010
,  // measure 79
0002
0000
1003
0010
1000
0010
0001
1000
,  // measure 80
0100
0001
0010
0001
0010
1000
0001
0100
,  // measure 81
1000
0001
0100
0001
1000
0100
1000
0001
,  // measure 82
0010
1000
0010
0001
0100
1000
0100
0001
,  // measure 83
1000
0000
0100
0000
0010
0000
0001
0010
0001
0000
0100
0000
0010
0000
1000
0010
,  // measure 84
1000
0000
0100
0000
0010
0000
0001
0010
0001
0000
0100
0000
0010
1000
0010
1000
,  // measure 85
0002
0000
0103
0000
0001
0000
0010
0100
0010
0000
0100
0000
1000
0000
0010
0100
,  // measure 86
0010
0000
0100
0000
0001
0000
0010
0100
0010
0000
0100
0000
0010
0001
0010
0001
,  // measure 87
2000
0000
3010
0000
0100
0000
0010
0000
0001
0000
0010
0000
0100
0010
0100
0000
,  // measure 88
0001
0000
0010
0000
0100
0000
0010
0000
1000
0000
0010
0000
0100
0010
0100
0000
,  // measure 89
1000
0000
0001
0000
0100
0000
0010
0000
1000
0000
0100
0000
0010
0001
1000
0001
,  // measure 90
0100
0000
0000
0000
0000
0000
0110
0000
0000
0000
0010
1000
0010
1000
0010
1000
,  // measure 91
0001
0000
0000
0000
;
