#VERSION:0.83;
#TITLE:Circus;
#SUBTITLE:;
#ARTIST:Thaehan;
#TITLETRANSLIT:;
#SUBTITLETRANSLIT:;
#ARTISTTRANSLIT:;
#GENRE:Electro Carnival;
#ORIGIN:;
#CREDIT:;
#BANNER:Circus.png;
#BACKGROUND:Circus-bg.png;
#PREVIEWVID:;
#JACKET:Circus-jacket.png;
#CDIMAGE:;
#DISCIMAGE:;
#LYRICSPATH:;
#CDTITLE:cdtitle.png;
#MUSIC:Circus.ogg;
#OFFSET:-0.271770;
#SAMPLESTART:29.657524;
#SAMPLELENGTH:19.591837;
#SELECTABLE:YES;
#BPMS:0.000=196.000,
48.000=98.000,
56.000=196.000,
72.000=98.000,
80.000=196.000,
144.000=98.000,
160.000=196.000,
220.000=98.000,
238.000=196.000,
254.000=98.000,
262.000=196.000,
294.000=98.000;
#STOPS:;
#DELAYS:;
#WARPS:;
#TIMESIGNATURES:0.000=4=4;
#TICKCOUNTS:0.000=4;
#COMBOS:0.000=1;
#SPEEDS:0.000=1.000=0.000=0;
#SCROLLS:0.000=1.000;
#FAKES:;
#LABELS:0.000=Song Start;
#BGCHANGES:;
#KEYSOUNDS:;
#ATTACKS:
;

//---------------dance-single - ----------------
#NOTEDATA:;
#CHARTNAME:;
#STEPSTYPE:dance-single;
#DESCRIPTION:;
#CHARTSTYLE:;
#DIFFICULTY:Challenge;
#METER:15;
#RADARVALUES:0.681854,0.954123,0.340927,0.750040,0.943232,630.000000,585.000000,45.000000,99.000000,56.000000,0.000000,0.000000,0.000000,0.000000,0.681854,0.954123,0.340927,0.750040,0.943232,630.000000,585.000000,45.000000,99.000000,56.000000,0.000000,0.000000,0.000000,0.000000;
#CREDIT:;
#OFFSET:-0.271770;
#BPMS:0.000000=196.000000
,48.000000=98.000000
,56.000000=196.000000
,72.000000=98.000000
,80.000000=196.000000
,144.000000=98.000000
,160.000000=392.000000
,161.000000=196.000000
,161.500000=98.000000
,162.000000=392.000000
,166.500000=196.000000
,166.750000=98.000000
,167.250000=196.000000
,167.500000=392.000000
,169.000000=196.000000
,170.000000=392.000000
,171.000000=196.000000
,176.000000=392.000000
,176.500000=196.000000
,176.750000=98.000000
,177.000000=784.000000
,177.500000=196.000000
,177.625000=98.000000
,178.000000=392.000000
,179.500000=196.000000
,179.750000=98.000000
,180.000000=392.000000
,180.500000=196.000000
,180.750000=98.000000
,181.000000=392.000000
,182.500000=196.000000
,182.750000=98.000000
,183.250000=196.000000
,183.500000=392.000000
,185.000000=196.000000
,186.000000=392.000000
,187.000000=196.000000
,192.000000=392.000000
,193.000000=196.000000
,193.500000=98.000000
,194.000000=392.000000
,198.500000=196.000000
,198.750000=98.000000
,199.250000=196.000000
,199.500000=392.000000
,201.000000=196.000000
,202.000000=392.000000
,203.000000=196.000000
,208.000000=392.000000
,208.500000=196.000000
,208.750000=98.000000
,209.000000=784.000000
,209.500000=196.000000
,209.625000=98.000000
,210.000000=392.000000
,211.500000=196.000000
,211.750000=98.000000
,212.000000=392.000000
,212.500000=196.000000
,212.750000=98.000000
,213.000000=392.000000
,214.500000=196.000000
,214.750000=98.000000
,215.250000=196.000000
,215.500000=392.000000
,216.000000=196.000000
,220.000000=98.000000
,238.000000=196.000000
,254.000000=98.000000
,262.000000=196.000000
,294.000000=98.000000
;
#STOPS:162.000000=0.076531
,162.500000=0.076531
,163.000000=0.076531
,163.500000=0.076531
,164.000000=0.076531
,164.500000=0.076531
,165.000000=0.076531
,165.500000=0.076531
,168.000000=0.076531
,168.500000=0.076531
,170.000000=0.076531
,170.500000=0.076531
,178.000000=0.051018
,178.333328=0.051026
,178.666672=0.051026
,181.000000=0.051018
,181.333328=0.051026
,181.666672=0.051026
,184.000000=0.076531
,184.500000=0.076531
,186.000000=0.076531
,186.500000=0.076531
,194.000000=0.076531
,194.500000=0.076531
,195.000000=0.076531
,195.500000=0.076531
,196.000000=0.076531
,196.500000=0.076531
,197.000000=0.076531
,197.500000=0.076531
,200.000000=0.076531
,200.500000=0.076531
,202.000000=0.076531
,202.500000=0.076531
,210.000000=0.051018
,210.333328=0.051026
,210.666672=0.051026
,213.000000=0.051018
,213.333328=0.051026
,213.666672=0.051026
;
#DELAYS:;
#WARPS:;
#TIMESIGNATURES:0.000000=4=4
;
#TICKCOUNTS:0.000000=4
;
#COMBOS:0.000000=1
;
#SPEEDS:0.000000=1.000000=0.000000=0
,222.000000=0.500000=8.000000=0
,230.000000=2.000000=6.000000=0
;
#SCROLLS:0.000000=1.000000
,159.000000=0.500000
,160.000000=1.000000
,236.000000=0.500000
;
#FAKES:;
#LABELS:0.000000=Song Start
;
#NOTES:
0000
0000
0000
0000
,
0000
0000
0000
0000
,
0000
0000
0000
0000
,
0000
0000
0000
0000
,
0000
0000
0000
0000
,
0000
0000
0000
0000
,
0000
0000
0000
0000
,
0000
0000
0000
0000
,
1000
0000
1000
0010
0000
0010
0100
0000
0100
0001
0000
0001
,
0010
0000
0010
0001
0000
0001
0200
0000
0310
1000
0000
0000
,
0001
0000
0001
0010
0000
0010
0100
0000
0100
1000
0000
1000
,
0001
0000
0100
0010
0000
1000
0100
0000
0000
MMMM
0000
0000
,
1200
0000
0000
0320
0000
0000
0032
0000
0000
0203
0000
0000
2300
0000
0000
0000
0000
0000
3100
0000
0100
0001
0000
0001
,
0020
0000
0000
0230
0000
0000
2300
0000
0000
3200
0000
0000
0302
0000
0000
0000
0000
0000
0103
0000
0100
0010
0000
0010
,
0001
0000
0001
1000
0000
1000
0010
0000
0010
0100
0000
0100
,
0001
0000
0001
0010
0000
0010
2000
0000
3010
0001
0000
0000
,
1000
0000
1000
0010
0000
0010
0100
0000
0100
0001
0000
0001
,
0010
0000
0100
1000
0000
0001
0100
0010
0100
0010
0000
0000
,
1020
0000
0000
0032
0000
0000
2003
0000
0000
3200
0000
0000
0302
0000
0000
0000
0000
0000
1003
0000
1000
0001
0000
0001
,
0020
0000
0000
2030
0000
0000
3002
0000
0000
2003
0000
0000
3020
0000
0000
0000
0000
0000
0031
0000
0001
0100
0000
0100
,
0010
0000
1000
0001
0000
1000
0010
0000
1000
0001
0000
1000
,
0100
0000
0010
0001
0000
1001
0000
M000
0101
0000
0M00
1001
,
0000
M000
0011
0000
MM0M
0010
2000
0000
0000
3100
0000
0000
,
1000
0100
0010
0001
0010
0100
1000
0000
1000
0010
0100
0010
,
1000
0000
0001
0010
0000
0001
1000
0000
0001
0010
0000
0001
,
0100
0000
0001
1000
0000
1100
0000
0M00
1001
0000
000M
1010
,
0000
M0M0
0001
1000
0000
1000
0100
0000
0100
0010
0000
0010
,
0001
0100
0010
1000
0010
0100
0001
0010
0100
2000
0000
0000
,
3001
0000
0100
0010
0000
0100
1000
0000
0100
0010
0000
0100
,
0001
0000
1000
0100
0000
0011
0000
00M0
1100
0000
M000
0101
,
0000
000M
1010
0000
MM0M
0010
0002
0000
0000
0103
0000
0000
,
0001
0010
0100
1000
0010
0100
0001
0000
0010
0001
1000
0010
,
1000
0000
0100
0010
0000
0100
0001
0000
0100
0010
0000
0100
,
1000
0000
0010
1000
0000
0101
0000
000M
1100
0000
M000
0011
,
0000
00MM
1000
0010
0000
1000
0001
0000
1000
0100
0000
0010
,
0001
0110
2002
3003
,
1000
0010
1000
0020
0000
0000
0000
0000
0000
1030
0000
0000
0001
0010
0001
0020
0000
0000
0000
0000
0000
0031
0000
0000
,
0100
0000
0100
0010
0000
0010
2000
0000
0000
3002
0000
0000
0023
0000
0000
0000
0000
0000
0030
0000
0000
0020
0000
0000
,
0031
0100
0010
2000
0000
0000
3010
0000
0000
1010
0000
0000
1000
0100
0010
0002
0000
0000
0013
0000
0000
0011
0000
0000
,
0001
0000
0001
0100
0000
0100
1000
0000
0000
1100
0000
0000
0202
0000
0000
0000
0000
0000
0303
0000
0000
0000
0000
0000
,
2001
0000
0000
0000
3001
0010
0100
0100
,
1000
0010
0100
0010
0002
0000
0023
0000
,
1030
0000
0001
0000
0010
MM0M
0010
0000
1000
0000
0001
0000
0100
M0MM
0100
0000
,
1000
0000
1000
0010
0000
0010
0100
0000
0100
0001
0000
0001
,
2000
0000
0000
0000
0000
3000
0220
0000
0000
0000
0000
0330
0001
0000
0100
0000
0001
0000
0200
0000
0000
0000
0000
0300
,
2002
0000
0000
0000
0000
3003
1000
0000
0100
0000
1000
0000
0020
0000
0000
0000
0000
0000
0032
0000
0000
0000
0000
0000
,
0013
0000
1000
0000
0100
M0MM
0100
0000
0001
0000
1000
0000
0100
M0MM
0100
0000
,
0001
0000
0001
0010
0000
0010
1000
0000
1000
0010
0000
0010
,
0002
0000
0000
0000
1003
0010
0100
0100
,
0001
0010
0100
0010
2000
0000
3020
0000
,
0031
0000
1000
0000
0010
MM0M
0010
0000
0001
0000
1000
0000
0100
M0MM
0100
0000
,
0001
0000
0001
0100
0000
0100
1000
0000
1000
0100
0000
0100
,
0002
0000
0003
0220
0000
0330
1000
0100
1000
0200
0000
0300
,
2002
0000
3003
0001
0100
0001
0020
0000
0000
2030
0000
0000
,
3010
0000
0010
0000
0001
0000
0001
0000
0100
0001
0100
0001
0100
0010
0100
0010
,
2000
0000
0000
3000
1000
0100
0001
0010
,
1000
0100
0001
0010
1000
0100
0001
0010
,
1000
0100
0001
0010
1000
1000
0001
0001
,
1000
0000
0000
1000
0000
0000
0001
0000
0000
0001
0000
1000
0010
1000
0001
0010
0001
1000
0010
1000
0100
0010
0001
0100
,
0020
0000
0000
0030
0000
1000
0010
0100
0001
0010
0000
0000
0001
0000
0000
0000
0001
0000
0010
0000
0000
0000
0010
0000
,
0100
0000
0100
0001
0000
0001
0100
0000
0100
1000
0000
1000
,
0020
0000
0031
0010
0000
0000
1000
0000
1000
0100
0000
0100
,
0010
0000
0010
1000
0000
1000
0010
0000
0100
0010
0000
0001
,
1000
0000
MMMM
0000
0201
2300
3002
0023
,
2030
0000
0000
0000
0000
0000
3001
0000
0001
1000
0000
1000
0200
0000
0000
0302
0000
0000
2003
0000
0000
3002
0000
0000
,
0203
0000
0000
0000
0000
0000
1300
0000
0010
0100
0000
0001
1000
0000
0000
0000
1000
0000
0100
0000
0000
0000
0100
0000
,
0001
0000
0001
0010
0000
0010
1000
0000
1000
0100
0000
0011
,
0000
000M
1010
0000
M000
0101
0000
0M00
0011
0000
MM0M
0010
,
2000
0000
0000
3100
0000
0000
1000
0100
0010
0001
0100
0010
,
1000
0000
0001
0010
0100
1000
0001
0000
0001
0100
0000
0100
,
1000
0000
1000
0010
0000
0010
0001
0000
0001
0100
0000
1010
,
0000
M000
0011
0000
00M0
1100
0000
MM00
0001
0010
0000
0001
,
1000
0000
0001
0100
0000
0010
1000
0000
0000
0110
0000
0000
,
2002
0000
0000
0000
0000
0000
3003
0000
0000
0000
0000
0000
1000
0010
1000
0002
0000
0000
0100
0000
0000
2003
0000
0000
,
3001
0010
0001
2000
0000
0000
0100
0000
0000
3002
0000
0000
0103
0000
0100
1000
0000
1000
0200
0000
0000
0302
0000
0000
,
0023
0000
0000
0130
0000
0000
1100
0000
0000
0011
0000
0000
0001
0100
0010
0200
0000
0000
0010
0000
0000
0302
0000
0000
,
1003
0100
0010
0200
0000
0000
0010
0000
0000
2300
0000
0000
3010
0000
0010
0001
0000
0001
0020
0000
0000
2030
0000
0000
,
3200
0000
0000
0301
0000
0000
0110
0000
0000
1001
0000
0000
1000
0010
0100
0020
0000
0000
0001
0000
0000
0230
0000
0000
,
0301
0010
0100
0020
0000
0000
1000
0000
0000
0130
0000
0000
0010
0000
0010
0001
0000
0001
0200
0000
0000
2300
0000
0000
,
3002
0000
0000
0013
0000
0000
0011
0000
0000
1010
0000
0000
1000
0100
0010
0200
0000
0000
0001
0000
0000
0320
0000
0000
,
0031
0100
0010
0200
0000
0000
1000
0000
0000
0320
0000
0000
1030
0000
1000
0001
0000
0001
1000
0100
0010
0001
0100
0010
,
1000
0110
1001
0000
0000
0000
0000
0000
;

//---------------dance-single - ----------------
#NOTEDATA:;
#CHARTNAME:;
#STEPSTYPE:dance-single;
#DESCRIPTION:;
#CHARTSTYLE:;
#DIFFICULTY:Hard;
#METER:12;
#RADARVALUES:0.581200,0.707897,0.522755,0.553060,0.424265,537.000000,468.000000,69.000000,73.000000,12.000000,0.000000,0.000000,0.000000,0.000000,0.581200,0.707897,0.522755,0.553060,0.424265,537.000000,468.000000,69.000000,73.000000,12.000000,0.000000,0.000000,0.000000,0.000000;
#CREDIT:;
#NOTES:
0000
0000
0000
0000
,
0000
0000
0000
0000
,
0000
0000
0000
0000
,
0000
0000
0000
0000
,
0000
0000
0000
0000
,
0000
0000
0000
0000
,
0000
0000
0000
0000
,
0000
0000
0000
0000
,
1000
1010
0001
0101
,
1000
0000
0000
1010
0000
0001
0010
0000
0010
0001
0000
0000
,
1000
1100
0001
0101
,
1000
0000
0100
0010
0000
0100
0010
0000
0000
MMMM
0000
0000
,
0012
0000
0000
2003
0000
0000
3002
0000
0000
0203
0000
0000
0320
0000
0000
0000
0000
0000
1030
0000
0010
0100
0000
0010
,
0200
0000
0000
0302
0000
0000
2003
0000
0000
3200
0000
0000
0320
0000
0000
0000
0000
0000
0031
0000
1000
0010
0000
1000
,
0010
0101
0010
1100
,
0010
0000
0000
0101
0000
1000
0010
0000
0010
1000
0000
0000
,
0001
0110
1000
0110
,
0001
0000
0010
0100
0000
0010
0100
0000
0000
0110
0000
0000
,
2001
0000
0000
3020
0000
0000
0032
0000
0000
0023
0000
0000
2030
0000
0000
0000
0000
0000
3010
0000
1000
0001
0000
1000
,
0002
0000
0000
0023
0000
0000
2030
0000
0000
3020
0000
0000
0032
0000
0000
0000
0000
0000
0013
0000
0001
1000
0000
1000
,
0001
0000
0100
0001
0000
0000
1000
0000
0100
1000
0000
0000
,
1001
0000
0000
0001
0000
0011
0000
0000
0110
0000
0000
0011
,
0000
0000
1001
0000
0000
0001
0200
0000
0000
0320
0000
0000
,
1030
0000
1000
0100
0000
0100
0010
0000
0010
0001
0000
0000
,
1000
0000
0010
1000
0000
0000
0001
0000
0010
0001
0000
0000
,
1001
0000
0000
1000
0000
1010
0000
0000
0110
0000
0000
1010
,
0000
0000
1000
0001
0000
0001
1000
0000
1000
0100
0000
0000
,
0010
0000
0001
1000
0000
0001
0100
0000
0000
0110
0000
0000
,
1000
0000
0010
0100
0000
0000
0001
0000
0010
0100
0000
0000
,
1100
0000
0000
0001
0000
0101
0000
0000
1001
0000
0000
0011
,
0000
0000
1100
0000
0000
0010
0002
0000
0000
2003
0000
0000
,
3001
0000
0100
0010
0000
0100
0001
0000
0001
1000
0000
1000
,
0001
0000
0010
0100
0000
0000
1000
0000
0010
0100
0000
0000
,
0101
0000
0000
1000
0000
1100
0000
0000
0110
0000
0000
0011
,
0000
0000
0001
0100
0000
0100
0010
0000
0010
1000
0000
0000
,
1001
0110
2002
3003
,
1000
0200
0000
0301
0100
2000
0000
3010
,
0100
0000
0100
0001
0000
0001
1000
0000
0000
0100
0000
0000
0120
0000
0000
0000
0000
0000
0031
0000
0000
1000
0000
0000
,
0100
0020
0001
0031
0100
0020
1000
1030
,
0001
0000
1000
0001
0000
0001
1000
0000
0000
1100
0000
0000
0022
0000
0000
0000
0000
0000
0033
0000
0000
0000
0000
0000
,
1002
0000
0000
0000
1003
0010
0100
0010
,
1000
0010
1000
0100
0020
0000
0032
0000
,
1003
0000
1000
0100
0001
0000
0001
0100
,
1000
1010
0110
0101
,
2000
0000
0000
3010
0000
M0M0
0001
0100
0001
0200
0000
0000
,
0302
0000
0000
1003
0100
1000
0200
0000
0000
0310
0000
0000
,
0001
0000
0100
0001
0010
0000
0100
1000
,
0010
0000
0100
0001
0000
1000
0100
0000
1000
0100
0000
0000
,
2001
0000
0000
0000
3001
0010
0100
0010
,
0001
0010
0001
0100
0020
0000
2030
0000
,
3001
0000
0001
0100
1000
0000
1000
0100
,
0001
0011
1100
1010
,
0002
0000
0000
0013
0000
00MM
1000
0100
1000
0200
0000
0000
,
2300
0000
0000
3001
0100
0001
0200
0000
0000
0310
0000
0000
,
1000
0001
0010
0001
1000
0001
0010
0001
,
0200
0000
0000
0000
0301
0100
1000
0100
,
0001
0010
1000
0010
0001
0100
1000
0100
,
0001
0010
1000
0010
0001
1000
0001
1000
,
0001
0000
0000
1000
0000
0000
0001
0000
0000
1000
0000
0001
0010
0000
0010
0001
0000
0001
1000
0000
1000
0010
0000
0010
,
1000
0000
0100
1001
1000
0000
1010
0000
,
0001
0000
0000
0011
0000
0000
1000
0000
0000
1100
0000
0001
,
0010
0000
0001
0100
0000
0000
0001
0000
0000
0011
0000
0000
,
1000
0000
0000
1010
0000
0000
0001
0000
1000
0100
0000
0010
,
0001
0000
MMMM
0000
1002
0203
2300
3200
,
0302
0000
0000
0000
0000
0000
0013
0000
0100
0010
0000
0100
2000
0000
0000
3020
0000
0000
0032
0000
0000
0023
0000
0000
,
2030
0000
0000
0000
0000
0000
3100
0000
0010
0001
0000
1000
0010
0000
0000
0000
1000
0000
0100
0000
0000
0000
0000
0000
,
0010
0000
0001
0100
0000
0000
1010
0000
0000
0001
0000
0101
,
0000
0000
1010
0000
0000
1100
0000
0000
0011
0000
0000
0001
,
0200
0000
0000
0320
0000
0000
1030
0000
0001
0100
0000
0001
,
1000
0000
1000
0001
0000
0001
0010
0000
0100
1000
0000
0000
,
0010
0000
0100
0001
0000
0000
0101
0000
0000
1000
0000
1100
,
0000
0000
0011
0000
0000
0101
0000
0000
1000
0001
0000
0001
,
1000
0000
1000
0100
0000
0000
1001
0000
0000
0110
0000
0000
,
2002
0000
3003
0000
0001
0200
1000
1300
,
0100
0000
0000
0002
0000
0000
1000
0000
0000
1003
0000
0000
0001
0000
0010
0100
0000
0010
0100
0000
0000
1000
0000
0000
,
0002
0100
0103
0010
1000
0200
0001
0301
,
0100
0000
0000
2000
0000
0000
0001
0000
0000
3001
0000
0000
1000
0000
0010
0100
0000
0010
0100
0000
0000
0001
0000
0000
,
0020
0100
0130
0010
0001
0200
1000
0310
,
1000
0000
0000
0200
0000
0000
0001
0000
0000
0310
0000
0000
0001
0000
1000
0010
0000
0010
0100
0000
0000
0001
0000
0000
,
0020
0130
0110
0100
1000
0020
0001
0130
,
0001
0000
0000
0020
0000
0000
1000
0000
0000
0130
0000
0000
0010
0000
0001
0100
0000
0100
0010
0000
0000
1000
0000
0000
,
1001
0110
1001
0000
0000
0000
0000
0000
;

//---------------dance-single - ----------------
#NOTEDATA:;
#CHARTNAME:;
#STEPSTYPE:dance-single;
#DESCRIPTION:;
#CHARTSTYLE:;
#DIFFICULTY:Medium;
#METER:9;
#RADARVALUES:0.455652,0.677119,0.431841,0.681854,0.102278,421.000000,364.000000,57.000000,90.000000,4.000000,0.000000,0.000000,0.000000,0.000000,0.455652,0.677119,0.431841,0.681854,0.102278,421.000000,364.000000,57.000000,90.000000,4.000000,0.000000,0.000000,0.000000,0.000000;
#CREDIT:;
#NOTES:
0000
0000
0000
0000
,
0000
0000
0000
0000
,
0000
0000
0000
0000
,
0000
0000
0000
0000
,
0000
0000
0000
0000
,
0000
0000
0000
0000
,
0000
0000
0000
0000
,
0000
0000
0000
0000
,
0001
0010
0100
0010
,
0001
0100
1000
0100
,
0001
0010
0100
0010
,
0001
0001
0001
0000
,
2001
3200
0320
0032
0203
0000
0310
1000
,
0002
0203
0320
2030
3200
0000
0310
0001
,
1000
0010
0100
0010
,
1000
0100
0001
0100
,
1000
0010
0100
0010
,
1000
1000
1000
0110
,
1002
0203
2300
3200
0302
0000
1003
0001
,
2000
3200
0302
0203
2300
0000
3001
1000
,
0100
0010
0001
0100
,
1010
0000
0000
0001
0000
0011
0000
0000
1001
0000
0000
0101
,
0000
0000
1001
0000
0000
0001
0020
0000
0000
0130
0000
0000
,
2000
3020
0032
0023
,
0130
0010
1000
0100
,
0011
0000
0000
1000
0000
1010
0000
0000
1001
0000
0000
1100
,
0000
0000
0001
0010
0000
0000
0001
0000
0000
1000
0000
0000
,
0020
0000
0030
1001
,
0001
0010
1000
0010
,
0011
0000
0000
1000
0000
1010
0000
0000
0101
0000
0000
1010
,
0000
0000
1001
0000
0000
0001
0020
0000
0000
0130
0000
0000
,
0002
0203
0320
0032
,
1003
0010
0001
0010
,
1010
0000
0000
0001
0000
0011
0000
0000
1100
0000
0000
0011
,
0000
0000
0001
0100
0000
0000
0010
0000
0000
1000
0000
0000
,
1001
0110
2002
3003
,
2000
0200
3300
0010
0002
0200
0303
0001
,
0100
1000
0100
0001
0020
0000
0130
1000
,
0002
0100
0103
0001
2000
0100
3100
1000
,
0010
0100
0001
1000
0220
0000
0330
0000
,
2002
3003
1000
0100
,
0010
0001
0010
0001
2000
0000
3002
0000
,
1003
0010
1000
0000
0001
0010
0001
0000
,
0100
1000
0100
0001
,
1001
M01M
2001
3200
,
2300
3010
1002
0203
,
0301
0000
0010
0100
0010
0000
0001
1000
,
0001
0100
0010
1000
,
2002
3003
0001
0100
,
0010
1000
0010
1000
0002
0000
2003
0000
,
3001
0010
0001
0000
1000
0010
1000
0000
,
0100
0001
0100
1000
,
1001
M01M
1002
0203
,
0302
0013
2001
3200
,
1300
0000
0010
0100
0010
0100
0010
0000
,
2002
0000
0000
3003
1000
0000
0100
0000
,
0001
0010
1000
0100
,
0001
0010
1000
1000
,
0001
0000
0001
0000
1000
0100
0001
0010
,
1000
0000
0000
1001
0001
0000
0010
0000
,
1000
0001
0100
1000
,
0010
0001
0010
1000
,
0100
0010
0001
0001
,
0001
0000
0000
0000
2001
3020
0032
0023
,
2030
0000
3100
0010
0002
0023
2030
3020
,
0032
0000
0103
0010
1000
0000
0100
0000
,
0001
0000
0000
0100
0000
0000
1100
0000
0000
0001
0000
0101
,
0000
0000
1010
0000
0000
0101
0000
0000
0011
0000
0000
1000
,
0200
0301
2000
3020
,
0032
2003
3001
0100
,
1000
0000
0000
0100
0000
0000
0101
0000
0000
1000
0000
1100
,
0000
0000
0011
0000
0000
1100
0000
0000
1000
0010
0000
0000
,
0100
0001
1001
0110
,
2002
0000
3003
0000
1000
0200
0010
0310
,
0100
2000
0010
3010
0100
1000
0100
0010
,
2000
0001
3001
0010
0001
0200
0010
0310
,
0100
0002
0010
0013
1000
0010
0001
0100
,
0020
1000
1030
0001
1000
1200
0010
0310
,
0001
0201
0010
0310
0100
1000
0100
0001
,
2001
0100
3100
0010
0001
0201
0010
0301
,
1000
1200
0010
1300
0100
0010
0001
0100
,
1001
0110
1001
0000
0000
0000
0000
0000
;

//---------------dance-single - ----------------
#NOTEDATA:;
#CHARTNAME:;
#STEPSTYPE:dance-single;
#DESCRIPTION:;
#CHARTSTYLE:;
#DIFFICULTY:Easy;
#METER:7;
#RADARVALUES:0.326857,0.461672,0.159099,0.431841,0.000000,302.000000,281.000000,21.000000,57.000000,2.000000,0.000000,0.000000,0.000000,0.000000,0.326857,0.461672,0.159099,0.431841,0.000000,302.000000,281.000000,21.000000,57.000000,2.000000,0.000000,0.000000,0.000000,0.000000;
#CREDIT:;
#NOTES:
0000
0000
0000
0000
,
0000
0000
0000
0000
,
0000
0000
0000
0000
,
0000
0000
0000
0000
,
0000
0000
0000
0000
,
0000
0000
0000
0000
,
0000
0000
0000
0000
,
0000
0000
0000
0000
,
1000
1000
0010
0010
,
1000
0001
0020
0030
,
0001
0001
0010
0010
,
0100
1000
0001
0000
,
0201
0000
0320
0000
2030
0000
3001
0001
,
2000
0000
3200
0000
0320
0000
0031
0001
,
1000
1000
0100
0100
,
1000
0010
0200
0300
,
0001
0001
0100
0100
,
0001
1000
0100
0000
,
0021
0000
0230
0000
2300
0000
3001
0001
,
2000
0000
3020
0000
0230
0000
0301
0001
,
1000
0010
0100
0010
,
1000
0000
0001
0000
,
1000
1000
0100
0100
,
0010
0001
1000
0000
,
0001
0010
0100
0010
,
0001
0000
1000
0000
,
0001
0001
0100
0100
,
0020
2030
0002
3003
,
1000
0100
0010
0100
,
1000
0000
1000
0000
,
0010
0010
1000
1000
,
0100
0010
0001
0000
,
0001
0100
0010
0100
,
0001
0000
0001
0000
,
0010
0010
0100
0100
,
1000
0001
1001
0000
,
2000
3100
0020
0031
,
1000
0010
0100
0010
2000
0000
3010
0100
,
0002
0013
0200
1300
,
0001
0100
0010
1000
0200
0000
0300
0000
,
0220
0030
1000
1300
,
0001
0100
0220
0330
,
1010
0000
0011
0000
,
1000
0100
0010
0001
,
1002
M000
1003
0001
,
0010
0100
2200
3300
,
1001
0000
0110
0000
,
1000
0001
0100
0010
,
0220
0030
0001
0301
,
1000
0100
0220
0330
,
0011
0000
1010
0000
,
0001
0100
0010
1000
,
2001
000M
3001
1000
,
0010
0100
0202
0303
,
1000
0100
1000
0100
,
2002
3003
1000
0001
,
1000
0001
1000
0001
,
1000
0001
1000
1000
,
0001
0000
0001
0000
1000
0001
1000
0001
,
1000
0000
0001
0001
,
0010
0010
0100
1000
,
0020
0030
1000
1000
,
0010
0010
0100
0001
,
1000
0000
1200
0302
,
0203
0000
1300
1000
0020
0000
0032
0000
,
0023
0000
1030
1000
0001
0000
0010
0000
,
0100
0010
1000
0000
,
1000
0000
0010
0010
,
0001
0001
0100
0010
,
1000
0000
1000
0010
,
0100
0010
0001
0000
,
0001
0000
0010
0010
,
1000
1000
0100
0010
,
0110
0000
2000
3100
,
0002
0000
0103
0000
1000
0010
0100
0010
,
2000
0000
3100
0010
0002
0000
0013
0000
,
2000
0000
3010
0000
0001
0100
0010
1000
,
0200
0000
0310
0010
0001
0200
1000
0300
,
1000
0200
0001
0300
0001
0100
0010
1000
,
0002
0000
1003
0001
1000
0200
0001
0300
,
0001
0200
1000
0300
1000
0001
0100
0000
,
0010
0010
0110
0000
0000
0000
0000
0000
;

//---------------dance-single - ----------------
#NOTEDATA:;
#CHARTNAME:;
#STEPSTYPE:dance-single;
#DESCRIPTION:;
#CHARTSTYLE:;
#DIFFICULTY:Beginner;
#METER:4;
#RADARVALUES:0.188322,0.274446,0.037881,0.189404,0.000000,174.000000,169.000000,5.000000,25.000000,0.000000,0.000000,0.000000,0.000000,0.000000,0.188322,0.274446,0.037881,0.189404,0.000000,174.000000,169.000000,5.000000,25.000000,0.000000,0.000000,0.000000,0.000000,0.000000;
#CREDIT:;
#OFFSET:-0.271770;
#BPMS:0.000000=196.000000
;
#STOPS:;
#DELAYS:;
#WARPS:;
#TIMESIGNATURES:0.000000=4=4
;
#TICKCOUNTS:0.000000=4
;
#COMBOS:0.000000=1
;
#SPEEDS:0.000000=1.000000=0.000000=0
;
#SCROLLS:0.000000=1.000000
;
#FAKES:;
#LABELS:0.000000=Song Start
;
#NOTES:
0000
0000
0000
0000
,
0000
0000
0000
0000
,
0000
0000
0000
0000
,
0000
0000
0000
0000
,
0000
0000
0000
0000
,
0000
0000
0000
0000
,
0000
0000
0000
0000
,
0000
0000
0000
0000
,
1000
0000
0010
0000
,
1000
1000
1000
0000
,
0001
0000
0010
0000
,
0001
0001
0001
0000
,
0100
0000
0100
0000
,
0200
0000
0300
0000
,
0010
0000
0010
0000
,
0020
0000
0030
0000
,
1000
0000
0100
0000
,
1000
1000
1000
0000
,
0001
0000
0100
0000
,
0001
0001
0001
0000
,
0010
0000
0010
0000
,
0020
0000
0030
0000
,
0100
0000
0100
0000
,
0200
0000
0300
0000
,
1000
0000
1000
0000
,
0001
0000
0001
0000
,
0100
0000
0100
0000
,
0010
0010
0010
0000
,
0100
0000
0100
0000
,
0001
0000
0001
0000
,
1000
0000
0100
0000
,
0010
0010
0010
0000
,
0001
0000
0001
0000
,
0100
0000
0100
0000
,
0010
0000
0010
0000
,
1000
1000
1000
0000
,
0100
0000
0100
0000
,
0010
0000
0010
0000
,
0001
0000
0100
0000
,
0010
0010
0010
0000
,
2000
0000
3000
0000
,
0200
0000
0300
0000
,
1000
0000
0010
0000
,
2000
0000
3000
0000
,
0002
0000
0003
0000
,
0020
0000
0030
0000
,
0001
0000
0100
0000
,
0002
0000
0003
0000
,
1001
0000
1000
0000
,
0100
0100
0100
0000
,
0001
0000
0001
0000
,
0100
0000
1000
0000
,
1001
0000
1000
0000
,
0010
0010
0010
0000
,
1000
0000
0001
0000
,
1000
0000
0100
0000
,
1001
0000
0001
0000
,
0100
0100
0100
0000
,
1000
0000
1000
0000
,
0100
0000
0001
0000
,
1001
0000
0001
0000
,
0010
0010
0010
0000
,
0001
0000
1000
0000
,
2002
0000
0000
0000
,
3003
0000
0000
0000
,
0000
0000
0000
0000
,
0000
0000
0000
0000
,
0000
0000
0000
0000
,
0000
0000
0000
0000
,
0000
0000
0000
0000
,
0000
0000
0000
0000
,
0000
0000
0000
0000
,
0001
0000
0010
0000
,
0100
0100
0100
0000
,
1000
0000
0010
0000
,
0100
0100
0100
0000
,
0001
0000
0001
0000
,
0002
0000
0003
0000
,
1000
0000
1000
0000
,
2000
0000
3000
0000
,
0001
0000
0010
0000
,
0001
0000
0010
0000
,
0100
0000
1000
0000
,
0001
0001
0001
0000
,
1000
0000
0010
0000
,
1000
0000
0010
0000
,
1000
0000
0001
0000
,
0010
0010
0010
0000
,
0002
0000
0003
0000
,
2000
0000
3000
0000
,
0010
0000
0100
0000
,
0020
0000
0030
0000
,
2000
0000
3000
0000
,
0002
0000
0003
0000
,
0010
0000
0100
0000
,
0020
0000
0030
0000
,
0002
0000
0003
0000
,
0200
0000
0300
0000
,
1000
0000
0010
0000
,
0002
0000
0003
0000
,
2000
0000
3000
0000
,
0200
0000
0300
0000
,
0001
0000
0010
0000
,
1000
1000
1000
0000
;
