#TITLE:Chloe;
#SUBTITLE:;
#ARTIST:DJ Totoriott;
#TITLETRANSLIT:;
#SUBTITLETRANSLIT:;
#ARTISTTRANSLIT:;
#GENRE:World Fantasy;
#CREDIT:;
#BANNER:Chloe.png;
#BACKGROUND:Chloe-bg.png;
#LYRICSPATH:;
#CDTITLE:cdtitle.png;
#MUSIC:Chloe.ogg;
#OFFSET:1.134405;
#SAMPLESTART:70.115593;
#SAMPLELENGTH:13.636362;
#LASTBEATHINT:0.385449;
#SELECTABLE:YES;
#BPMS:0.000000=176.000000
;
#STOPS:
;
#BGCHANGES:;
#KEYSOUNDS:;
#ATTACKS:;

//---------------dance-single - ----------------
#NOTES:
     dance-single:
     :
     Challenge:
     15:
     0.697900,0.950690,0.367251,0.572229,0.362981,572.000000,529.000000,43.000000,67.000000,0.000000,0.000000,0.697900,0.950690,0.367251,0.572229,0.362981,572.000000,529.000000,43.000000,67.000000,0.000000,0.000000:
// measure 0
0000
0000
0000
0000
,  // measure 1
0000
0000
0000
0000
,  // measure 2
0000
0000
0000
0000
,  // measure 3
0000
0000
0000
0000
,  // measure 4
0000
0000
0000
0000
,  // measure 5
0000
0000
0000
0000
,  // measure 6
0101
0000
0001
0000
0101
0000
0000
0000
0001
0000
0100
0000
0010
0000
1000
0001
,  // measure 7
1000
0100
1100
1000
1100
0000
1000
0100
,  // measure 8
0010
0001
0010
0001
0100
0010
1000
0000
1001
0000
0001
0000
1001
0000
0000
0000
,  // measure 9
1000
0000
0100
0000
0010
0000
0001
1000
0001
0000
0100
0010
1000
0010
1000
0010
,  // measure 10
1000
0000
0001
0000
0010
0000
0001
0000
0100
0000
0001
1000
0100
0000
0010
0000
,  // measure 11
0012
0000
0000
0010
0000
0010
2003
0000
,  // measure 12
3200
0000
0000
0000
0320
0000
0000
0000
0000
0000
0130
0000
1000
0001
1000
0001
,  // measure 13
0100
0000
0001
0000
1000
0000
0010
0000
0200
0000
0000
0000
0000
0000
0301
0100
,  // measure 14
0001
0100
0010
1000
0100
0010
0002
0000
,  // measure 15
0000
0000
0013
0100
0010
0000
0001
0000
1000
0000
0000
0000
0001
0000
0100
0000
,  // measure 16
1020
0000
0000
0100
0000
0100
2030
0000
,  // measure 17
3020
0000
0000
0000
0230
0000
0000
0000
0000
0000
0310
0000
1000
0001
1000
0001
,  // measure 18
0010
0100
0010
0001
2000
0000
0000
3100
,  // measure 19
0001
0100
0010
0001
0100
0010
2000
0000
,  // measure 20
0000
0000
3001
0000
0020
0000
0000
0000
0130
0000
0000
0100
0010
0000
0001
0000
,  // measure 21
2001
0000
0000
0010
0000
0010
3002
0000
,  // measure 22
0203
0000
0000
0000
0320
0000
0000
0000
0000
0000
0130
0000
0001
1000
0001
1000
,  // measure 23
0100
0000
1000
0000
0001
0000
0010
0000
0200
0000
0000
0000
0000
0000
1300
0100
,  // measure 24
1000
0100
0010
0001
0100
0010
2000
0000
,  // measure 25
0000
0000
3010
0100
0010
0000
1000
0000
0001
0000
0000
0000
1000
0000
0100
0000
,  // measure 26
0021
0000
0000
0100
0000
0100
0032
0000
,  // measure 27
0023
0000
0000
0000
0230
0000
0000
0000
0000
0000
0310
0000
0001
1000
0001
1000
,  // measure 28
0010
0100
0010
1000
0002
0000
0000
0103
,  // measure 29
1000
0100
0010
1000
0100
0010
0002
0000
,  // measure 30
0000
0013
1000
0010
0001
1000
0100
0010
,  // measure 31
0011
0000
0000
0000
0011
0000
0000
0000
1000
0000
0001
0000
0100
0001
0100
0001
,  // measure 32
0100
0010
0100
0010
1000
0000
0000
0000
1010
0000
0000
0000
0001
0000
0010
0000
,  // measure 33
0100
0000
0000
0000
0010
0000
0000
0000
0010
0001
0000
0000
0000
0000
0000
0000
1100
0000
0000
0000
0000
0000
0000
0000
1100
0000
0000
0000
0000
0000
0000
0000
,  // measure 34
0001
0000
0100
0000
0010
1000
0010
1000
0001
0010
0001
0010
0200
0000
0000
0310
,  // measure 35
0001
0000
0100
0000
0010
0000
1000
0000
0100
0010
0100
1000
0001
1000
0010
0100
,  // measure 36
0010
0000
0000
0000
1010
0000
0000
0000
0001
0000
1000
0000
0100
1000
0100
1000
,  // measure 37
0100
0010
0100
0010
0001
0000
0000
0000
0011
0000
0000
0000
1000
0000
0010
0000
,  // measure 38
0100
0000
0000
0000
0010
0000
0000
0000
0010
1000
0000
0000
0000
0000
0000
0000
0101
0000
0000
0000
0000
0000
0000
0000
0101
0000
0000
0000
0000
0000
0000
0000
,  // measure 39
1000
0000
0100
0000
0010
0001
0010
0001
1000
0010
1000
0010
0100
0000
0001
1000
,  // measure 40
0001
0000
0010
0000
1000
0000
0010
0000
0001
0010
0001
1000
0010
1000
0001
0010
,  // measure 41
0002
0000
0000
1000
0000
0000
1000
0000
,  // measure 42
1003
0000
0102
0000
0000
0100
0000
0000
,  // measure 43
0203
0000
2300
0000
3200
0000
0000
0001
,  // measure 44
0000
0001
0301
0120
,  // measure 45
0000
0000
1000
0000
0000
0000
0000
0000
1030
0000
0010
0000
1000
0001
0010
0100
,  // measure 46
2000
0000
0000
0001
0000
0000
0001
0000
,  // measure 47
3001
0000
2100
0000
0000
3100
0002
0000
,  // measure 48
0203
0000
0000
0000
2300
0000
0000
0000
3001
0100
0010
1000
0002
0000
0100
0000
,  // measure 49
0000
0000
0000
0000
0103
0000
0001
1000
0001
0000
1000
0000
0200
0000
0000
0000
,  // measure 50
0310
0100
0010
0001
1001
0000
2002
0000
,  // measure 51
3003
0000
0000
0000
,  // measure 52
0000
0000
0000
1000
0100
0000
0010
0000
0021
0000
0000
0000
0000
0000
0100
0000
,  // measure 53
0000
0100
2030
0000
3020
0000
0032
0000
,  // measure 54
0000
0000
1003
0000
0001
0100
0010
1000
0100
0000
0010
0000
0001
0000
0100
0000
,  // measure 55
2000
0000
0000
0000
0000
0000
3100
1000
0100
0000
0001
0000
0010
0000
1000
0000
,  // measure 56
0010
0000
0001
0000
2000
0000
0000
0000
0000
0000
3100
0010
0001
0000
1000
0000
,  // measure 57
0010
0000
1000
0010
0201
0000
0000
0010
,  // measure 58
0000
0010
2300
0000
3200
0000
0302
0000
,  // measure 59
0000
0000
1003
0000
0100
0010
0001
0100
0010
0000
0100
0000
1000
0000
0100
0000
,  // measure 60
0002
0000
0000
1003
0100
0001
1000
0010
,  // measure 61
0001
1000
0200
0000
0000
0310
0011
0000
,  // measure 62
1100
0000
0000
0001
0100
0000
0010
0000
1020
0000
0000
0000
0000
0000
0100
0000
,  // measure 63
0000
0100
0032
0000
0023
0000
2030
0000
,  // measure 64
0000
0000
3001
0000
1000
0100
0010
0001
0100
0000
0010
0000
1000
0000
0100
0000
,  // measure 65
0002
0000
0000
0000
0000
0000
0103
0001
0100
0000
1000
0000
0010
0000
0001
0000
,  // measure 66
0010
0000
1000
0000
0002
0000
0000
0000
0000
0000
0103
0010
1000
0000
0001
0000
,  // measure 67
0010
0000
0001
0010
1200
0000
0000
0010
,  // measure 68
0000
0010
0302
0000
0203
0000
2300
0000
,  // measure 69
0000
0000
3001
0000
0100
0010
1000
0100
0010
0000
0100
0000
0001
0000
0100
0000
,  // measure 70
2000
0000
0000
3001
0100
1000
0001
0010
,  // measure 71
1000
0000
0100
0000
0120
0000
0000
0000
0000
0000
0130
1000
0001
0000
1000
0000
,  // measure 72
0010
0001
0010
1000
1010
0100
1010
0000
,  // measure 73
0001
0000
0100
0000
0010
0000
1000
0100
1000
0000
0100
0000
0011
0000
0100
0000
,  // measure 74
0011
0000
0000
0000
1000
0000
0010
0000
0100
0001
0100
0001
1000
0100
1000
0000
,  // measure 75
1001
0000
0100
0000
1001
0000
0000
0000
1000
0000
0010
0000
0100
0000
0001
0010
,  // measure 76
0001
0000
1000
0010
0100
0000
0010
1000
0010
0000
1000
0000
0001
0000
0010
0000
,  // measure 77
0100
0001
0100
1000
1100
0010
1100
0000
,  // measure 78
1000
0000
0100
0000
0010
0000
0001
1000
0001
0000
0100
0000
0101
0000
0010
0000
,  // measure 79
0101
0000
0000
0000
0001
0000
0100
0000
0010
1000
0010
1000
0100
0010
0001
0000
,  // measure 80
1001
0000
0100
0000
1001
0000
0000
0000
0001
0000
0100
0000
0010
0000
1000
0001
,  // measure 81
1000
0000
0100
0010
0001
0010
0001
0010
0001
0000
1000
0000
0010
0000
1000
0000
,  // measure 82
0100
0001
0200
0000
2000
0000
0000
0000
,  // measure 83
0000
0000
0000
0000
,  // measure 84
0000
0000
0300
0000
,  // measure 85
0000
0000
0000
0000
0000
3000
0000
0000
;

//---------------dance-single - ----------------
#NOTES:
     dance-single:
     :
     Hard:
     11:
     0.522205,0.658170,0.196437,0.555148,0.000000,428.000000,405.000000,23.000000,65.000000,0.000000,0.000000,0.522205,0.658170,0.196437,0.555148,0.000000,428.000000,405.000000,23.000000,65.000000,0.000000,0.000000:
// measure 0
0000
0000
0000
0000
,  // measure 1
0000
0000
0000
0000
,  // measure 2
0000
0000
0000
0000
,  // measure 3
0000
0000
0000
0000
,  // measure 4
0000
0000
0000
0000
,  // measure 5
0000
0000
0000
0000
,  // measure 6
1000
0001
0001
0000
1000
0010
0100
0010
,  // measure 7
1000
0000
0001
0010
0010
0000
0001
0010
,  // measure 8
0100
0010
0001
0000
1000
0010
0010
0000
,  // measure 9
1000
0001
0010
0001
1000
0000
0001
0100
,  // measure 10
0001
1000
0100
1000
0001
0000
0110
0000
,  // measure 11
1002
0000
0000
0010
0000
0013
0200
0000
,  // measure 12
2300
0000
3002
0000
0000
1003
0010
0000
,  // measure 13
0100
0001
0100
0001
2000
0000
0000
3001
,  // measure 14
0010
0000
0100
1000
0100
1000
0002
0000
,  // measure 15
0000
0013
0001
1000
0010
0000
0010
0100
,  // measure 16
0020
0000
0000
1000
0000
1030
0002
0000
,  // measure 17
0023
0000
0230
0000
0000
1300
0001
0000
,  // measure 18
0100
0010
0100
0010
2000
0000
0000
3001
,  // measure 19
1000
0000
0100
0010
0100
0010
0002
0000
,  // measure 20
0000
1003
0001
0000
0101
0000
0100
0010
,  // measure 21
2000
0000
0000
0010
0000
3010
0200
0000
,  // measure 22
0302
0000
2003
0000
0000
3001
0010
0000
,  // measure 23
0100
1000
0100
1000
0002
0000
0000
1003
,  // measure 24
0010
0000
0100
0001
0100
0001
2000
0000
,  // measure 25
0000
3010
1000
0001
0010
0000
0010
0100
,  // measure 26
0020
0000
0000
0001
0000
0031
2000
0000
,  // measure 27
3020
0000
0230
0000
0000
0301
1000
0000
,  // measure 28
0100
0010
0100
0010
0002
0000
0000
1003
,  // measure 29
0001
0000
1000
0010
0100
0001
2000
0000
,  // measure 30
0000
3001
1000
0000
0001
0010
0001
1000
,  // measure 31
1010
0000
1010
0000
1000
0010
0100
0010
,  // measure 32
0100
0010
1010
0000
1010
0000
0001
0010
,  // measure 33
0100
0010
0001
0000
1010
0000
1010
0000
,  // measure 34
1000
0001
0100
0001
0100
0001
1001
0000
,  // measure 35
0001
0100
0010
1000
0100
0010
0001
0000
,  // measure 36
0011
0000
0011
0000
0001
0010
0100
0010
,  // measure 37
0100
0010
0011
0000
0011
0000
1000
0010
,  // measure 38
0100
0010
1000
0000
0011
0000
0011
0000
,  // measure 39
0001
1000
0100
1000
0100
1000
1001
0000
,  // measure 40
1000
0010
1000
0010
0100
0001
1000
0001
,  // measure 41
0020
0000
0000
0100
0000
0000
0100
0000
,  // measure 42
0100
0000
0032
0000
0000
0010
0000
0000
,  // measure 43
2003
0000
3002
0000
0203
0000
0000
0010
,  // measure 44
0000
0010
0010
0302
,  // measure 45
0000
0100
0000
0000
0103
0000
0001
0100
,  // measure 46
0020
0000
0000
0100
0000
0000
0100
0000
,  // measure 47
0100
0000
2030
0000
0000
3010
2000
0000
,  // measure 48
3002
0000
2003
0000
3100
0010
0200
0000
,  // measure 49
0000
0000
0310
0100
0010
0001
2000
0000
,  // measure 50
0000
3001
0000
0000
1001
0000
2002
0000
,  // measure 51
3003
0000
0000
0000
,  // measure 52
0000
0000
0001
0100
0020
0000
0000
1000
,  // measure 53
0000
1030
0020
0000
0032
0000
0023
0000
,  // measure 54
0000
1030
0010
0000
0100
0001
1000
0001
,  // measure 55
0020
0000
0000
0031
0010
0000
0100
1000
,  // measure 56
0001
1000
0020
0000
0000
0130
0001
1000
,  // measure 57
0100
0000
0100
0010
0200
0000
0000
1000
,  // measure 58
0000
1300
0200
0000
0302
0000
0203
0000
,  // measure 59
0000
1300
0100
0000
0010
0100
1000
0001
,  // measure 60
0200
0000
0000
0301
0100
0000
0010
0100
,  // measure 61
0001
1000
0200
0000
0000
0310
0001
0000
,  // measure 62
1001
0000
1000
0100
0020
0000
0000
0001
,  // measure 63
0000
0031
0020
0000
2030
0000
3020
0000
,  // measure 64
0000
0031
0010
0000
0100
1000
0001
1000
,  // measure 65
0020
0000
0000
1030
0010
0000
0100
0001
,  // measure 66
1000
0001
0020
0000
0000
0130
1000
0001
,  // measure 67
0100
0000
0100
0010
0200
0000
0000
0001
,  // measure 68
0000
0301
0200
0000
2300
0000
3200
0000
,  // measure 69
0000
0301
0100
0000
0010
0100
0001
1000
,  // measure 70
0200
0000
0000
0310
0100
0000
1000
0100
,  // measure 71
0010
0100
0002
0000
0000
0103
1000
0001
,  // measure 72
0100
0010
1000
0000
0001
0010
0010
0000
,  // measure 73
0100
0010
0100
1000
0100
0000
1000
0010
,  // measure 74
0010
0000
0100
0001
1000
0001
0010
0000
,  // measure 75
0100
1000
1000
0000
0001
0100
0010
0100
,  // measure 76
0001
0000
1001
0000
1000
0010
0100
0001
,  // measure 77
1000
0100
0010
0000
0001
1000
1000
0000
,  // measure 78
0001
0100
0001
0010
0001
0000
1000
0001
,  // measure 79
0001
0000
1000
0100
0010
0001
0100
0000
,  // measure 80
0010
0100
0100
0000
0010
1000
0100
1000
,  // measure 81
0010
0000
1000
0100
0010
0001
0100
0010
,  // measure 82
1000
1001
0220
0000
,  // measure 83
0000
0000
0000
0000
,  // measure 84
0000
0000
0300
0000
,  // measure 85
0000
0000
0000
0000
0000
0030
0000
0000
;

//---------------dance-single - ----------------
#NOTES:
     dance-single:
     :
     Medium:
     8:
     0.397754,0.548475,0.247681,0.555148,0.000000,326.000000,297.000000,29.000000,65.000000,0.000000,0.000000,0.397754,0.548475,0.247681,0.555148,0.000000,326.000000,297.000000,29.000000,65.000000,0.000000,0.000000:
// measure 0
0000
0000
0000
0000
,  // measure 1
0000
0000
0000
0000
,  // measure 2
0000
0000
0000
0000
,  // measure 3
0000
0000
0000
0000
,  // measure 4
0000
0000
0000
0000
,  // measure 5
0000
0000
0000
0000
,  // measure 6
1000
0000
1000
0000
0010
0000
1000
0010
,  // measure 7
0100
0001
0001
0010
,  // measure 8
0100
1000
0001
0000
0100
0000
0100
0000
,  // measure 9
0001
0000
0100
0001
0010
0000
1100
0000
,  // measure 10
0000
0101
0000
0000
1100
0000
0010
0000
,  // measure 11
1002
0000
0000
0100
0000
0000
2003
0000
,  // measure 12
3020
0000
2030
0000
0000
0000
3100
0010
,  // measure 13
0001
0010
0002
0000
,  // measure 14
0103
0010
1000
0000
0010
0000
2000
0000
,  // measure 15
0000
0000
3001
1000
0001
0000
0010
0000
,  // measure 16
1002
0000
0000
0010
0000
0000
2003
0000
,  // measure 17
3200
0000
2300
0000
0000
0000
3001
0100
,  // measure 18
0010
0100
0020
0000
,  // measure 19
1030
0100
0010
0000
0001
0000
2000
0000
,  // measure 20
0000
0000
3001
0000
1001
0000
1000
0010
,  // measure 21
2000
0000
0000
0100
0000
0000
3002
0000
,  // measure 22
0023
0000
0032
0000
0000
0000
0103
0010
,  // measure 23
1000
0010
2000
0000
,  // measure 24
3100
0010
0001
0000
0010
0000
0002
0000
,  // measure 25
0000
0000
1003
0001
1000
0000
0010
0000
,  // measure 26
2001
0000
0000
0010
0000
0000
3002
0000
,  // measure 27
0203
0000
0302
0000
0000
0000
1003
0100
,  // measure 28
0010
0100
0020
0000
,  // measure 29
0130
1000
0010
0000
0100
0000
0002
0000
,  // measure 30
0000
0000
0103
0001
0010
0000
0100
0000
,  // measure 31
0011
0000
0011
0000
0100
0000
0010
0100
,  // measure 32
0010
1100
1100
0010
,  // measure 33
0001
0100
0010
0000
0101
0000
0101
0000
,  // measure 34
1000
0000
0010
1000
0010
0000
1000
0000
,  // measure 35
0100
0010
0001
0000
0100
0010
1000
0000
,  // measure 36
1010
0000
1010
0000
0100
0000
0010
0100
,  // measure 37
0010
0101
0101
0010
,  // measure 38
1000
0100
0010
0000
1100
0000
1100
0000
,  // measure 39
0001
0000
0010
0001
0010
0000
0001
0000
,  // measure 40
0100
0010
1000
0000
0100
0010
0001
0000
,  // measure 41
1002
0000
0000
0000
,  // measure 42
0000
0203
0000
0000
,  // measure 43
0320
2030
3200
0000
,  // measure 44
0000
0000
0000
0320
,  // measure 45
0000
0000
0000
0000
0000
0000
0031
1000
,  // measure 46
0020
0000
0000
0000
,  // measure 47
0000
2030
0000
3002
,  // measure 48
0023
0000
0230
0000
1300
0100
2000
0000
,  // measure 49
0000
0000
0000
3001
0100
0001
0200
0000
,  // measure 50
0000
0310
1001
2002
,  // measure 51
3003
0000
0000
0000
,  // measure 52
0000
0000
1000
0010
2000
0000
0000
0010
,  // measure 53
0000
3002
0203
2300
,  // measure 54
0000
0000
3100
0010
1000
0000
0010
0000
,  // measure 55
2000
0000
0000
0000
3100
0010
0001
0000
,  // measure 56
0010
0000
0002
0000
0000
0000
1003
0001
,  // measure 57
0100
0000
0010
0000
2010
0000
0000
0100
,  // measure 58
0000
3002
0023
2030
,  // measure 59
0000
0000
3010
0001
1000
0000
0001
0000
,  // measure 60
0200
0000
0000
0000
0310
1000
0001
0000
,  // measure 61
1000
0200
0000
0310
,  // measure 62
1100
0000
0001
0010
0002
0000
0000
0010
,  // measure 63
0000
2003
3200
0302
,  // measure 64
0000
0000
0103
0010
0001
0000
0010
0000
,  // measure 65
0002
0000
0000
0000
0103
0010
1000
0000
,  // measure 66
0010
0000
2000
0000
0000
0000
3001
1000
,  // measure 67
0100
0000
0010
0000
0012
0000
0000
0100
,  // measure 68
0000
2003
3020
0032
,  // measure 69
0000
0000
0013
1000
0001
0000
1000
0000
,  // measure 70
0200
0000
0000
0000
1300
0100
0001
0000
,  // measure 71
0100
0000
2000
0000
0000
0000
3001
0100
,  // measure 72
0010
1000
0001
0000
1000
0000
1000
0000
,  // measure 73
0010
0000
1000
0010
0100
0000
0001
0000
,  // measure 74
0001
0000
0010
0000
0100
1000
0001
0000
,  // measure 75
0100
0000
0100
0000
0001
0000
0100
0001
,  // measure 76
0010
0000
0100
0000
1000
0001
1000
0000
,  // measure 77
0010
0100
0001
0001
,  // measure 78
0010
0000
0001
0010
0100
0000
1000
0000
,  // measure 79
1000
0000
0010
0000
0100
0001
1000
0000
,  // measure 80
0100
0000
0100
0000
1000
0000
0100
1000
,  // measure 81
0010
0000
0101
0000
0000
1100
0000
0000
,  // measure 82
0101
0010
2002
0000
,  // measure 83
0000
0000
0000
0000
,  // measure 84
0000
0000
3000
0000
,  // measure 85
0000
0000
0000
0000
0000
0003
0000
0000
;

//---------------dance-single - ----------------
#NOTES:
     dance-single:
     :
     Easy:
     6:
     0.308686,0.438780,0.290385,0.495362,0.000000,253.000000,219.000000,34.000000,58.000000,0.000000,0.000000,0.308686,0.438780,0.290385,0.495362,0.000000,253.000000,219.000000,34.000000,58.000000,0.000000,0.000000:
// measure 0
0000
0000
0000
0000
,  // measure 1
0000
0000
0000
0000
,  // measure 2
0000
0000
0000
0000
,  // measure 3
0000
0000
0000
0000
,  // measure 4
0000
0000
0000
0000
,  // measure 5
0000
0000
0000
0000
,  // measure 6
1000
1000
0000
0010
,  // measure 7
1000
0001
0001
0000
,  // measure 8
0010
0001
1000
1000
,  // measure 9
0000
0001
0100
0220
,  // measure 10
0000
0330
0000
0000
0100
0000
0010
0000
,  // measure 11
1002
0000
0000
0013
,  // measure 12
0100
2000
0000
3001
,  // measure 13
0100
0010
0200
0000
,  // measure 14
0301
1000
0100
0020
,  // measure 15
0000
0130
1000
0010
,  // measure 16
1002
0000
0000
0103
,  // measure 17
0010
2000
0000
3001
,  // measure 18
0010
0001
0200
0000
,  // measure 19
0301
0100
0001
0020
,  // measure 20
0000
0130
0011
1100
,  // measure 21
2001
0000
0000
3010
,  // measure 22
0100
0002
0000
1003
,  // measure 23
0100
0010
0200
0000
,  // measure 24
1300
0001
0100
0020
,  // measure 25
0000
0130
0001
0010
,  // measure 26
2001
0000
0000
3100
,  // measure 27
0010
0002
0000
1003
,  // measure 28
0010
1000
0200
0000
,  // measure 29
1300
0100
0001
0200
,  // measure 30
0000
0301
0100
1000
,  // measure 31
1001
1001
0000
0001
,  // measure 32
0100
1001
1001
0000
,  // measure 33
1000
0010
1001
1001
,  // measure 34
0000
1000
0100
0210
,  // measure 35
0000
0310
0001
0100
,  // measure 36
1010
1010
0000
1000
,  // measure 37
0100
0011
0011
0000
,  // measure 38
0001
0010
1100
1100
,  // measure 39
0000
1000
0001
0201
,  // measure 40
0000
1300
0100
0001
,  // measure 41
1002
0000
0000
0000
,  // measure 42
0000
0023
0000
0000
,  // measure 43
0230
2300
3200
0000
,  // measure 44
0000
0000
0000
0320
,  // measure 45
0000
0000
0000
0032
,  // measure 46
2003
0000
0000
0000
,  // measure 47
0000
3020
0000
0230
,  // measure 48
0302
0203
0320
0230
,  // measure 49
0000
0000
0302
0203
,  // measure 50
0000
0310
1001
2002
,  // measure 51
3003
0000
0000
0000
,  // measure 52
0000
0010
1002
0000
,  // measure 53
0000
1003
0100
0002
,  // measure 54
0000
0103
0001
0100
,  // measure 55
2000
0000
3010
1000
,  // measure 56
0010
0200
0000
0301
,  // measure 57
0010
0001
1002
0000
,  // measure 58
0000
1003
0010
0002
,  // measure 59
0000
0013
1000
0100
,  // measure 60
2000
0000
3100
1000
,  // measure 61
0010
2000
0000
3001
,  // measure 62
1100
0011
2001
0000
,  // measure 63
0000
3001
0100
2000
,  // measure 64
0000
3100
1000
0100
,  // measure 65
0002
0000
0013
0001
,  // measure 66
0010
0200
0000
1300
,  // measure 67
0010
1000
2001
0000
,  // measure 68
0000
3001
0010
2000
,  // measure 69
0000
3010
0001
0100
,  // measure 70
0002
0000
0103
1000
,  // measure 71
0100
0002
0000
0013
,  // measure 72
0110
1001
1000
1000
,  // measure 73
0000
0010
0100
0001
,  // measure 74
0001
0000
0010
0100
,  // measure 75
1000
1000
0000
0010
,  // measure 76
0100
0001
0000
0001
,  // measure 77
1000
0001
0010
0010
,  // measure 78
0000
0100
0010
0001
,  // measure 79
0001
0000
0100
0010
,  // measure 80
1000
1000
0000
0100
,  // measure 81
0010
0000
0220
0000
0000
0330
0000
0000
,  // measure 82
0010
0100
2002
0000
,  // measure 83
0000
0000
0000
0000
,  // measure 84
0000
0000
3000
0000
,  // measure 85
0000
0000
0000
0000
0000
0003
0000
0000
;

//---------------dance-single - ----------------
#NOTES:
     dance-single:
     :
     Beginner:
     1:
     0.082967,0.144338,0.051244,0.017081,0.000000,68.000000,62.000000,6.000000,2.000000,0.000000,0.000000,0.082967,0.144338,0.051244,0.017081,0.000000,68.000000,62.000000,6.000000,2.000000,0.000000,0.000000:
// measure 0
0000
0000
0000
0000
,  // measure 1
0000
0000
0000
0000
,  // measure 2
0000
0000
0000
0000
,  // measure 3
0000
0000
0000
0000
,  // measure 4
0000
0000
0000
0000
,  // measure 5
0000
0000
0000
0000
,  // measure 6
1000
0000
0000
0000
,  // measure 7
0000
0001
0000
0000
,  // measure 8
0000
0000
1000
0000
,  // measure 9
0000
0000
0000
0001
,  // measure 10
0000
0000
0000
0000
,  // measure 11
1000
0000
0000
0000
,  // measure 12
0000
0100
0000
0000
,  // measure 13
0000
0000
0010
0000
,  // measure 14
0000
0000
0000
0001
,  // measure 15
0000
0000
0000
0000
,  // measure 16
0100
0000
0000
0000
,  // measure 17
0000
0010
0000
0000
,  // measure 18
0000
0000
1000
0000
,  // measure 19
0000
0000
0000
0001
,  // measure 20
0000
0000
0000
0000
,  // measure 21
0010
0000
0000
0000
,  // measure 22
0000
0100
0000
0000
,  // measure 23
0000
0000
1000
0000
,  // measure 24
0000
0000
0000
0001
,  // measure 25
0000
0000
0000
0000
,  // measure 26
0100
0000
0000
0000
,  // measure 27
0000
0010
0000
0000
,  // measure 28
0000
0000
1000
0000
,  // measure 29
0000
0000
0000
0001
,  // measure 30
0000
0000
0000
0000
,  // measure 31
1001
0000
0000
0000
,  // measure 32
0000
1001
0000
0000
,  // measure 33
0000
0000
1001
0000
,  // measure 34
0000
0000
0000
0100
,  // measure 35
0000
0000
0000
0000
,  // measure 36
0110
0000
0000
0000
,  // measure 37
0000
0110
0000
0000
,  // measure 38
0000
0000
0110
0000
,  // measure 39
0000
0000
0000
0001
,  // measure 40
0000
0000
0000
0000
,  // measure 41
0010
0000
0000
0000
,  // measure 42
0000
0010
0000
0000
,  // measure 43
0000
0000
0100
0000
,  // measure 44
0000
0000
0000
0100
,  // measure 45
0000
0000
0000
0000
,  // measure 46
1000
0000
0000
0000
,  // measure 47
0000
1000
0000
0000
,  // measure 48
0000
0000
0001
0000
,  // measure 49
0000
0000
0000
0001
,  // measure 50
0000
0000
0200
0000
,  // measure 51
0300
0000
0000
0000
,  // measure 52
0000
0000
0001
0000
,  // measure 53
0000
0000
0000
0100
,  // measure 54
0000
0000
0000
0000
,  // measure 55
0010
0000
0000
0000
,  // measure 56
0000
1000
0000
0000
,  // measure 57
0000
0000
0100
0000
,  // measure 58
0000
0000
0000
0010
,  // measure 59
0000
0000
0000
0000
,  // measure 60
0001
0000
0000
0000
,  // measure 61
0000
1000
0000
0000
,  // measure 62
0000
0000
0010
0000
,  // measure 63
0000
0000
0000
0100
,  // measure 64
0000
0000
0000
0000
,  // measure 65
0001
0000
0000
0000
,  // measure 66
0000
1000
0000
0000
,  // measure 67
0000
0000
0100
0000
,  // measure 68
0000
0000
0000
0010
,  // measure 69
0000
0000
0000
0000
,  // measure 70
0001
0000
0000
0000
,  // measure 71
0000
1000
0000
0000
,  // measure 72
0000
0000
0010
0000
,  // measure 73
0000
0000
0000
0100
,  // measure 74
0000
0000
0000
0000
,  // measure 75
0010
0000
0000
0000
,  // measure 76
0000
0100
0000
0000
,  // measure 77
0000
0000
0001
0000
,  // measure 78
0000
0000
0000
1000
,  // measure 79
0000
0000
0000
0000
,  // measure 80
0001
0000
0000
0000
,  // measure 81
0000
1000
0000
0000
,  // measure 82
0000
0000
0200
0000
,  // measure 83
0000
0000
0000
0000
,  // measure 84
0000
0000
0300
0000
;
