#VERSION:0.83;
#TITLE:Chinese Restaurant;
#SUBTITLE:;
#ARTIST:Memme;
#TITLETRANSLIT:;
#SUBTITLETRANSLIT:;
#ARTISTTRANSLIT:;
#GENRE:Asian Techno;
#ORIGIN:;
#CREDIT:;
#BANNER:Chinese Restaurant.png;
#BACKGROUND:Chinese Restaurant-bg.png;
#PREVIEWVID:;
#JACKET:Chinese Restaurant-jacket.png;
#CDIMAGE:;
#DISCIMAGE:;
#LYRICSPATH:;
#CDTITLE:cdtitle.png;
#MUSIC:Chinese Restaurant.ogg;
#OFFSET:1.189214;
#SAMPLESTART:6.867929;
#SAMPLELENGTH:10.971426;
#SELECTABLE:YES;
#BPMS:0.000=175.000,
120.000=87.500,
136.000=175.000;
#STOPS:;
#DELAYS:;
#WARPS:;
#TIMESIGNATURES:0.000=4=4;
#TICKCOUNTS:0.000=4;
#COMBOS:0.000=1;
#SPEEDS:0.000=1.000=0.000=0;
#SCROLLS:0.000=1.000;
#FAKES:;
#LABELS:0.000=Song Start;
#BGCHANGES:3.500=Chinese Restaurant.avi=1.000=1=0=0=StretchNoLoop==CrossFade==,
99999=-nosongbg-=1.000=0=0=0 // don't automatically add -songbackground-
;
#KEYSOUNDS:;
#ATTACKS:
;

//---------------dance-single - ----------------
#NOTEDATA:;
#CHARTNAME:;
#STEPSTYPE:dance-single;
#DESCRIPTION:;
#CHARTSTYLE:;
#DIFFICULTY:Challenge;
#METER:16;
#RADARVALUES:0.919505,1.219660,0.233729,0.593312,0.898957,716.000000,690.000000,26.000000,66.000000,0.000000,0.000000,0.000000,0.000000,0.000000,0.919505,1.219660,0.233729,0.593312,0.898957,716.000000,690.000000,26.000000,66.000000,0.000000,0.000000,0.000000,0.000000,0.000000;
#CREDIT:;
#NOTES:
0000
0000
0000
0000
,
0000
0000
0000
0000
,
0000
0000
0000
0000
,
0000
0000
0000
0000
,
0000
0000
0000
0000
,
0000
0000
0000
0000
0000
0000
0000
0000
0000
0000
0000
0000
0000
0000
1000
0100
,
0020
0000
0000
0000
0032
0000
0000
0000
0203
0000
0000
0310
1000
0000
0200
0000
,
0000
0000
0310
0001
1000
0000
0001
0000
0100
0000
0010
1000
0001
0000
0010
0000
,
0200
0000
0302
0000
0203
0000
0310
0002
,
0000
0000
1003
0010
0100
0001
0100
0010
1000
0000
0001
0000
0011
0000
0000
0000
,
0002
0000
0203
0000
2300
0000
3100
0002
,
0000
0000
0013
0000
0100
1000
0100
0000
1000
0000
0001
0100
0010
1000
0001
0000
,
0010
0000
0100
1000
0010
0000
0100
0000
0010
0000
0100
0001
0010
0000
0210
0000
,
0000
0000
0310
0001
0100
0000
0010
1000
0100
0000
0000
0100
0010
0000
0012
0000
,
0000
1003
0001
0001
1000
1000
0010
2010
,
0000
0000
0000
3001
0000
0000
0010
0000
0000
0100
0000
0000
1000
0000
0000
0010
0100
0010
0100
0000
0000
0001
0000
0000
,
1000
0000
1000
0010
1000
0000
1000
0001
1000
0000
1000
0100
0010
0001
0200
0000
,
0000
0000
0310
1000
0001
0000
1000
0001
0010
0100
0010
0001
1000
0000
2010
0000
,
0000
3001
1000
1000
0001
0001
0010
0012
,
0000
0000
0000
1003
0000
0000
0010
0000
0000
0001
0000
0000
0010
0000
0000
0100
0010
0100
0010
0000
0000
1000
0000
0000
,
0001
0000
0010
0001
1000
0001
0100
0000
0010
0000
0100
0001
1000
0001
0020
0000
,
0000
0000
0130
0000
1000
0000
0001
0000
1000
0001
0200
0000
0000
0000
0000
0000
,
0301
0000
0001
0010
0100
0000
0010
0000
0001
0000
0001
0010
0100
0000
2000
0000
,
0010
0000
0000
0000
0000
0000
3010
0000
0000
1000
0000
0000
0001
0000
0000
0000
0000
0000
0010
0000
0000
0000
0000
0000
0100
0000
0000
0000
0000
0000
1000
0000
0010
0000
1000
0000
0010
0000
0000
0000
0000
0000
0100
0000
0000
0000
0000
0000
,
0001
0000
0001
1000
0001
0000
0001
0010
0001
0000
0001
1000
0001
0000
1000
0100
,
0010
0000
0001
0100
0010
0100
0010
1000
0001
0010
0001
0010
0100
0000
1000
0000
,
1100
0000
0010
0001
1000
0000
1001
0000
1000
0001
0100
0000
0101
0000
0010
1000
,
0001
0000
1001
0000
0001
1000
0100
0000
0010
0001
1000
0010
0100
0000
0210
0000
,
0000
0010
0010
0000
0010
0000
0310
1002
,
0000
0000
1003
0100
0010
0001
1000
0100
0020
0000
0000
0000
0031
0000
1000
0000
,
0002
0000
0000
0000
0203
0000
0000
0000
2300
0000
0000
0000
3100
0000
0002
0000
0000
0000
0013
0000
1000
0000
0010
0000
0001
0000
0001
1000
0010
0000
0100
0000
,
0002
0000
0000
0000
2003
0000
0000
0000
3200
0000
0000
0000
0310
0000
0002
0000
0000
0000
1003
0010
0100
0001
0100
0010
1000
0000
0100
0000
0010
0000
0001
0000
,
2000
0000
0000
0000
3200
0000
0000
0000
0302
0000
0000
0000
0103
0000
2000
0000
0000
0000
3010
0000
0001
0000
0010
0000
1000
0000
1000
0100
0010
0001
1000
0000
,
0001
0000
0100
0010
1000
0000
0010
0000
1000
0000
0100
0010
0001
0000
0020
0000
0000
0000
0130
1000
0010
0100
0001
1000
0200
0000
0310
0000
1001
0000
0000
0000
,
0001
0100
0001
1000
0001
0010
0001
1000
,
0010
1000
0001
1000
0100
1000
0001
0100
,
0010
1000
0100
1000
0010
0100
0001
0010
,
0001
0000
0100
0000
0010
0000
0100
0001
1000
0000
0001
1000
0100
0000
0000
0000
,
0110
0100
1000
0010
1000
0001
1000
0010
,
0100
0001
1000
0001
0010
0001
1000
0001
,
0100
0010
1000
0100
0010
0001
0100
0010
,
1010
0000
0101
0000
0011
0010
1200
0000
,
0310
0000
0001
1000
0001
0000
0100
0000
0001
1000
0001
1000
0100
0000
1000
0100
,
1000
0100
0010
0000
0001
0010
0001
0000
1000
0000
0001
0000
1000
0010
0100
0000
,
0010
0000
1000
0001
1000
0000
0100
0000
0010
0001
0010
0001
1000
0000
0001
1000
,
0001
1000
0010
0000
1000
0000
0100
0010
0001
0000
0100
0010
1000
0000
0001
0000
,
0010
0000
0100
0010
0100
0000
1000
0000
0010
0100
0010
0100
0001
0000
0100
0001
,
0100
0001
1000
0000
0001
1000
0001
0000
0010
0000
0100
0000
1000
0010
0100
0000
,
0001
0000
1000
0001
1000
0000
0010
0000
1000
0010
0100
0001
1000
0000
0100
0000
,
1100
0000
0000
0110
0000
0000
0011
0000
1100
0000
0010
0001
2000
0000
0000
0000
,
3100
0000
1000
0010
1000
0000
0100
0000
1000
0010
1000
0000
0100
0000
1000
0010
,
0100
0000
0001
0010
0100
1000
0100
0010
0001
1000
0001
0100
0001
1000
0100
1000
,
0001
0000
0100
0010
0100
0000
1000
0000
0100
0010
0100
0000
0001
0000
0010
0100
,
2000
0000
3020
0000
0130
0001
0100
0001
0020
0000
0130
2000
0000
3001
0200
0000
,
0310
0000
1000
0001
1000
0000
0100
0000
1000
0001
1000
0000
0010
0000
1000
0001
,
0010
0000
0100
0000
1000
0010
0100
0000
0001
0100
0010
1000
0001
0000
1000
0000
,
0100
0000
0010
0001
0010
0000
0100
0000
0010
0001
0010
0000
0100
0000
1000
0001
,
0100
0000
0010
1000
0001
0010
0000
0100
1000
0010
0100
0001
0010
0100
1000
0010
,
0100
0000
0001
0010
0001
0000
0100
0000
0001
0010
0001
0000
0100
0000
0001
0010
,
0100
0000
1000
0010
0100
0001
0100
0010
1000
0001
1000
0100
1000
0001
0100
0001
,
1000
0000
0100
0010
0100
0000
0001
0000
0100
0010
0100
0000
1000
0000
0010
0100
,
0002
0000
0023
0000
0130
1000
0100
1000
0020
0000
0130
0002
0000
1003
0200
0000
,
0310
0000
0001
1000
0001
0000
0100
0000
0001
1000
0001
0000
0010
0000
0001
1000
,
0010
0000
0100
0001
1000
0001
0010
0001
1000
0010
0100
0001
1000
0100
0010
0001
,
0100
0000
0010
1000
0010
0000
0100
0000
0010
1000
0010
0000
0100
0000
0102
0000
,
0000
0000
0013
0100
1000
0100
1000
0100
0010
0000
0000
0001
1000
0000
0001
0100
,
0020
0000
0000
0000
2030
0000
0000
0000
3200
0000
0000
0310
0001
0000
0200
0000
,
0000
0000
0310
1000
0001
0000
1000
0000
0100
0000
0010
0001
1000
0000
0010
0000
,
0200
0000
2300
0000
3200
0000
0310
2000
,
0000
0000
3001
0010
0100
1000
0100
0010
0001
0000
1000
0000
1010
0000
0000
0000
,
2000
0000
3200
0000
0302
0000
0103
2000
,
0000
0000
3010
0000
0100
0001
0100
0000
0001
0000
1000
0100
0010
0001
1000
0000
,
0010
0000
0100
0001
0010
0000
0100
0000
0010
0000
0100
1000
0010
0000
0210
0000
,
0000
0000
0310
1000
0100
0000
0010
0001
0100
0000
0000
0100
0010
0000
0120
0000
,
0000
0000
1030
0010
0100
0001
0010
0100
2000
0000
0000
0000
0000
0000
0000
0000
,
0000
0000
0000
3000
0000
0000
0000
0000
;

//---------------dance-single - ----------------
#NOTEDATA:;
#CHARTNAME:;
#STEPSTYPE:dance-single;
#DESCRIPTION:;
#CHARTSTYLE:;
#DIFFICULTY:Hard;
#METER:13;
#RADARVALUES:0.662660,0.948625,0.161812,0.530385,0.143833,516.000000,498.000000,18.000000,59.000000,0.000000,0.000000,0.000000,0.000000,0.000000,0.662660,0.948625,0.161812,0.530385,0.143833,516.000000,498.000000,18.000000,59.000000,0.000000,0.000000,0.000000,0.000000,0.000000;
#CREDIT:;
#NOTES:
0000
0000
0000
0000
,
0000
0000
0000
0000
,
0000
0000
0000
0000
,
0000
0000
0000
0000
,
0000
0000
0000
0000
,
0000
0000
0000
0000
0000
0000
0000
1000
,
0002
0000
2003
0000
3200
0000
0310
0020
,
0000
0031
0100
1000
0100
0010
1000
0001
,
0020
0000
0230
0000
2300
0000
3001
0200
,
0000
0310
1000
0100
1000
0010
0110
0000
,
2000
0000
3002
0000
0023
0000
0130
0200
,
0000
0310
0001
1000
0010
0001
0010
1000
,
0001
0010
0010
0001
1000
0001
0001
0102
,
0000
1003
0100
0010
0001
0000
0010
2001
,
0000
3001
0100
0100
0001
0001
0100
0210
,
0000
0000
0310
0000
1000
0000
0100
0000
0010
0000
0100
0010
0100
0000
0010
0000
,
0001
0100
1000
0100
0001
0010
1000
0020
,
0000
1030
0010
0100
0010
0001
1000
1002
,
0000
1003
0100
0100
1000
1000
0100
0210
,
0000
0000
0310
0000
0001
0000
0100
0000
1000
0000
0100
0010
0100
0000
0001
0000
,
0010
0100
1000
0001
0100
0010
1000
1002
,
0000
0000
0103
0000
0010
0000
1000
0000
0100
0010
0200
0000
0000
0000
0000
0000
,
0310
0001
1000
0001
0010
0001
1000
0020
,
0000
0000
1030
0000
0100
0000
0010
0000
0001
0000
0100
0010
0100
0000
0010
0000
,
1000
0100
0001
0100
1000
0010
0001
0010
,
1000
0100
0010
0001
0100
0010
1000
0001
,
1000
0100
0100
0001
0100
0100
1000
0010
,
0010
0001
0010
0010
1000
0100
0010
0012
,
0000
0000
1000
0000
1003
0000
0001
0201
,
0000
1300
0100
0001
0010
0000
0100
1000
,
0002
0000
0203
0000
0320
0000
1000
2030
0000
3001
0010
0001
1000
0001
0100
0001
,
2000
0000
3200
0000
0302
0000
0103
0020
0000
0031
0100
0010
1000
0100
0010
0001
,
2000
0000
3200
0000
0320
0000
0031
0002
0000
1003
0010
1000
0001
0010
0001
1000
,
0010
0100
0001
1000
0100
0010
0001
2000
0000
3010
0001
0010
2000
0000
3001
0000
,
1000
0100
0000
0010
0000
0100
0000
0001
,
0000
0100
0000
0010
0000
0100
1000
0001
,
0000
0100
0000
0010
0000
0100
0000
1000
,
0000
0100
0000
0010
0100
0001
1000
0000
,
0001
0010
0000
0100
0000
0010
0000
1000
,
0000
0010
0000
0100
0000
0010
0001
1000
,
0000
0010
0000
0100
0000
0010
0100
0001
,
1001
0000
0110
0000
0001
1000
0002
0000
,
0013
0001
1000
0010
0100
0001
0010
0100
,
1000
0010
1000
0100
0010
0001
1000
0010
,
0100
0001
0010
0100
0010
0001
0100
0010
,
1000
0010
0100
0001
1000
0100
0010
0001
,
1000
0010
0100
0001
0010
0100
0001
0100
,
0010
0001
1000
0010
0100
1000
0100
0010
,
1000
0001
0010
0100
1000
0010
0100
0001
,
1001
0000
0000
0110
0000
0000
0001
0000
0100
0000
0010
0000
2000
0000
0000
0000
,
3001
0010
1000
0010
0001
0010
1000
0010
,
0001
0100
0010
1000
0100
0010
0001
1000
,
0001
0100
1000
0100
0001
0100
1000
0100
,
0020
0000
2030
0000
3001
0000
0001
0000
1000
0000
0100
0010
0000
0100
0010
0000
,
0001
0100
0010
0100
0001
0010
0100
0010
,
0001
1000
0010
1000
0001
0010
0001
1000
,
0010
0001
0010
1000
0010
0001
0010
1000
,
0100
0000
0010
0000
0001
1000
0000
0001
0100
0000
0010
0000
1000
0000
0001
0000
,
1000
0010
0001
0010
1000
0010
0001
0010
,
1000
0100
0010
0001
0100
0010
1000
0001
,
1000
0100
0001
0100
1000
0100
0001
0100
,
0020
0000
0032
0000
1003
0000
1000
0000
0001
0000
0100
0010
0000
0100
0010
0000
,
1000
0100
0010
0100
1000
0010
0100
0010
,
1000
0001
0010
0001
1000
0010
1000
0001
,
0010
1000
0010
0001
0010
1000
0010
0002
,
0000
1003
0010
0100
0001
0000
0010
0001
,
2000
0000
3002
0000
0203
0000
0310
0020
,
0000
1030
0100
0001
0100
0010
0001
1000
,
0020
0000
0230
0000
0302
0000
1003
0200
,
0000
0310
0001
0100
0001
0010
0110
0000
,
0002
0000
2003
0000
3020
0000
0130
0200
,
0000
0310
1000
0001
0010
1000
0010
0001
,
1000
0010
0010
1000
0001
1000
1000
2100
,
0000
3001
0100
0010
1000
0000
1000
1100
,
0000
0001
0011
0000
0202
0000
0000
0000
,
0000
0000
0000
0303
0000
0000
0000
0000
;

//---------------dance-single - ----------------
#NOTEDATA:;
#CHARTNAME:;
#STEPSTYPE:dance-single;
#DESCRIPTION:;
#CHARTSTYLE:;
#DIFFICULTY:Medium;
#METER:10;
#RADARVALUES:0.498279,0.711468,0.269687,0.521395,0.040453,388.000000,358.000000,30.000000,58.000000,0.000000,0.000000,0.000000,0.000000,0.000000,0.498279,0.711468,0.269687,0.521395,0.040453,388.000000,358.000000,30.000000,58.000000,0.000000,0.000000,0.000000,0.000000,0.000000;
#CREDIT:;
#NOTES:
0000
0000
0000
0000
,
0000
0000
0000
0000
,
0000
0000
0000
0000
,
0000
0000
0000
0000
,
0000
0000
0000
0000
,
0000
0000
0000
0000
0000
0000
0000
1000
,
0200
0000
2300
0000
3020
0000
1030
0200
,
0000
0310
0001
0000
1000
0010
1000
0000
,
0002
0000
0203
0000
2300
0000
3100
0002
,
0000
0010
1000
0103
,
0002
0000
0023
0000
0230
0000
0310
0002
,
0000
1003
0010
0000
0100
0001
0010
0000
,
1100
0000
0001
0000
0101
0000
1000
0200
,
0000
0310
0001
0000
1001
0000
0000
0201
,
0000
0000
0010
0000
0310
0000
0000
0102
,
0000
0000
1000
0000
1003
0100
0010
0001
,
0100
0000
1000
0000
0100
0000
0001
0020
,
0000
0031
0100
0001
1000
0100
0000
1200
,
0000
0000
0010
0000
0310
0000
0000
2100
,
0000
0000
0001
0000
3001
0100
0010
1000
,
0001
0000
0010
0000
0100
0000
1000
0002
,
0000
1003
0010
0100
0001
2000
0000
0000
,
3100
0000
0100
0000
0100
0000
1000
0001
,
0100
0000
0100
0000
0001
1000
0100
0010
,
0001
0100
1000
0100
,
0001
0010
0001
0000
1000
0010
1000
0000
,
0011
0000
0000
1100
0000
0000
1010
0000
,
0000
0101
0000
0000
1000
0100
0010
0002
,
0000
0000
1000
0000
1003
0000
0000
0210
,
0000
0000
0310
0000
1001
0000
1000
0001
,
2000
0000
3200
0000
0320
0000
0130
2000
0000
3001
0100
0000
0010
1000
0001
0000
,
0020
0000
0230
0000
2300
0000
3010
0200
0000
0000
0001
0000
0010
0000
0301
0000
,
0002
0000
0203
0000
0320
0000
0130
0002
0000
1003
0100
0000
0010
0001
1000
0000
,
0001
0000
0100
0000
1000
0000
0010
0002
0000
1003
0010
0000
0220
0000
0330
0000
,
0001
0001
0100
0100
,
1000
1000
0010
0010
,
0001
0001
0100
0100
,
1000
0010
0001
0100
,
1001
1000
0100
0100
,
0001
0001
0010
0010
,
1000
1000
0100
0100
,
0011
0000
1100
0000
1000
0010
0200
0000
,
0301
0010
0001
0000
0100
0001
0100
0000
,
0010
1000
0010
0000
0100
0001
0100
0000
,
0001
0010
0001
0000
0100
0001
0100
0000
,
0001
1000
0001
0000
0010
0100
1000
0000
,
0010
0100
0010
0000
1000
0001
1000
0000
,
0100
0010
0100
0000
1000
0001
1000
0000
,
0110
0001
0110
1000
,
2002
3003
0010
1001
,
0001
0010
1000
0000
1000
0010
0001
0000
,
1000
0010
0100
0001
0100
0010
1000
0000
,
0001
0100
1000
0000
1000
0100
0001
0000
,
2000
0000
3100
0010
0001
1000
0001
0000
,
1000
0010
0100
0000
0100
0010
1000
0000
,
0001
0010
0100
0010
0100
0010
0001
0000
,
0100
0010
1000
0000
1000
0010
0100
0000
,
0001
0010
1001
0110
,
1000
0010
0001
0000
0001
0010
1000
0000
,
0001
0010
0100
1000
0100
0010
0001
0000
,
1000
0100
0001
0000
0001
0100
1000
0000
,
0002
0000
0103
0010
1000
0001
1000
0000
,
0001
0010
0100
0000
0100
0010
0001
0000
,
1000
0010
0100
0010
0100
0010
1000
0000
,
0100
0010
0001
0000
1000
0000
0001
0200
,
0000
0010
0310
0000
1001
0000
0000
0001
,
0200
0000
0302
0000
0023
0000
0031
0200
,
0000
0310
1000
0000
0001
0010
0001
0000
,
2000
0000
3200
0000
0302
0000
0103
2000
,
0000
0010
0001
3100
,
2000
0000
3020
0000
0230
0000
0310
2000
,
0000
3001
0010
0000
0100
1000
0010
0000
,
0101
0000
1000
0000
1100
0000
0001
0200
,
0000
0310
1000
0000
1001
0000
0000
1100
,
0000
0011
0220
0000
,
0000
0000
0000
0330
0000
0000
0000
0000
;

//---------------dance-single - ----------------
#NOTEDATA:;
#CHARTNAME:;
#STEPSTYPE:dance-single;
#DESCRIPTION:;
#CHARTSTYLE:;
#DIFFICULTY:Easy;
#METER:7;
#RADARVALUES:0.341604,0.474312,0.260698,0.404531,0.000000,266.000000,237.000000,29.000000,45.000000,0.000000,0.000000,0.000000,0.000000,0.000000,0.341604,0.474312,0.260698,0.404531,0.000000,266.000000,237.000000,29.000000,45.000000,0.000000,0.000000,0.000000,0.000000,0.000000;
#CREDIT:;
#NOTES:
// measure 0
0000
0000
0000
0000
,  // measure 1
0000
0000
0000
0000
,  // measure 2
0000
0000
0000
0000
,  // measure 3
0000
0000
0000
0000
,  // measure 4
0000
0000
0000
0000
,  // measure 5
0000
0000
0000
0000
,  // measure 6
2000
0000
3200
0000
0320
0000
0000
0230
,  // measure 7
0000
0310
0001
1000
,  // measure 8
0002
0000
0203
0000
0320
0000
0000
2000
,  // measure 9
0000
0000
0000
3030
,  // measure 10
0002
0000
0203
0000
0320
0000
0000
2030
,  // measure 11
0000
3001
0010
0100
,  // measure 12
1000
0000
1000
0000
0001
0000
0000
0101
,  // measure 13
0000
0000
0110
0000
1010
0000
0000
2002
,  // measure 14
0000
0000
0000
0000
3003
0000
0000
0220
,  // measure 15
0000
0000
0000
0330
,  // measure 16
1000
1000
0100
0100
,  // measure 17
0010
0000
0001
0000
1000
0000
0000
2002
,  // measure 18
0000
0000
0000
0000
3003
0000
0000
0220
,  // measure 19
0000
0000
0000
0330
,  // measure 20
0001
0000
0100
0000
0010
0000
0000
1010
,  // measure 21
0000
1001
0022
0033
,  // measure 22
1000
0010
1000
0010
,  // measure 23
0100
0001
0010
0001
,  // measure 24
1000
1000
0010
0010
,  // measure 25
1000
0100
0010
0001
,  // measure 26
0011
0000
0000
1001
0000
0000
1010
0000
,  // measure 27
0000
1001
0000
0000
1100
0000
0000
2002
,  // measure 28
0000
0000
0000
0000
3003
0000
0000
0220
,  // measure 29
0000
0000
0330
0000
,  // measure 30
1000
0100
0001
0000
0100
0000
0001
0100
,  // measure 31
1000
0001
0100
0000
0020
0000
1030
1000
,  // measure 32
0001
0100
1000
0000
0100
0000
1000
0100
,  // measure 33
0001
0010
0100
0000
0010
0001
2000
3000
,  // measure 34
0001
0100
0001
0100
,  // measure 35
0001
1000
0001
1000
,  // measure 36
0100
1000
0100
1000
,  // measure 37
0001
1000
0010
0010
,  // measure 38
1000
0100
1000
0100
,  // measure 39
1000
0001
1000
0001
,  // measure 40
0100
0001
0100
0001
,  // measure 41
1001
1100
0011
1100
,  // measure 42
0001
0100
0010
1000
,  // measure 43
0100
1000
0010
0100
,  // measure 44
0001
0010
0001
0100
,  // measure 45
0010
1000
0100
1000
,  // measure 46
0001
0100
0010
1000
,  // measure 47
0100
0010
0001
0100
,  // measure 48
0010
1000
0100
0010
,  // measure 49
0002
0000
0000
0003
,  // measure 50
1000
0010
0001
0010
,  // measure 51
1000
1000
0001
0001
,  // measure 52
1000
0100
0001
0100
,  // measure 53
1000
0010
0010
1000
,  // measure 54
0001
0010
0100
0010
,  // measure 55
0001
0001
1000
1000
,  // measure 56
0010
0001
0010
1000
,  // measure 57
0200
0300
0110
1001
,  // measure 58
0001
0010
1000
0010
,  // measure 59
0001
0001
1000
1000
,  // measure 60
0001
0100
1000
0100
,  // measure 61
0001
0010
0010
0001
,  // measure 62
1000
0010
0100
0010
,  // measure 63
1000
1000
0001
0001
,  // measure 64
0010
0000
1000
0000
0010
0000
0000
0002
,  // measure 65
0000
1000
1003
0000
,  // measure 66
0002
0000
0203
0000
0320
0000
0000
0230
,  // measure 67
0000
0310
1000
0001
,  // measure 68
2000
0000
3200
0000
0320
0000
0000
0002
,  // measure 69
0000
0000
0000
0033
,  // measure 70
2000
0000
3200
0000
0320
0000
0000
0032
,  // measure 71
0000
1003
0010
0100
,  // measure 72
0001
0000
0001
0000
1000
0000
0000
1100
,  // measure 73
0000
0000
0110
0000
0011
0000
0000
1001
,  // measure 74
0000
1001
0220
0000
,  // measure 75
0000
0000
0000
0330
0000
0000
0000
0000
;

//---------------dance-single - ----------------
#NOTEDATA:;
#CHARTNAME:;
#STEPSTYPE:dance-single;
#DESCRIPTION:;
#CHARTSTYLE:;
#DIFFICULTY:Beginner;
#METER:3;
#RADARVALUES:0.202907,0.285419,0.062927,0.134844,0.000000,158.000000,151.000000,7.000000,15.000000,0.000000,0.000000,0.000000,0.000000,0.000000,0.202907,0.285419,0.062927,0.134844,0.000000,158.000000,151.000000,7.000000,15.000000,0.000000,0.000000,0.000000,0.000000,0.000000;
#CREDIT:;
#OFFSET:1.189214;
#BPMS:0.000000=175.000000
;
#STOPS:;
#DELAYS:;
#WARPS:;
#TIMESIGNATURES:0.000000=4=4
;
#TICKCOUNTS:0.000000=4
;
#COMBOS:0.000000=1
;
#SPEEDS:0.000000=1.000000=0.000000=0
;
#SCROLLS:0.000000=1.000000
;
#FAKES:;
#LABELS:0.000000=Song Start
;
#NOTES:
// measure 0
0000
0000
0000
0000
,  // measure 1
0000
0000
0000
0000
,  // measure 2
0000
0000
0000
0000
,  // measure 3
0000
0000
0000
0000
,  // measure 4
0000
0000
0000
0000
,  // measure 5
0000
0000
0000
0000
,  // measure 6
1000
1000
1000
0000
,  // measure 7
0010
0000
0100
0100
,  // measure 8
0100
0000
0010
0000
,  // measure 9
2000
0000
3000
0000
,  // measure 10
0001
0001
0001
0000
,  // measure 11
1000
0000
0100
0100
,  // measure 12
0100
0000
0010
0000
,  // measure 13
0001
0001
0001
0000
,  // measure 14
2002
0000
0000
0000
,  // measure 15
0000
0000
3003
0000
,  // measure 16
1000
0000
0010
0000
,  // measure 17
0100
0000
0001
0000
,  // measure 18
2002
0000
0000
0000
,  // measure 19
0000
0000
3003
0000
,  // measure 20
0001
0000
0010
0000
,  // measure 21
0100
0000
1000
0000
,  // measure 22
0001
0000
0100
0000
,  // measure 23
0001
0000
0100
0000
,  // measure 24
0010
0010
0010
0000
,  // measure 25
0100
0100
0100
0000
,  // measure 26
2002
0000
0000
0000
,  // measure 27
0000
0000
0000
0000
,  // measure 28
0000
0000
0000
0000
0000
0000
0000
3003
,  // measure 29
0000
0010
0010
0000
,  // measure 30
1000
0000
1000
0000
,  // measure 31
0100
0000
0100
0000
,  // measure 32
1000
0000
0010
0000
,  // measure 33
2000
0000
3000
0000
,  // measure 34
0001
0000
0001
0000
,  // measure 35
0100
0000
0100
0000
,  // measure 36
0001
0000
0010
0000
,  // measure 37
0001
0000
1000
0000
,  // measure 38
0001
0000
0000
0000
,  // measure 39
0100
0000
0000
0000
,  // measure 40
1000
0000
0000
0000
,  // measure 41
0010
0000
0000
0000
,  // measure 42
0001
0000
0000
0000
,  // measure 43
0100
0000
0000
0000
,  // measure 44
1000
0000
0000
0000
,  // measure 45
0010
0010
0010
0000
,  // measure 46
0001
0000
0001
0000
,  // measure 47
0100
0000
0100
0000
,  // measure 48
1000
0000
1000
0000
,  // measure 49
0010
0000
0010
0000
,  // measure 50
0001
0000
0001
0000
,  // measure 51
0100
0000
0100
0000
,  // measure 52
0010
0000
0010
0000
,  // measure 53
2002
0000
3003
0000
,  // measure 54
1000
1000
1000
0000
,  // measure 55
0100
0100
0100
0000
,  // measure 56
1000
1000
1000
0000
,  // measure 57
0010
0010
0010
0000
,  // measure 58
1000
1000
1000
0000
,  // measure 59
0001
0001
0001
0000
,  // measure 60
1000
1000
1000
0000
,  // measure 61
0220
0000
0330
0000
,  // measure 62
0001
0001
0001
0000
,  // measure 63
0100
0100
0100
0000
,  // measure 64
0001
0001
0001
0000
,  // measure 65
0010
0010
0010
0000
,  // measure 66
0001
0001
0001
0000
,  // measure 67
1000
1000
1000
0000
,  // measure 68
0001
0001
0001
0000
,  // measure 69
0100
0100
0100
0000
,  // measure 70
0001
0001
0001
0000
,  // measure 71
0010
0000
0100
0100
,  // measure 72
0100
0000
0010
0000
,  // measure 73
0002
0000
0003
0000
,  // measure 74
1000
1000
1000
0000
,  // measure 75
0001
0000
0100
0100
,  // measure 76
0100
0000
0010
0000
,  // measure 77
1000
1000
1000
0000
,  // measure 78
1001
0000
0220
0000
,  // measure 79
0000
0000
0000
0330
0000
0000
0000
0000
;
