#VERSION:0.83;
#TITLE:CO5M1C R4ILR0AD;
#SUBTITLE:;
#ARTIST:kanone;
#TITLETRANSLIT:;
#SUBTITLETRANSLIT:;
#ARTISTTRANSLIT:;
#GENRE:Hi-NRGTECH Trance;
#ORIGIN:;
#CREDIT:;
#BANNER:CO5M1C R4ILR0AD.png;
#BACKGROUND:CO5M1C R4ILR0AD-bg.png;
#PREVIEWVID:;
#JACKET:CO5M1C R4ILR0AD-jacket.png;
#CDIMAGE:;
#DISCIMAGE:;
#LYRICSPATH:;
#CDTITLE:cdtitle.png;
#MUSIC:CO5M1C R4ILR0AD.ogg;
#OFFSET:-0.039918;
#SAMPLESTART:77.459282;
#SAMPLELENGTH:12.387100;
#SELECTABLE:YES;
#BPMS:0.000=155.000;
#STOPS:;
#DELAYS:;
#WARPS:;
#TIMESIGNATURES:0.000=4=4;
#TICKCOUNTS:0.000=4;
#COMBOS:0.000=1;
#SPEEDS:0.000=1.000=0.000=0;
#SCROLLS:0.000=1.000;
#FAKES:;
#LABELS:0.000=Song Start;
#BGCHANGES:0.000=CO5M1C R4ILR0AD.avi=1.000=1=0=0=StretchNoLoop==CrossFade==,
99999=-nosongbg-=1.000=0=0=0 // don't automatically add -songbackground-
;
#KEYSOUNDS:;
#ATTACKS:
;

//---------------dance-single - ----------------
#NOTEDATA:;
#CHARTNAME:;
#STEPSTYPE:dance-single;
#DESCRIPTION:;
#CHARTSTYLE:;
#DIFFICULTY:Challenge;
#METER:18;
#RADARVALUES:1.102238,1.042576,0.253707,0.582033,1.705058,1034.000000,1000.000000,34.000000,78.000000,0.000000,0.000000,0.000000,0.000000,0.000000,1.102238,1.042576,0.253707,0.582033,1.705058,1034.000000,1000.000000,34.000000,78.000000,0.000000,0.000000,0.000000,0.000000,0.000000;
#CREDIT:;
#OFFSET:-0.039918;
#BPMS:0.000000=155.000000
,97.000000=77.500000
,98.000000=155.000000
,131.000000=77.500000
,139.000000=155.000000
;
#STOPS:36.000000=0.193550
,36.500000=0.193549
,65.750000=0.387097
,94.000000=0.193547
,94.500000=0.193547
,121.750000=0.096772
,122.000000=0.096775
,122.250000=0.096775
,122.500000=0.096775
,179.250000=0.193550
,179.750000=0.193550
,182.000000=0.193550
,182.500000=0.193550
;
#DELAYS:;
#WARPS:;
#TIMESIGNATURES:0.000000=4=4
;
#TICKCOUNTS:0.000000=4
;
#COMBOS:0.000000=1
;
#SPEEDS:0.000000=1.000000=0.000000=0
;
#SCROLLS:0.000000=1.000000
,95.750000=0.000000
,96.500000=0.500000
,97.000000=1.000000
,99.000000=0.000000
,99.500000=1.000000
,151.500000=0.000000
,152.000000=1.000000
,169.000000=0.000000
,170.500000=1.000000
;
#FAKES:;
#LABELS:0.000000=Song Start
;
#NOTES:
0000
0000
0000
0000
,
0000
0000
0000
0000
,
0011
0000
0000
1100
0000
0000
2000
0000
3010
1000
0000
0100
0000
0000
0000
0000
,
0220
0000
0000
0000
0000
0000
0000
0000
0330
0000
0000
0001
1000
0001
1000
0000
,
1010
0000
0000
0000
0000
0000
0000
0000
0000
0101
0000
0000
0000
0000
0000
0000
0000
0000
0001
0000
1000
0000
0001
0000
1000
0000
0000
0100
0000
0000
0010
0000
0000
0001
0000
0000
0000
0000
0000
0000
0000
0000
0000
0000
0000
1000
0000
0000
,
0010
0000
0001
0000
0010
0000
1000
0100
0010
0001
0000
0001
0100
0000
0100
0001
,
1000
0010
1000
0010
1000
0001
1000
0001
0010
0001
0010
0001
1000
0001
1000
0001
,
0100
0001
0100
0001
1000
0001
1000
0001
1000
0100
1000
0100
1000
0001
1000
0001
,
1000
0010
0100
0001
0010
0100
1000
0010
0001
0010
1000
0100
0001
0100
1000
0010
,
1000
0000
0000
0000
0000
0000
0110
0000
0000
0000
0000
0000
1001
0000
0000
0000
0000
0000
1000
0000
0000
0001
0000
0000
0100
0000
0010
0000
0100
0000
0010
0000
0000
1000
0000
0000
0001
0000
0000
0000
0000
0000
0010
0000
0000
0000
0000
0000
,
0100
0000
0010
0001
1000
0010
1000
0010
0100
0000
0010
0000
0001
0010
1000
0000
,
0100
0000
0001
0000
1000
0010
0001
0100
1000
0100
0001
0010
0002
0000
0103
0001
,
2000
0000
3100
0020
0000
1030
0010
0100
1000
0000
1000
0000
0001
0000
0001
0100
,
0010
0000
0010
0100
1000
0100
0010
1000
0200
0000
0310
0000
0001
0000
1000
0010
,
0100
0000
0000
0001
0000
0000
0010
0000
0000
0100
0000
0000
1000
0000
0000
0000
0000
0000
0010
0000
0100
0000
0001
0000
1000
0000
0000
0100
0000
0000
0001
0000
0000
0100
0000
0000
1000
0000
0000
0000
0000
0000
0010
0000
0000
1000
0000
0000
,
0001
0000
0000
0000
0000
0000
0010
0000
0000
0001
0000
0000
1000
0000
0000
0000
0000
0000
0010
0000
0000
1000
0000
0000
0002
0000
0000
0000
0000
0000
1003
0000
0100
0000
1000
0000
0100
0000
0000
0010
0000
0000
0001
0000
0000
1000
0000
0000
,
0001
0100
1000
0100
0001
0010
0100
2000
3001
0000
0010
0000
1000
0000
0010
0001
,
0100
0000
1000
0000
0100
0000
0102
0000
1003
0001
1000
0001
0010
0000
0100
1000
,
0010
0100
0010
0100
0001
0000
0010
0000
1000
0010
0001
0000
0100
0000
1000
0000
,
0001
0010
1000
0100
0001
0100
1000
0010
2000
0000
3100
1000
0002
0000
0103
0020
,
0000
0031
0010
0100
0001
0000
0001
0000
1000
0000
1000
0100
0010
0000
0001
0100
,
0020
0000
0000
0000
0000
0000
1030
0000
0001
0000
1000
0000
0001
0000
0010
0000
0100
0000
1000
0000
0000
0000
0000
0000
0002
0000
0000
0000
0000
0000
1003
0000
0000
0010
0000
0000
0100
0000
0000
0001
0000
0000
1000
0000
0100
0000
0010
0000
,
0001
0100
0010
0100
1000
0100
0001
0010
0100
0000
1000
0001
0100
0000
0001
1000
,
0100
0000
0000
0000
0000
0000
1000
0000
0000
0001
0000
0000
0200
0000
0000
0000
0000
0000
0310
0000
1000
0000
0001
0000
0010
0000
0000
0000
0000
0000
1001
0000
0000
0000
0000
0000
1000
0000
0000
0001
0000
0000
1000
0000
0000
0001
0000
0000
,
0000
0000
0220
0330
0100
0100
1001
0000
,
1010
0000
1000
0100
1000
0100
1000
0100
0010
0001
0100
0010
1000
0100
0010
0000
,
0011
0000
0001
0100
0001
0100
0001
0100
0010
1000
0100
0010
0001
0100
0010
0000
,
1010
0000
1000
0001
1000
0001
1000
0001
0010
0100
1000
0010
0100
0001
0010
0000
,
1100
0000
0000
0000
0000
0000
1000
0000
0100
0000
0010
0000
0001
0000
0000
0100
0000
0000
0010
0000
0000
0100
0000
0000
1000
0000
0000
0000
0000
0000
0000
0000
0000
1000
0000
0000
0100
0000
0000
0010
0000
0000
0100
0000
0000
0001
0000
0000
,
1000
0000
0000
0000
0000
0000
0001
0000
0010
0000
0100
0000
1000
0000
0000
0001
0000
0000
0000
0000
0000
1001
0000
0000
0000
0000
0000
0001
0000
0000
0100
0000
0000
0000
0000
0000
1001
0000
0000
0000
0000
0000
1000
0000
0000
0100
0000
0000
,
0000
0000
0000
0100
0000
0000
0010
0000
0001
0000
1000
0000
0010
0000
0000
0000
0000
0000
0100
0000
0000
0010
0000
0000
1001
0000
0000
1001
0000
0000
1001
0000
0000
0001
0000
0000
1000
0000
0000
0010
0000
0000
0001
0000
0000
0010
0000
0000
,
1000
0000
0000
0100
0000
0000
0001
0000
0000
0100
0000
0000
1000
0000
0000
0000
0010
0000
0000
0000
0001
0000
0000
0000
1000
0000
0000
0000
0100
0000
0000
0000
0002
0000
0000
0000
0000
0000
0000
0000
0000
0000
1003
0000
0001
0000
1000
0000
,
0001
0000
0000
0110
0000
0000
0110
0000
1002
0000
0000
0000
0103
0001
0010
0200
,
0000
0310
0001
0200
0000
1300
0100
0002
0000
0013
0001
0200
0000
0310
1000
0200
,
0000
1300
0010
0200
0000
0301
0010
2000
0000
3010
0002
2003
3010
0000
1000
0000
,
0100
0020
0000
0130
1000
0020
0000
0031
,
0010
2000
0000
3100
1000
0010
0100
0001
,
0010
0000
0200
0000
0000
0000
0301
0000
0100
0000
0020
0000
0031
0100
0020
0000
,
0000
0000
1030
0100
0010
0001
0100
0010
2000
0000
0000
0000
3001
0000
0100
0000
,
0010
0000
0010
0000
0100
0001
1000
0000
0001
0000
0001
0000
1000
0000
0100
0000
,
0010
0000
0010
0000
0100
1000
0001
0000
1000
0000
1000
0000
0010
0000
0100
0000
,
0001
0000
0001
0000
1000
0100
0010
0000
0001
0000
0001
0000
0100
0000
0010
0000
,
1000
0000
1000
0000
0001
0000
0000
0000
0000
0000
0000
0000
1000
0010
0100
0001
,
0010
0001
0100
0010
1000
0100
1000
0010
0100
0001
0010
0001
0100
0010
1000
0010
,
0100
0001
0010
0001
0100
0010
1000
0010
0100
0001
0010
0100
1000
0010
0001
0100
,
1000
0100
0010
0100
0001
0100
0010
0100
1000
0000
1000
0000
0001
0100
0010
1000
,
0200
0000
0000
0000
1300
0100
0010
0001
1000
0100
0000
0020
0001
0000
0130
1000
,
0001
0100
0000
0020
1000
0000
0130
0001
1000
0100
0010
0001
0100
1000
0100
0010
,
1000
0100
0010
0001
1000
0010
0100
0001
1000
0100
0000
0020
0001
0000
0130
1000
,
0001
0100
0000
0001
0010
0100
0010
2000
0000
3010
0100
0010
0001
0100
0010
1000
,
0001
0000
0010
0000
0001
0000
0010
0000
0100
0000
1000
0000
0001
0000
0000
0100
0000
0000
0010
0000
0000
1000
0000
0000
0001
0000
0000
0100
0000
0000
0000
0000
0000
0020
0000
0000
1000
0000
0000
0000
0000
0000
0130
0000
0000
0001
0000
0000
,
1000
0100
0000
0020
0001
0000
0130
1000
0100
0010
0001
0100
1000
0100
0010
1000
,
0001
0000
0000
1000
0000
0000
0100
0000
0010
0000
0100
0000
0010
0000
0000
0001
0000
0000
1000
0000
0000
0010
0000
0000
0100
0000
0000
0001
0000
0000
1000
0000
0000
0000
0000
0000
1100
0000
0000
0000
0000
0000
0001
0000
0000
0100
0000
0000
,
0001
0000
0000
1000
0000
0000
0100
0000
0000
0010
0000
0000
0001
0000
0000
0100
0000
0000
1000
0000
0000
0100
0000
0000
0001
0000
0000
0010
0000
0000
1000
0000
0000
0010
0000
0000
0001
0000
0000
0000
1000
0000
0000
0000
1000
0000
0000
0000
,
0001
0100
0010
1000
0001
0010
0100
0010
0001
0100
0000
0020
1000
0000
0130
0010
,
1000
0100
0000
0020
0001
0000
0130
1000
0001
0100
0010
1000
0100
0001
0100
0010
,
0001
0100
0010
1000
0001
0010
0100
1000
0001
0100
0000
0020
1000
0000
0130
0010
,
1000
0100
0000
1000
0010
0100
0010
0002
0000
0013
0100
0010
1000
0100
0010
0001
,
1000
0000
0010
0000
1000
0000
0010
0000
0100
0000
0001
0000
1000
0000
0000
0100
0000
0000
0010
0000
0000
0100
0000
0000
1000
0000
0000
0010
0000
0000
0000
0000
0000
0200
0000
0000
0001
0000
0000
0000
0000
0000
0310
0000
0000
1000
0000
0000
,
0100
0010
0000
0200
1000
0000
0310
0001
0100
0010
1000
0100
0001
0100
0010
0001
,
1000
0000
0000
0001
0000
0000
0100
0000
0010
0000
0100
0000
0010
0000
0000
1000
0000
0000
0001
0000
0000
0010
0000
0000
0100
0000
0000
1000
0000
0000
0001
0000
0000
0000
0000
0000
0101
0000
0000
0000
0000
0000
1000
0000
0000
0100
0000
0000
,
1000
0000
0000
0000
0001
0000
0000
0000
0001
0000
0000
0000
1000
0000
0000
0010
0000
0000
0001
0000
0000
0010
0000
0000
1000
0000
0000
0100
0000
0000
0001
0000
0000
0100
0000
0000
1000
0000
0000
0000
0010
0000
0000
0000
0010
0000
0000
0000
,
1000
0010
0100
0001
1000
0100
0010
0001
0000
0010
0001
0100
0010
1000
0100
0010
,
0100
0001
0100
0010
0100
1000
0001
0100
0000
1000
0100
0001
0010
1000
0010
0001
,
0100
0000
0010
0000
0100
0000
0010
0000
0000
1000
0000
0000
0100
0000
0000
0010
0000
0000
0001
0000
0000
0100
0000
0000
0000
0000
0000
0010
0000
0000
1000
0000
0000
0100
0000
0000
0010
0000
0000
1000
0000
0000
0010
0000
0000
0100
0000
0000
,
1000
0001
0000
0002
0203
0000
2300
0000
3002
0000
0023
0000
2030
3200
0320
0230
,
0302
0000
0203
0000
0310
0001
1000
0010
0000
1000
0010
0100
0001
0010
0100
0001
,
0100
0010
0001
1000
0010
0100
0001
0010
0000
1000
0010
0001
0100
1000
0100
0010
,
0100
0000
0001
0000
0100
0000
0001
0000
1000
0000
0100
0000
0010
0000
0000
0000
0000
0000
0001
0000
0000
0010
0000
0000
0000
0000
0000
0010
0000
0000
0001
0000
0000
0000
0000
0000
0100
0000
0000
0000
0000
0000
1000
0000
0000
0000
0000
0000
,
0100
0000
0000
0010
0000
0000
1000
0000
0000
1002
0000
0000
0000
0000
0000
0003
0000
0000
0110
0000
0000
0000
0000
0000
1001
0000
0000
0000
0000
0000
1000
0000
0001
0000
1000
0000
0001
0000
0000
0000
0010
0000
0000
0000
1000
0000
0000
0000
,
0001
0000
0000
0000
0100
0000
0000
0000
1000
0000
0000
0000
0001
0000
0000
0100
0000
0000
0010
0000
0000
1000
0000
0000
0000
0000
0000
0010
0000
0000
1000
0000
0000
0100
0000
0000
0010
0000
0000
0001
0000
0000
0100
0000
0000
0010
0000
0000
,
0100
1000
0100
0010
0100
0001
1000
0100
0000
0001
0100
1000
0010
0001
0010
1000
,
0100
0000
0010
0000
0100
0000
0010
0000
0000
0001
0000
0000
0100
0000
0000
0010
0000
0000
1000
0000
0000
0100
0000
0000
0000
0000
0000
0010
0000
0000
0001
0000
0000
0100
0000
0000
0010
0000
0000
0001
0000
0000
0010
0000
0000
0100
0000
0000
,
0001
1000
0000
2000
3200
0000
0302
0000
2003
0000
3020
0000
0032
0203
0320
0230
,
2300
0000
0000
0000
0000
0000
3100
0000
0010
0000
0100
0000
0002
0000
0000
0000
0000
0000
0000
0000
0000
0000
0000
0000
0000
0000
0000
0000
0000
0000
1003
0000
0000
0000
0000
0000
1001
0000
0000
0000
0000
0000
0000
0000
0000
1100
0000
0000
,
0000
0000
0011
0000
1001
0000
0100
0020
0000
0000
0130
0000
1001
0000
0001
0100
,
0010
1000
0001
1000
0000
0000
2002
0000
0000
0000
0000
0000
3003
0000
0000
0001
1000
0001
1000
0000
0000
0100
0000
0000
,
0010
0000
0000
0100
0000
0000
1000
0000
0000
0001
0000
0000
0000
0000
0000
0001
0000
0000
0100
0000
0000
0000
0000
0000
1000
0000
0000
0100
0000
0000
0010
0000
0000
0100
0000
0000
0001
0000
1000
0000
0001
0000
1000
0000
0001
0000
1000
0000
,
0001
0000
0000
0000
0010
0000
0000
0000
0100
0000
0000
0000
1000
0000
0000
0010
0000
0000
0100
0000
0000
0001
0000
0000
0000
0000
0000
1000
0000
0000
0000
0000
0000
0002
0000
0000
0000
0000
0000
0000
0000
0000
1003
0000
0000
0010
0000
0000
,
0100
0001
0000
2000
0000
0000
3100
1000
0001
0100
0001
0100
0010
1000
0001
1000
,
0100
0010
0001
0010
0100
1000
0001
0100
0000
0010
0000
0200
0000
0000
0301
0010
,
0100
1000
0000
1000
0001
0000
0000
0001
0100
0000
0000
0010
1000
0100
0010
0001
,
0100
0010
0100
1000
0000
0000
0000
0000
0000
0000
0000
0000
0000
0000
0000
0000
;

//---------------dance-single - ----------------
#NOTEDATA:;
#CHARTNAME:;
#STEPSTYPE:dance-single;
#DESCRIPTION:;
#CHARTSTYLE:;
#DIFFICULTY:Hard;
#METER:15;
#RADARVALUES:0.847466,0.832965,0.320864,0.388022,0.891705,795.000000,752.000000,43.000000,52.000000,0.000000,0.000000,0.000000,0.000000,0.000000,0.847466,0.832965,0.320864,0.388022,0.891705,795.000000,752.000000,43.000000,52.000000,0.000000,0.000000,0.000000,0.000000,0.000000;
#CREDIT:;
#OFFSET:-0.039918;
#BPMS:0.000000=155.000000
,99.000000=77.500000
,100.000000=155.000000
,133.000000=77.500000
,141.000000=155.000000
;
#STOPS:96.000000=0.193550
,96.500000=0.193547
,123.750000=0.096779
,124.000000=0.096775
,124.250000=0.096775
,124.500000=0.096775
,181.250000=0.193550
,181.750000=0.193550
,184.000000=0.193550
,184.500000=0.193550
;
#DELAYS:;
#WARPS:;
#TIMESIGNATURES:0.000000=4=4
;
#TICKCOUNTS:0.000000=4
;
#COMBOS:0.000000=1
;
#SPEEDS:0.000000=1.000000=0.000000=0
;
#SCROLLS:0.000000=1.000000
,36.000000=0.000000
,36.500000=1.000000
,37.000000=0.000000
,37.500000=1.000000
,38.000000=0.000000
,38.500000=1.000000
,66.750000=0.500000
,68.000000=1.000000
,97.750000=0.000000
,98.500000=0.500000
,99.000000=1.000000
,101.000000=0.000000
,101.500000=1.000000
,153.500000=0.000000
,154.000000=1.000000
,171.000000=0.000000
,172.500000=1.000000
;
#FAKES:;
#LABELS:0.000000=Song Start
;
#NOTES:
0000
0000
0000
0000
,
0000
0000
0000
0000
,
1001
0000
0000
1001
0000
0000
0002
0000
1003
0010
0000
0100
0000
0000
0000
0000
,
0220
0000
0000
0000
0000
0000
0000
0000
0330
0000
0000
0010
0100
0000
0010
0000
,
1001
0000
0000
1001
0000
0000
0001
0000
0010
0000
0001
1000
0000
0000
0000
1000
,
0010
0000
0001
0000
0010
0000
1000
0000
0100
0010
0000
0100
0010
0000
0001
0000
,
1000
0000
0010
0000
0001
0000
0010
0000
1000
0100
0000
1000
0100
0000
0010
0000
,
0001
0000
0010
0000
1000
0000
0010
0000
0001
0100
0000
0001
0100
0000
0010
0000
,
1000
0100
0001
1000
0010
0001
0100
0010
,
1000
0000
0000
0000
0110
0000
0000
0000
1001
0000
0000
0000
0001
1000
0001
1000
,
0001
0000
0010
0000
0100
0000
0010
0001
1000
0000
0001
0000
0100
0000
0010
0000
,
1000
0001
1000
0000
0100
0000
0100
0000
0010
0001
1000
0001
0010
0001
1000
0001
,
0100
0000
0000
0000
1100
0000
0000
0101
0000
0001
0000
0001
0010
0000
1000
0000
,
0010
0000
0100
0000
1000
0000
0001
0000
1000
0010
0100
0001
1000
0000
0001
0000
,
0010
0000
0100
1000
0100
1000
0001
0100
0010
0000
0100
0010
1000
0000
0010
1000
,
0001
0010
1000
0010
0001
0010
0100
1000
,
0001
0100
0001
0100
0001
1000
0001
1000
0001
0010
0100
2000
0000
0000
0000
0000
,
3010
0000
0100
0000
0001
0000
0010
0100
0010
0000
0100
0000
1000
0000
0010
0000
,
1000
0001
1000
0000
1001
0000
0001
0010
0000
0100
0000
0010
0001
0000
1000
0000
,
0001
1000
0001
0000
0100
0000
0100
0000
0010
1000
0001
1000
0010
1000
0001
1000
,
0100
0000
0000
0000
0101
0000
0000
1100
0000
1000
0000
1000
0010
0000
0001
0000
,
0010
0000
0100
0000
0001
0000
0010
0000
1000
0000
0010
0000
0001
1000
0001
0000
,
1000
0000
0010
0100
0010
0100
0001
1000
0100
1000
0001
1000
0000
0001
0010
0100
,
1000
0000
0010
0000
0001
0000
0010
0000
1000
0000
0010
0000
0100
0000
0001
1000
,
0001
0000
1001
0000
1000
0001
1000
0001
0000
0000
0000
0000
0110
0000
0000
0000
,
0100
0010
1001
0000
1001
1000
0100
0001
,
0101
0000
0000
0110
0000
0000
1100
0000
1001
0000
0001
0000
0100
0000
1000
0000
,
1100
0000
0000
0110
0000
0000
0101
0000
1001
0000
1000
0000
0001
0000
0010
0000
,
0110
0000
0000
1010
0000
0000
0110
0000
0011
0000
0001
0000
1000
0010
0100
0001
,
0010
0000
0000
0010
0001
1000
0001
1000
0010
0000
0010
0000
0100
0010
0000
1000
,
0000
0001
1000
0000
0100
0000
0100
0010
0000
0001
1000
0001
0100
0000
0010
1000
,
1000
0000
0000
1000
0000
0000
1000
0000
0000
1000
0000
0000
0100
0000
0000
0010
0000
0000
0001
0000
0000
1000
0000
0000
0100
0000
0000
0010
0000
0000
0001
0000
0000
1000
0000
0000
0100
0000
0000
0000
0010
0000
0000
0000
0001
0000
0000
0000
,
1000
0000
0000
0000
0001
0000
0000
0000
0100
0000
0000
0000
0000
0000
0000
0000
0000
0000
0010
0000
0000
1000
0000
0000
0001
0000
0000
0000
0000
0000
0000
0000
0000
0011
0000
0000
0000
0000
0000
0000
0000
0000
1100
0000
0000
0000
0000
0000
,
0000
0000
0000
0000
0001
0100
0010
2000
0000
3010
1000
0200
0000
1300
0100
0020
,
0000
0130
0010
0002
0000
1003
0010
0002
0000
0013
1000
0200
0000
0310
0001
2000
,
0000
3010
0200
0302
1003
0000
0100
0000
0010
0000
0002
0000
0000
0000
0013
0000
,
0001
0200
0000
0301
0100
2000
0000
3100
,
0001
1000
0001
0010
0100
2000
0000
3100
,
1000
0000
0020
0000
1030
0001
2000
0000
0000
0000
3100
0000
0010
0000
0100
0000
,
1001
0000
0001
0100
0010
0100
1000
0100
,
0010
0100
0001
0010
0100
0010
1000
0010
,
0100
0010
0001
1000
0010
0100
0010
0001
,
0010
0100
0010
1000
0100
0010
0001
0000
,
0000
0000
0000
0000
1000
0100
1000
0000
0010
0000
0100
0000
0001
0010
0001
0000
,
0100
0000
0010
0000
1000
0100
1000
0000
0010
0000
0100
0000
0001
0010
0001
0000
,
0100
0000
0010
0000
1000
0001
0001
1000
1000
0010
1000
0010
0100
0001
0100
0001
,
1000
0000
1000
0000
1000
0100
0010
0001
0200
0000
0000
0000
0310
0000
1000
0000
,
0001
0010
0000
0001
0010
0000
0100
0000
1000
0010
0000
1000
0010
0000
0100
0000
,
1000
0000
0100
0000
0001
0000
0010
0000
0100
1000
0010
0100
0001
0000
0010
0000
,
0100
1000
0000
0100
1000
0000
0010
0000
0100
0001
0000
0001
1000
0001
0010
0200
,
0000
0310
0100
0000
1000
0000
0010
0000
1000
0010
0100
0001
0010
0000
0001
0000
,
1000
0010
0000
1000
0010
0000
0100
0000
0001
0010
0000
0001
0010
0000
0100
0000
,
0001
0000
0100
0000
1000
0000
0010
0000
0100
0001
0010
0100
2000
0000
0001
0000
,
0000
0000
3001
0000
1001
0000
0000
0101
0000
0000
1000
0000
0010
0000
0001
0000
,
0010
0000
0000
1000
0000
0000
0000
0000
0000
1000
0000
0000
0100
0000
0000
0000
0010
0000
0000
0000
0001
0000
0000
0000
1000
0000
0000
0001
0000
0000
0100
0000
0000
0010
0000
0000
1000
0000
0000
0000
0000
0000
0001
0000
0000
0000
0000
0000
,
0010
0100
0000
0010
0100
0000
1000
0000
0010
0100
0000
0010
0100
0000
0001
0000
,
0010
0000
0100
0000
0001
0000
0100
0000
0010
0001
1000
0010
0100
0000
0001
0000
,
1000
0100
0000
1000
0100
0000
0010
0000
0100
1000
0000
1000
0001
1000
0010
0200
,
0000
0310
0100
0000
0001
0000
0010
0000
0001
0010
0100
1000
0001
0000
1000
0000
,
0010
0100
0000
0010
0100
0000
0001
0000
0010
0100
0000
0010
0100
0000
1000
0000
,
0010
0000
0100
0000
1000
0000
0100
0000
0001
0010
0100
0010
0002
0000
1000
0000
,
0000
0000
0000
1003
0000
0000
1001
0000
0000
0000
0000
0000
1000
0000
0010
0000
0100
0000
0001
0000
0000
0010
0000
0000
,
1000
0000
0000
0000
0000
0000
0010
0000
0000
0000
0000
0000
0001
0000
0000
0000
1000
0000
0000
0000
0100
0000
0000
0000
0010
0000
0000
0001
0000
0000
0100
0000
0000
0010
0000
0000
1000
0000
0000
0000
0000
0000
0001
0000
0000
0010
0000
0000
,
0000
0010
0001
0000
0100
0000
0010
0000
1000
0010
1000
0000
0001
0000
1000
0100
,
0000
0100
0010
0000
1000
0000
0010
0000
0100
0010
0100
0000
1000
0000
0001
0100
,
0000
0100
0010
0000
1000
0000
0100
0010
0000
0001
0000
0002
0203
0300
0020
0030
,
2000
3000
0002
0003
2000
3200
0320
0032
2003
3000
0020
0030
0100
0000
0001
1000
,
0000
1000
0001
0000
0010
0000
0100
0000
1000
0001
1000
0000
0001
0000
0100
0010
,
0000
0010
0100
0000
1000
0000
0100
0000
0010
1000
0010
0000
0100
0000
0001
0010
,
0000
0001
0010
0000
0100
0000
0010
0000
0100
1000
0001
0100
0000
0000
1010
0000
,
0110
0000
0000
0000
0000
0000
0101
0000
0000
0000
0000
0000
0001
0000
0000
0000
0010
0000
0000
0000
0100
0000
0000
0000
1000
0000
0000
0000
0010
0000
0000
0000
0100
0000
0000
0000
0001
0000
0000
0000
0000
0000
1000
0000
0000
0010
0000
0000
,
0000
0010
1000
0000
0100
0000
0010
0000
0001
0010
0001
0000
1000
0000
0001
0100
,
0000
0100
0010
0000
0001
0000
0010
0000
0100
0010
0100
0000
0001
0000
1000
0100
,
0000
0100
0010
0000
0001
0000
0100
0010
0000
1000
0000
2000
3200
0300
0020
0030
,
0002
0003
2000
3000
0002
0203
0320
2030
3002
0003
0020
0030
0210
0000
0000
0000
,
0000
0000
1300
0000
1001
0000
0000
0101
0000
0000
0110
0000
1010
0000
0000
1002
,
0000
0000
0013
0000
0100
1000
0100
1000
0001
0100
0001
0100
0020
0000
0000
0000
,
0000
0000
1030
0001
1000
0000
0100
0000
0010
0001
1000
0010
0000
0001
0010
0000
,
1000
0000
0000
0000
0000
0000
0100
0000
0000
0000
0000
0000
0010
0000
0000
0001
0000
0000
0100
0000
0000
0010
0000
0000
1000
0000
0000
0000
0100
0000
0000
0000
0010
0000
0000
0000
0001
0000
0000
0000
0000
0000
1000
0000
0000
0000
0000
0000
,
0000
0001
0000
0200
0000
0000
0301
0000
0000
1000
0000
0200
0000
0000
0310
0000
,
0001
0100
1000
0001
0010
1000
0001
0010
,
0000
0100
0000
2000
0000
0000
3010
0000
0000
0100
0000
0000
0001
0000
0000
0001
,
0010
0000
0000
0010
0100
1000
0100
1000
0001
0100
0010
1000
0000
0000
0000
0000
;

//---------------dance-single - ----------------
#NOTEDATA:;
#CHARTNAME:;
#STEPSTYPE:dance-single;
#DESCRIPTION:;
#CHARTSTYLE:;
#DIFFICULTY:Medium;
#METER:12;
#RADARVALUES:0.604419,0.806358,0.388022,0.365636,0.313402,567.000000,515.000000,52.000000,49.000000,0.000000,0.000000,0.000000,0.000000,0.000000,0.604419,0.806358,0.388022,0.365636,0.313402,567.000000,515.000000,52.000000,49.000000,0.000000,0.000000,0.000000,0.000000,0.000000;
#CREDIT:;
#OFFSET:-0.039918;
#BPMS:0.000000=155.000000
,135.000000=77.500000
,143.000000=155.000000
;
#STOPS:96.000000=0.193550
,96.500000=0.193547
,183.000000=0.193550
,183.500000=0.193550
,186.000000=0.193550
,186.500000=0.193550
;
#DELAYS:;
#WARPS:;
#TIMESIGNATURES:0.000000=4=4
;
#TICKCOUNTS:0.000000=4
;
#COMBOS:0.000000=1
;
#SPEEDS:0.000000=1.000000=0.000000=0
;
#SCROLLS:0.000000=1.000000
,36.000000=0.000000
,36.500000=1.000000
,37.000000=0.000000
,37.500000=1.000000
,38.000000=0.000000
,38.500000=1.000000
,67.000000=0.500000
,68.000000=1.000000
,102.000000=0.000000
,102.500000=1.000000
,173.000000=0.000000
,174.500000=1.000000
;
#FAKES:;
#LABELS:0.000000=Song Start
;
#NOTES:
0000
0000
0000
0000
,
0000
0000
0000
0000
,
1001
0000
0000
1001
0000
0000
1000
0000
0100
0000
0000
0100
0000
0000
0000
0000
,
0220
0000
0000
0330
,
1001
0000
0000
1001
0000
0000
0001
0000
0100
0000
0000
0010
0000
0000
0000
0000
,
1000
0000
0100
0000
0010
0000
0001
0000
0100
0000
0000
0010
0000
0000
1000
0000
,
0001
0000
0010
0000
0001
0000
0010
0000
0100
0010
0000
0001
0000
0000
0000
0000
,
1000
0000
0010
0000
1000
0000
0010
0000
0100
0010
0000
1000
0000
0000
0000
0000
,
0001
0010
1000
0010
0001
0100
1000
0100
,
0001
0000
0110
0000
1001
0000
0001
1000
,
0001
0000
0010
0000
0100
0000
0000
0010
0000
0000
0001
0000
0010
0000
0000
0000
,
0001
0100
0001
0100
1000
0100
0001
0010
,
0011
0000
0000
0000
1100
0000
0000
0011
0000
0000
0001
0000
0100
0000
0010
0000
,
1000
0000
0100
0000
0010
0001
2000
0000
,
3010
0100
0001
1000
0100
0010
0001
0000
,
0101
1100
0101
1002
,
1003
0100
0010
0001
0100
0010
2000
0000
,
3001
0010
1000
0010
0001
0100
0010
0000
,
1000
0000
0010
0000
0100
0000
0000
0010
0000
0000
1000
0000
0010
0000
0000
0000
,
1000
0100
1000
0100
0001
0100
1000
0010
,
1010
0000
0000
0000
0101
0000
0000
1010
0000
0000
1000
0000
0100
0000
0010
0000
,
0001
0000
0100
0000
0001
1000
0200
0000
,
0310
0001
1000
0010
0100
0001
1000
0000
,
1100
0000
0101
0000
1100
0000
0010
0001
,
1001
1001
0001
1000
0001
0000
0220
0000
,
0330
0000
1000
0001
1000
0000
1001
0000
,
0100
0000
0000
0000
1001
0000
0000
0011
0000
0000
1000
0000
1010
0000
0000
0000
,
0100
0000
0000
0000
1001
0000
0000
1010
0000
0000
0001
0000
0011
0000
0000
0000
,
0100
0000
0000
0000
1001
0000
0000
0110
0000
0000
0010
0000
1001
0000
0000
0000
,
1000
0100
0001
0000
0001
0100
1000
0001
,
1000
0000
0000
0010
0000
0010
1000
0000
0001
0000
0000
0010
0000
0010
0001
0000
,
1000
0000
0000
0001
0000
1000
0000
0001
0000
1000
0000
0001
1000
0000
0100
0000
,
0010
0000
0000
0001
0000
0000
0100
0000
0010
0000
0100
0000
0010
0000
0100
0000
0010
0000
0000
0000
0000
0000
0000
0000
,
1001
0000
0000
0110
0000
0000
1001
0000
0000
0000
0000
0000
1000
0001
0010
0002
,
0000
0103
0001
0200
0000
1300
0100
2000
0000
3100
0001
0200
0000
0301
0010
0002
,
0000
0013
1000
0020
0000
0031
0010
0002
0000
1003
0020
0230
0301
0000
1000
0000
,
0100
2000
0000
3001
0100
0002
0000
1003
,
0010
2000
0000
3001
0010
0001
1000
0010
,
0100
0002
0000
0103
0001
0020
0030
2002
,
3003
0001
0100
0010
2000
0000
3001
0010
,
0001
0000
0100
0001
0100
0000
1000
0100
,
1000
0000
0010
1000
0010
0000
0001
0010
,
0001
0000
0100
0001
0100
0000
1000
0100
,
0001
0000
1000
0000
0000
0000
0001
0010
,
0100
1000
0001
0100
0010
1000
0001
0010
,
0100
1000
0001
0100
0010
1000
1100
0011
,
1000
0010
0001
0010
1000
1000
1000
0100
,
0020
0000
0000
0000
0031
0000
0100
0000
0010
0000
0000
1000
0000
0000
0100
0000
,
0000
0010
0000
0001
0000
0000
0100
0000
0010
0000
0100
0000
1000
0000
0100
0000
,
0010
0000
1000
0000
0001
0000
0010
0000
0100
0000
0000
1000
0000
0000
0010
0000
,
0000
0010
1000
0000
0001
0000
0000
0010
0000
0000
0100
0000
0001
0000
0100
0000
,
0010
0000
0001
0000
1000
0000
0010
0000
0100
0000
0000
0001
0000
0000
0010
0000
,
0000
0100
0000
1000
0000
0000
0001
0000
0100
0000
0010
0000
1000
0000
0100
0000
,
0001
0000
0100
0000
2000
0000
0000
0000
0000
0000
3001
0000
1001
0000
0000
0110
,
0000
0001
0010
0100
0010
0100
1000
0010
,
0001
0000
0010
0000
1000
0000
0100
0000
0010
0000
0000
0001
0000
0000
0100
0000
,
0000
0010
0000
1000
0000
0000
0100
0000
0010
0000
0100
0000
0001
0000
0100
0000
,
0010
0000
0001
0000
1000
0000
0010
0000
0100
0000
0000
0001
0000
0000
0010
0000
,
0000
0010
0001
0000
1000
0000
0000
0010
0000
0000
0100
0000
1000
0000
0100
0000
,
0010
0000
1000
0000
0001
0000
0010
0000
0100
0000
0000
1000
0000
0000
0010
0000
,
0000
0100
0000
0001
0000
0000
1000
0000
0100
0000
0010
0000
0001
0000
0100
0000
,
1000
0100
0002
0000
0000
1003
1001
0000
,
1000
0100
0110
0000
1001
0000
0001
0100
,
1000
0000
0100
0000
0001
0000
0000
0010
0000
0000
0100
0000
1000
0000
0001
0000
,
0010
0000
0001
0000
1000
0000
0000
0010
0000
0000
1000
0000
0010
0000
0001
0000
,
0010
0000
1000
0000
0100
0000
0000
0010
0000
0000
0100
0000
1000
0000
0001
0100
,
0000
0010
0000
2000
0000
0000
3020
0000
2030
0000
3200
0000
0320
0000
2030
0000
,
3020
0000
0230
0000
1300
0000
0000
0001
0000
0000
0100
0000
0010
0000
1000
0000
,
0001
0000
1000
0000
0100
0000
0000
0010
0000
0000
0001
0000
0010
0000
1000
0000
,
0010
0000
0001
0000
2000
0000
0000
3010
0000
0000
0010
0000
0100
0000
0001
0000
,
1000
0000
0000
0110
0000
0000
1001
0000
1000
0000
0100
0000
0010
0000
0001
0000
,
0100
0000
0010
0000
1000
0000
0000
0010
0000
0000
0100
0000
0001
0000
1000
0000
,
0010
0000
1000
0000
0001
0000
0000
0010
0000
0000
0001
0000
0010
0000
1000
0000
,
0010
0000
0001
0000
0100
0000
0000
0010
0000
0000
0100
0000
0001
0000
1000
0100
,
0000
0010
0000
0002
0000
0000
0023
0000
0032
0000
0203
0000
0320
0000
0032
0000
,
0023
0000
0230
0000
0302
0000
0000
0000
0000
0000
1003
0000
1001
0000
0000
0100
,
0000
0000
0100
0000
1001
0000
0000
0010
0000
0000
0010
0000
1001
0000
0000
0000
,
1000
0100
0220
0000
0330
0010
0001
0100
,
0010
0000
0000
0100
0000
0000
0010
0000
1000
0000
0100
0000
0001
0000
1000
0000
,
0010
0001
0200
0000
0000
0000
0000
0000
,
0000
0000
0000
0000
,
0000
0300
0000
0000
,
0000
0000
0011
0000
1010
0000
1000
0100
,
0001
0010
0000
0000
0000
0000
0000
0000
;

//---------------dance-single - ----------------
#NOTEDATA:;
#CHARTNAME:;
#STEPSTYPE:dance-single;
#DESCRIPTION:;
#CHARTSTYLE:;
#DIFFICULTY:Easy;
#METER:10;
#RADARVALUES:0.460510,0.462408,0.216397,0.268631,0.022386,432.000000,403.000000,29.000000,36.000000,0.000000,0.000000,0.000000,0.000000,0.000000,0.460510,0.462408,0.216397,0.268631,0.022386,432.000000,403.000000,29.000000,36.000000,0.000000,0.000000,0.000000,0.000000,0.000000;
#CREDIT:;
#OFFSET:-0.039918;
#BPMS:0.000000=155.000000
,131.000000=77.500000
,139.000000=155.000000
;
#STOPS:8.750000=0.967742
,14.250000=0.967742
;
#DELAYS:;
#WARPS:;
#TIMESIGNATURES:0.000000=4=4
;
#TICKCOUNTS:0.000000=4
;
#COMBOS:0.000000=1
;
#SPEEDS:0.000000=1.000000=0.000000=0
;
#SCROLLS:0.000000=1.000000
;
#FAKES:;
#LABELS:0.000000=Song Start
;
#NOTES:
// measure 0
0000
0000
0000
0000
,  // measure 1
0000
0000
0000
0000
,  // measure 2
1001
0000
0000
1001
0000
0000
0020
0000
0000
0000
0000
0000
0000
0000
0000
0000
,  // measure 3
0000
0000
0030
0000
0000
0000
1001
0000
0000
1001
0000
0000
1000
0000
0000
0000
,  // measure 4
0100
0000
0001
0000
0100
0000
1000
0010
,  // measure 5
1000
0000
0001
0000
1000
0000
0001
0010
,  // measure 6
0001
1000
0001
2000
,  // measure 7
3020
0032
0203
1300
,  // measure 8
1000
0000
1000
0000
0001
1000
0001
0000
,  // measure 9
0001
0000
0100
0010
1000
0000
0001
0010
,  // measure 10
1000
0000
1000
0010
0001
0100
1000
0000
,  // measure 11
1000
0000
0000
1000
0000
0000
0100
0000
0001
0000
0000
0000
0010
0000
0000
0000
,  // measure 12
0100
0000
0010
0001
1000
0000
0200
0000
,  // measure 13
0302
0000
2003
0000
3020
0000
0031
0100
,  // measure 14
1000
0000
1000
0100
0002
0000
0013
0100
,  // measure 15
1000
0000
1000
0010
0200
0000
0301
0010
,  // measure 16
0100
1000
0010
0100
0001
0000
1000
0000
,  // measure 17
1000
0000
0100
0010
0001
0000
1000
0010
,  // measure 18
0001
0000
0001
0010
1000
0100
0001
0000
,  // measure 19
0001
0000
0000
0001
0000
0000
0100
0000
1000
0000
0000
0000
0010
0000
0000
0000
,  // measure 20
0100
0000
1000
0100
0001
0000
0020
0000
,  // measure 21
2030
0000
3002
0000
0203
0000
1300
0010
,  // measure 22
0001
0000
0001
0010
1000
0000
1001
0000
,  // measure 23
0110
0000
0001
1000
0001
0000
2002
0000
,  // measure 24
0000
0000
3003
1000
,  // measure 25
1000
0000
0010
0000
0001
0010
1000
0000
,  // measure 26
1000
0000
0100
0000
0001
0100
1000
0000
,  // measure 27
1000
0000
0010
0000
0001
0010
1000
0000
,  // measure 28
0100
0010
0001
0000
1000
0000
1001
0000
,  // measure 29
0010
1001
0100
1001
,  // measure 30
0010
0000
0000
0020
0000
0000
0000
0000
0000
0030
0000
0000
2000
0000
0000
0000
,  // measure 31
3200
0302
0023
0030
,  // measure 32
1000
0000
0000
0001
0000
0000
1001
0000
0000
0000
0000
0000
1000
0000
0000
0000
,  // measure 33
0100
0001
1000
0001
,  // measure 34
0010
0000
1000
0000
0001
2000
3001
0010
,  // measure 35
0001
0020
0000
0130
1000
0200
0000
1300
,  // measure 36
0010
2000
0000
3001
0100
0001
1000
0001
,  // measure 37
1000
0200
0300
0010
0100
0020
0030
2002
,  // measure 38
3003
1001
1001
0001
,  // measure 39
0100
1000
0100
0001
,  // measure 40
0010
1000
0010
0001
,  // measure 41
0100
1000
0100
0001
,  // measure 42
0010
0000
0110
0000
0000
0000
1000
0100
,  // measure 43
0001
0000
1000
0010
0001
0000
0001
0100
,  // measure 44
1000
0000
0001
0010
1000
0000
1100
0000
,  // measure 45
0011
0000
1000
0010
0100
0001
1000
0000
,  // measure 46
1000
0000
0100
0010
0002
0000
1003
0000
,  // measure 47
0010
1000
0100
0000
0010
0001
0100
0000
,  // measure 48
1000
0100
0010
0100
0001
0000
1000
0000
,  // measure 49
0001
0010
0100
0000
0010
0000
0001
1000
,  // measure 50
0001
0000
1000
0010
0100
0001
1000
0000
,  // measure 51
0100
1000
0010
0000
0100
0001
0010
0000
,  // measure 52
0100
0000
0001
0100
0010
0100
2000
0000
,  // measure 53
0000
0001
3001
0000
0100
0000
1010
0000
,  // measure 54
0011
0101
1100
0001
,  // measure 55
0010
0001
0100
0000
0010
1000
0100
0000
,  // measure 56
0001
0100
0010
0100
1000
0000
0001
0000
,  // measure 57
1000
0010
0100
0000
0010
0000
1000
0001
,  // measure 58
1000
0000
0001
0010
0100
1000
0001
0000
,  // measure 59
0100
0001
0010
0000
0100
1000
0010
0000
,  // measure 60
0100
0000
1000
0100
0010
0100
0002
0000
,  // measure 61
0000
1000
1003
0000
0100
0000
0011
0000
,  // measure 62
1100
0000
1000
0010
0100
0001
1000
0100
,  // measure 63
1000
0000
0100
1000
0001
0000
0100
0001
,  // measure 64
0100
0000
1000
0100
0001
0000
0010
0100
,  // measure 65
1000
0000
0010
0100
0001
0000
1000
0000
,  // measure 66
1000
0000
1000
0100
0001
0100
1000
0001
,  // measure 67
1000
0000
0001
0100
0010
0000
1000
0001
,  // measure 68
1000
0000
0001
0010
1000
0010
0001
0000
,  // measure 69
0100
0000
0010
0100
0010
0000
1010
0000
,  // measure 70
0101
0000
0011
0000
1100
0000
0001
0100
,  // measure 71
0001
0000
0100
0001
1000
0000
0100
1000
,  // measure 72
0100
0000
0001
0100
1000
0000
0010
0100
,  // measure 73
0001
0000
0010
0100
1000
0000
0001
0000
,  // measure 74
0001
0000
0001
0100
1000
0100
0002
0000
,  // measure 75
0000
1000
1003
0000
0100
0000
0001
0100
,  // measure 76
1000
0000
1000
0010
0001
0010
2000
0000
,  // measure 77
0000
0000
3100
0010
0100
0000
1001
0000
,  // measure 78
0110
0000
0001
0100
1000
0100
0002
0000
,  // measure 79
0000
0000
0000
0000
,  // measure 80
0000
0000
0000
0003
,  // measure 81
0000
0000
0000
0001
,  // measure 82
0001
0000
1000
0100
0010
0001
0000
0000
;

//---------------dance-single - ----------------
#NOTEDATA:;
#CHARTNAME:;
#STEPSTYPE:dance-single;
#DESCRIPTION:;
#CHARTSTYLE:;
#DIFFICULTY:Beginner;
#METER:6;
#RADARVALUES:0.344316,0.511891,0.320864,0.395484,0.011193,323.000000,280.000000,43.000000,53.000000,0.000000,0.000000,0.000000,0.000000,0.000000,0.344316,0.511891,0.320864,0.395484,0.011193,323.000000,280.000000,43.000000,53.000000,0.000000,0.000000,0.000000,0.000000,0.000000;
#CREDIT:;
#OFFSET:-0.039918;
#BPMS:0.000000=155.000000
;
#STOPS:;
#DELAYS:;
#WARPS:;
#TIMESIGNATURES:0.000000=4=4
;
#TICKCOUNTS:0.000000=4
;
#COMBOS:0.000000=1
;
#SPEEDS:0.000000=1.000000=0.000000=0
;
#SCROLLS:0.000000=1.000000
;
#FAKES:;
#LABELS:0.000000=Song Start
;
#NOTES:
// measure 0
0000
0000
0000
0000
,  // measure 1
0000
0000
0000
0000
,  // measure 2
2002
0000
0000
3003
0000
0000
0000
0000
0000
0000
0000
0000
0000
0000
0000
0000
,  // measure 3
0020
0000
0000
0030
,  // measure 4
2002
0000
0000
3003
0000
0000
0000
0000
0000
0000
0000
0000
0000
0000
0000
0000
,  // measure 5
1000
0001
1000
0001
,  // measure 6
0010
0010
0001
0001
,  // measure 7
1000
1000
0010
0010
,  // measure 8
2000
3002
2003
3002
,  // measure 9
1003
0000
0000
0000
,  // measure 10
0001
0001
0010
0010
,  // measure 11
0001
0100
1000
0100
,  // measure 12
0001
0000
0000
0000
0001
0000
0000
0002
0000
0000
0000
0000
0013
0000
0000
0000
,  // measure 13
0100
1000
0001
0001
,  // measure 14
0200
2300
3002
0023
,  // measure 15
1030
1000
0001
0002
,  // measure 16
0013
0001
1000
0000
,  // measure 17
2002
3003
1000
0001
,  // measure 18
1000
1000
0010
0010
,  // measure 19
1000
0100
0001
0100
,  // measure 20
1000
0000
0000
0000
1000
0000
0000
2000
0000
0000
0000
0000
3010
0000
0000
0000
,  // measure 21
0100
0001
1000
1000
,  // measure 22
0200
0302
2003
3020
,  // measure 23
0031
0001
1000
1000
,  // measure 24
1001
0110
1001
0000
,  // measure 25
2002
0000
0000
3003
,  // measure 26
1001
1000
0100
0100
,  // measure 27
1001
0001
0100
0100
,  // measure 28
1001
1000
0010
0010
,  // measure 29
1001
0001
0020
0030
,  // measure 30
0011
1000
1010
0001
,  // measure 31
0101
0000
0000
0000
1000
0000
0000
2200
0000
0000
0000
0000
0000
3300
0000
0000
,  // measure 32
2000
3200
0302
0023
,  // measure 33
0030
0000
2020
0000
0000
3030
0000
0000
,  // measure 34
1000
0000
0100
0000
,  // measure 35
0001
0000
0100
0000
,  // measure 36
1000
0000
0010
0000
,  // measure 37
0001
0000
0010
1000
,  // measure 38
0002
0003
0020
0030
,  // measure 39
2000
3000
0020
0032
,  // measure 40
2003
0000
3000
0002
0000
0003
0000
0100
,  // measure 41
0000
0200
0000
0000
0010
0000
0310
0000
,  // measure 42
1000
1000
0100
0100
,  // measure 43
0010
0010
0001
0001
,  // measure 44
0100
0100
0010
0010
,  // measure 45
1000
1000
0001
0000
,  // measure 46
0011
1000
1100
0001
,  // measure 47
0101
1000
1010
0001
,  // measure 48
0011
1100
1010
0101
,  // measure 49
2002
0000
0000
3003
,  // measure 50
0001
0010
0001
0010
,  // measure 51
0100
1000
0001
0100
,  // measure 52
0010
1000
0010
1000
,  // measure 53
0100
0001
1000
0010
,  // measure 54
0001
0100
0001
0100
,  // measure 55
0010
1000
0001
0010
,  // measure 56
0210
0000
0310
0100
,  // measure 57
1100
0110
0011
1001
,  // measure 58
1000
0010
1000
0010
,  // measure 59
0100
0001
1000
0100
,  // measure 60
0010
0001
0010
0001
,  // measure 61
0100
1000
0001
0010
,  // measure 62
1000
0100
1000
0100
,  // measure 63
0010
0001
1000
0010
,  // measure 64
0120
0000
0130
0001
,  // measure 65
1001
0011
1001
1010
,  // measure 66
0001
0001
0100
0010
,  // measure 67
0100
0100
1000
0100
,  // measure 68
0001
0001
0010
0100
,  // measure 69
1000
1000
0010
0001
,  // measure 70
0010
0010
1000
0001
,  // measure 71
0010
0010
0100
1000
,  // measure 72
0001
0100
1000
0100
,  // measure 73
0220
0330
1001
0110
,  // measure 74
1000
1000
0100
0010
,  // measure 75
0100
0100
0001
0100
,  // measure 76
1000
1000
0010
0100
,  // measure 77
0001
0001
0010
0100
,  // measure 78
0220
0330
1001
0010
,  // measure 79
2002
3003
0100
0010
,  // measure 80
1001
0000
0001
0010
,  // measure 81
1000
0100
0001
0010
,  // measure 82
0220
0000
0000
0000
,  // measure 83
0000
0000
0000
0000
,  // measure 84
0330
0000
0000
0000
,  // measure 85
0100
1000
0010
0001
;
