#VERSION:0.83;
#TITLE:Blackjack;
#SUBTITLE:;
#ARTIST:Airbourne;
#TITLETRANSLIT:;
#SUBTITLETRANSLIT:;
#ARTISTTRANSLIT:;
#GENRE:Rock;
#ORIGIN:;
#CREDIT:;
#BANNER:Blackjack.png;
#BACKGROUND:Blackjack-bg.png;
#PREVIEWVID:;
#JACKET:Blackjack-jacket.png;
#CDIMAGE:;
#DISCIMAGE:;
#LYRICSPATH:;
#CDTITLE:cdtitle.png;
#MUSIC:Blackjack.ogg;
#OFFSET:-0.005810;
#SAMPLESTART:30.816622;
#SAMPLELENGTH:10.378378;
#SELECTABLE:YES;
#BPMS:0.000=185.000,
316.500=174.000,
317.500=154.000,
318.000=155.500,
319.000=101.600,
320.000=67.210,
325.000=63.500;
#STOPS:;
#DELAYS:;
#WARPS:;
#TIMESIGNATURES:0.000=4=4;
#TICKCOUNTS:0.000=4;
#COMBOS:0.000=1;
#SPEEDS:0.000=1.000=0.000=0;
#SCROLLS:0.000=1.000;
#FAKES:;
#LABELS:0.000=Song Start;
#BGCHANGES:;
#KEYSOUNDS:;
#ATTACKS:
;

//---------------dance-single - ----------------
#NOTEDATA:;
#CHARTNAME:;
#STEPSTYPE:dance-single;
#DESCRIPTION:;
#CHARTSTYLE:;
#DIFFICULTY:Challenge;
#METER:13;
#RADARVALUES:0.664705,0.648586,0.522901,0.478588,0.101921,525.000000,466.000000,59.000000,54.000000,20.000000,0.000000,0.000000,0.000000,0.000000,0.664705,0.648586,0.522901,0.478588,0.101921,525.000000,466.000000,59.000000,54.000000,20.000000,0.000000,0.000000,0.000000,0.000000;
#CREDIT:;
#NOTES:
0000
0000
0000
0000
,
0000
0000
0000
0000
,
0000
0000
0000
0000
,
0000
0000
0000
0000
,
0001
0000
0000
0000
0100
0000
0000
0000
0001
0000
0000
0000
1000
0000
0000
00M0
0000
M000
0000
0000
0010
0000
0000
0000
0002
0000
0000
0000
0000
0000
0000
0000
,
0013
0001
0101
0000
0011
0000
0101
0000
,
1000
0000
0000
0000
0100
0000
0000
0000
1000
0000
0000
0000
0001
0000
0000
00M0
0000
000M
0000
0000
0010
0000
0000
0000
2000
0000
0000
0000
0000
0000
0000
0000
,
3010
1000
1100
0000
1010
0000
1100
0000
,
0001
0010
0000
1000
0000
0010
0002
0000
,
0013
0001
0001
0001
0010
0001
0001
0000
,
1000
0010
0000
0001
0010
0000
2000
0000
,
3010
1000
1000
1000
0010
1000
1000
0000
,
2100
0000
0100
3200
0000
0001
0302
0000
,
0103
0010
0010
0010
0100
1000
0010
0000
,
0102
0000
0100
0203
0000
1000
2300
0000
,
3100
0010
0010
0010
0100
0001
0010
0000
,
0011
0000
1001
0000
0001
0001
0100
0000
,
1010
0000
1001
0000
1100
0000
1000
1000
,
0100
0010
0001
0200
0000
0010
0010
0310
,
0000
0100
0010
0010
0100
0001
1000
0100
,
0110
0000
0001
0100
1000
0010
0001
0000
,
0110
0000
1000
0100
0001
0010
1000
0000
,
0110
0000
0001
1001
0000
0010
1001
0000
,
1000
1001
0000
0001
0100
0010
1001
0000
,
0001
0000
0000
0000
0100
0000
0000
0000
0001
0000
0000
0000
0010
0000
0000
M000
0000
00M0
0000
0000
1000
0000
0000
0000
0200
0000
0000
0000
0000
0000
0000
0000
,
1300
0010
1010
0000
0011
0000
1000
0100
,
0001
0100
0010
0200
0000
1000
1300
0000
,
0001
0100
0202
0303
2020
3030
1001
0000
,
1000
0000
0000
0000
0100
0000
0000
0000
1000
0000
0000
0000
0010
0000
0000
000M
0000
00M0
0000
0000
0001
0000
0000
0000
0200
0000
0000
0000
0000
0000
0000
0000
,
0301
0010
0011
0000
1010
0000
0001
0100
,
1000
0100
0010
0200
0000
0001
0301
0000
,
1000
0100
2200
3300
0022
0033
1000
0010
,
1000
0000
0000
0000
0100
0000
0000
0000
0001
0000
0000
0000
1000
0000
0000
0M00
0000
M000
0000
0000
0100
0000
0000
0000
1000
0000
0000
0000
0100
0000
0000
0000
,
0001
0100
1100
0000
0110
0000
0001
0010
,
0001
0000
0000
0000
0100
0000
0000
0000
1000
0000
0000
0000
0001
0000
0000
0M00
0000
000M
0000
0000
0100
0000
0000
0000
0001
0000
0000
0000
0100
0000
0000
0000
,
1000
0100
0101
0000
0110
0000
0001
1000
,
0001
0000
0000
0000
0010
0000
0000
0000
1000
0000
0000
0000
0001
0000
0000
00M0
0000
000M
0000
0000
0010
0000
0000
0000
0001
0000
0000
0000
0010
0000
0000
0000
,
1000
0010
0011
0000
1100
0000
1000
0001
,
1000
0000
0000
0000
0010
0000
0000
0000
0001
0000
0000
0000
1000
0000
0000
00M0
0000
M000
0000
0000
0010
0000
0000
0000
1000
0000
0000
0000
0010
0000
0000
0000
,
0001
0010
1000
0100
0001
0100
1000
0010
,
1000
0100
0010
0002
0000
0100
2003
0000
,
3010
0000
1000
0001
1000
0000
0000
0000
1100
0000
0000
0000
0001
0000
1000
0000
,
0001
0100
0010
2000
0000
0100
3002
0000
,
0013
0000
0001
1000
0001
0000
0000
0000
0101
0000
0000
0000
1000
0000
0100
0000
,
1000
0100
0001
0100
0001
0100
1000
0010
,
1000
0010
0002
0000
0013
0000
0001
0010
,
1000
0010
0001
1000
0100
0001
1000
0010
,
0001
0001
0010
1000
1000
0100
0110
0000
,
2100
0100
0100
0100
,
3001
1000
0001
0000
1000
0000
1000
0000
,
0002
0100
0100
0100
,
1003
0001
1000
0000
0001
0000
0001
0000
,
2000
0100
0001
0001
,
3010
1000
0010
0000
1000
0000
1000
0000
,
0002
0100
1000
1000
,
0013
0001
0010
0000
0001
0000
1000
0001
,
0100
0001
0100
0002
1000
0000
1000
0000
,
1003
0001
0010
0000
0010
0000
0001
1000
,
0100
1000
0100
2000
0001
0000
0001
0000
,
3001
1000
0010
0000
0010
0000
1000
0010
,
1000
0001
0010
0002
1000
0000
1000
0000
,
1003
0001
0100
0000
0100
0000
0001
0010
,
2100
0000
3010
0102
0000
0013
2001
0000
,
3010
1002
0000
0103
0100
0100
0010
1000
,
0001
0000
0000
0000
0010
0000
0000
0000
1000
0000
0000
0000
0001
0000
0000
00M0
0000
000M
0000
0000
0010
0000
0000
0000
0200
0000
0000
0000
0000
0000
0000
0000
,
0310
0001
0011
0000
0101
0000
0001
0100
,
1000
0100
0001
0020
0000
0100
0130
0000
,
1000
0100
0022
0033
2200
3300
1010
0000
,
1000
0000
0000
0000
0010
0000
0000
0000
0001
0000
0000
0000
1000
0000
0000
00M0
0000
M000
0000
0000
0010
0000
0000
0000
0200
0000
0000
0000
0000
0000
0000
0000
,
0310
1000
1010
0000
1100
0000
1000
0100
,
0001
1000
0010
0002
0000
1000
1003
0000
,
0100
0010
0011
0000
1001
0000
0101
0001
,
1000
0001
0010
0100
1000
0001
0100
0001
,
0010
0100
0001
0100
1000
0010
1000
0100
,
0001
0100
1000
0010
0001
0010
1000
0100
,
1000
0010
0001
0010
1000
0100
0001
0100
,
1000
0010
0001
0010
1000
0100
0010
1000
,
0010
0001
0100
1000
0100
0001
0010
0100
,
1002
0000
1003
2010
0000
3010
0021
0000
,
0031
0102
0000
0103
2100
0000
3001
0000
,
2002
0000
0000
0000
,
0000
0000
3003
0000
0010
0010
0000
0000
0000
0000
0000
0000
0000
0000
0000
0000
;

//---------------dance-single - ----------------
#NOTEDATA:;
#CHARTNAME:;
#STEPSTYPE:dance-single;
#DESCRIPTION:;
#CHARTSTYLE:;
#DIFFICULTY:Hard;
#METER:10;
#RADARVALUES:0.565949,0.576521,0.717881,0.274745,0.004431,447.000000,366.000000,81.000000,31.000000,0.000000,0.000000,0.000000,0.000000,0.000000,0.565949,0.576521,0.717881,0.274745,0.004431,447.000000,366.000000,81.000000,31.000000,0.000000,0.000000,0.000000,0.000000,0.000000;
#CREDIT:;
#NOTES:
0000
0000
0000
0000
,
0000
0000
0000
0000
,
0000
0000
0000
0000
,
0000
0000
0000
0000
,
0001
0101
0001
0101
,
0001
0011
1010
0011
,
1000
1100
1000
1100
,
1000
1010
0011
1010
,
0001
0100
0000
1000
0000
0100
0001
0000
,
0010
0011
0010
0011
,
1000
0100
0000
0001
0100
0000
1000
0000
,
0010
1010
0010
1010
,
0001
0000
0100
1000
0000
0010
0001
0000
,
0100
1001
0100
1001
,
1000
0000
0100
0001
0000
0010
1000
0000
,
0001
0000
1001
0000
0001
1000
0100
0000
,
0011
0000
1100
0000
0001
0010
0001
0000
,
0101
0000
1010
0000
0101
0000
1000
0010
,
1000
1001
0001
1001
,
0100
1001
0010
1100
,
0011
0000
0001
0100
0001
0100
0001
0000
,
1010
0000
1000
0100
1000
0100
1000
0000
,
0110
0000
0001
0100
0000
0100
1000
0000
,
1000
0010
0000
0010
0001
0000
1000
0000
,
2010
0001
0100
0100
,
3001
1000
0010
0000
0110
0000
0001
0100
,
0001
0000
1000
0100
0000
0100
1000
0000
,
0010
1001
1001
1100
,
0012
1000
0100
0100
,
1003
0001
0010
0000
0110
0000
1000
0100
,
1000
0000
0001
0100
0000
0100
0001
0000
,
0010
0000
1001
0000
1001
0000
0001
0100
,
0001
0000
0100
0020
0000
0100
0200
0000
,
0330
0000
1010
0000
0101
0000
1000
0100
,
1000
0000
0100
0020
0000
0100
0200
0000
,
0330
0000
0011
0000
1100
0000
0001
0100
,
0010
0000
1000
0200
0000
0001
0002
0000
,
0303
0000
0101
0000
1100
0000
1000
0100
,
0010
0000
0001
0200
0000
1000
2300
0000
,
3100
0010
0100
0000
0101
0000
1010
0000
,
0001
0011
0001
0011
,
0010
0001
0100
0000
0101
0000
1010
0000
,
1000
1010
1000
1010
,
0010
1000
0100
0000
1100
0000
0011
0000
,
1000
0100
1000
0100
0010
0001
0010
0001
,
1000
0100
0020
0000
0130
0000
0011
0000
,
1000
0010
0100
0001
1000
0010
0100
0001
,
2000
0000
3000
0220
0000
0330
1002
0000
,
2003
0100
0100
3100
,
1000
0100
1000
0000
0100
0000
0010
0000
,
0002
0100
0100
0103
,
0001
0100
0001
0000
1000
0000
0100
0000
,
0020
0100
0100
0130
,
0010
0001
1000
0000
0001
0000
0100
0000
,
0020
0100
0100
0130
,
0010
1000
0001
0000
1000
0000
0100
0000
,
0010
0000
0001
0010
0001
0000
0010
0000
,
0001
0010
0001
0000
0100
0000
0010
0000
,
1000
0000
0010
1000
0010
0000
1000
0000
,
0010
1000
0010
0000
1000
0000
0100
0000
,
0010
0000
0001
0100
0001
0000
1000
0000
,
0100
1000
0100
0000
0010
0000
0001
0000
,
0202
0000
0303
2020
0000
3030
2200
0000
,
3300
0022
0000
0033
1000
0001
1000
0000
,
1020
0100
0001
0100
,
1030
0010
1000
0000
1001
0000
1000
0100
,
0001
0000
0001
0100
0000
0100
1000
0000
,
0010
0101
1010
1100
,
0021
0100
1000
0100
,
0031
0010
0001
0000
1001
0000
0001
0100
,
1000
0000
1000
0100
0000
0100
0001
0000
,
0010
0100
1000
0000
1001
0000
1001
0000
,
0001
0100
1000
0000
0001
0100
1000
0000
,
0100
0101
0011
0101
,
1000
0100
0001
0000
1000
0100
0001
0000
,
0100
1100
1010
1100
,
0001
0010
1000
0000
1000
0010
0001
0000
,
0100
0110
1001
0110
,
1001
0000
1000
0010
0000
0100
1000
0000
,
0001
0100
0000
0010
0001
0000
1000
0000
,
2002
0000
0000
0000
,
0000
0000
3003
0000
0010
0010
0000
0000
0000
0000
0000
0000
0000
0000
0000
0000
;

//---------------dance-single - ----------------
#NOTEDATA:;
#CHARTNAME:;
#STEPSTYPE:dance-single;
#DESCRIPTION:;
#CHARTSTYLE:;
#DIFFICULTY:Medium;
#METER:8;
#RADARVALUES:0.391226,0.504068,0.416548,0.434274,0.000000,309.000000,262.000000,47.000000,49.000000,0.000000,0.000000,0.000000,0.000000,0.000000,0.391226,0.504068,0.416548,0.434274,0.000000,309.000000,262.000000,47.000000,49.000000,0.000000,0.000000,0.000000,0.000000,0.000000;
#CREDIT:;
#NOTES:
0000
0000
0000
0000
,
0000
0000
0000
0000
,
0000
0000
0000
0000
,
0000
0000
0000
0000
,
0001
0001
0100
0200
,
0000
0310
1000
0001
,
1000
1000
0100
0200
,
0000
0310
0001
1000
,
0001
0001
0100
2000
,
3000
0100
0001
0000
,
1000
1000
0100
0002
,
0003
0100
1000
0000
,
0001
0010
1000
0020
,
0030
0001
1000
0000
,
1000
0010
0001
0020
,
0030
1000
0001
0010
,
0100
0100
1000
0010
,
0100
0100
0001
0010
,
0100
0010
0010
0200
,
0000
0010
0310
0001
,
0101
0010
1000
0000
,
1100
0010
0001
0000
,
0100
0000
0000
0100
0000
0000
0100
0000
,
0000
1001
0000
0000
0110
0000
0001
0000
,
1000
0100
0010
0002
,
0003
0100
0010
0000
0100
0000
0001
0000
,
0010
0100
1000
0002
,
0003
1001
1001
1000
,
0001
0100
0010
2000
,
3000
0100
0010
0000
0100
0000
1000
0000
,
0010
0100
0001
2000
,
3000
1001
1001
0001
,
1000
0000
0100
0020
0000
0000
0200
0000
,
0330
0011
1100
1000
,
0001
0000
0100
0020
0000
0000
0200
0000
,
0330
1010
0101
1000
,
0001
0000
0010
0200
0000
0000
2000
0000
,
3300
1100
0101
0001
,
1000
0000
0010
0200
0000
0000
0301
0000
,
0010
0011
1010
0011
,
0001
0100
1000
0100
,
0001
0010
0001
0000
0202
0000
0303
0000
,
1000
0100
0001
0100
,
1000
0010
1000
0000
2200
0000
3300
0000
,
0001
0010
1000
0010
,
0001
0200
0010
0310
,
1000
0010
0001
0010
,
2000
0000
0000
3002
0000
0000
1003
0000
,
2002
0000
0000
0000
,
3003
1000
0100
0010
,
0220
0000
0000
0000
,
0330
0001
0100
0010
,
0220
0000
0000
0000
,
0330
0100
0010
0100
,
2002
0000
0000
0000
,
3003
1000
0100
0010
,
0001
0001
0200
0000
,
0301
0100
0100
0010
,
1000
1000
0200
0000
,
1300
0100
0100
0010
,
0001
0100
0020
0000
,
1030
0100
0010
0001
,
1001
0000
0000
0110
0000
0000
1001
0000
,
0000
0110
0000
0000
1001
0000
1001
0000
,
1000
0010
0001
0020
,
0030
1000
0010
0000
1000
0000
0100
0000
,
0001
1000
0010
0002
,
0003
1001
1001
1000
,
0001
0010
1000
0020
,
0030
0001
0010
0000
0001
0000
0100
0000
,
1000
0001
0010
2000
,
3000
0010
1000
0000
1001
0000
0110
0000
,
2001
0010
0001
0010
,
3001
0011
1100
0011
,
1002
0010
1000
0010
,
1003
1010
0101
1010
,
0210
0001
1000
0001
,
0310
0101
1010
1100
,
0012
0000
0000
0203
0000
0000
2300
0000
,
0000
3020
0000
0000
0031
0000
1000
0000
,
2002
0000
0000
0000
,
0000
3003
0010
0000
0000
0000
0000
0000
;

//---------------dance-single - ----------------
#NOTEDATA:;
#CHARTNAME:;
#STEPSTYPE:dance-single;
#DESCRIPTION:;
#CHARTSTYLE:;
#DIFFICULTY:Easy;
#METER:6;
#RADARVALUES:0.310196,0.360049,0.230431,0.248157,0.000000,245.000000,219.000000,26.000000,28.000000,0.000000,0.000000,0.000000,0.000000,0.000000,0.310196,0.360049,0.230431,0.248157,0.000000,245.000000,219.000000,26.000000,28.000000,0.000000,0.000000,0.000000,0.000000,0.000000;
#CREDIT:;
#NOTES:
0000
0000
0000
0000
,
0000
0000
0000
0000
,
0000
0000
0000
0000
,
0000
0000
0000
0000
,
0001
0001
0001
0000
,
0100
0010
1000
0000
,
1000
1000
1000
0000
,
0100
0010
0001
0000
,
1000
0010
1000
0010
,
1000
0000
1000
0000
,
0001
0010
0001
0010
,
0001
0000
0001
0000
,
1000
0010
0100
0001
,
0010
0000
0010
0000
,
0001
0010
0100
1000
,
0010
0000
0010
0000
,
1000
0100
0001
0000
,
0001
0100
1000
0000
,
0010
0100
0010
0200
,
0000
0010
0310
0000
,
1000
1000
0010
0000
,
0001
0001
0010
0000
,
1000
0000
1000
0000
,
1000
0100
0010
0001
,
1000
1000
0100
0001
,
0000
0100
1000
0000
,
1000
0100
0010
0001
,
0000
1001
1001
0000
,
0001
0001
0100
1000
,
0000
0100
0001
0000
,
0001
0100
0010
1000
,
0000
1001
1001
0000
,
1000
0100
0020
0030
,
0100
0110
1001
0000
,
0001
0100
0020
0030
,
0100
0110
1001
0000
,
1000
0001
0020
0030
,
0010
1100
0011
0000
,
0001
1000
0020
0030
,
0010
0010
1000
0001
,
1000
0100
0010
0001
,
0100
0010
2020
3030
,
0001
0100
0010
1000
,
0100
0010
0022
0033
,
0001
0010
1000
0010
,
0001
0010
2000
3000
,
0001
0100
1000
0010
,
0001
0010
2000
3000
,
2002
0000
0000
0000
,
3003
1000
0100
0000
,
0220
0000
0000
0000
,
0330
0001
0100
0000
,
0220
0000
0000
0000
,
0330
0100
0010
0000
,
2002
0000
0000
0000
,
3003
1000
0001
0000
,
1000
0100
2000
0000
,
3001
0001
0001
0000
,
0001
0100
0002
0000
,
1003
1000
1000
0000
,
0100
0010
0002
0000
,
0103
0010
1000
0000
,
1001
0000
1001
0000
,
1000
0001
1000
1001
,
1000
1000
0010
0001
,
0000
1000
0100
0000
,
0001
0010
0001
0100
,
0000
1001
1001
0000
,
0001
0001
0010
1000
,
0000
0001
0100
0000
,
1000
0010
1000
0100
,
0000
1000
0001
1001
,
1002
0000
1003
0000
,
0001
0100
1000
0100
,
2001
0000
3001
0000
,
1000
0100
0001
0100
,
1002
0000
1003
0000
,
1000
0010
0100
0001
,
0020
0000
0000
0000
,
0000
0000
0000
0030
,
2002
0000
0000
0000
,
0000
3003
0010
0000
0000
0000
0000
0000
;

//---------------dance-single - ----------------
#NOTEDATA:;
#CHARTNAME:;
#STEPSTYPE:dance-single;
#DESCRIPTION:;
#CHARTSTYLE:;
#DIFFICULTY:Beginner;
#METER:3;
#RADARVALUES:0.222834,0.396053,0.230431,0.186117,0.000000,176.000000,150.000000,26.000000,21.000000,0.000000,0.000000,0.000000,0.000000,0.000000,0.222834,0.396053,0.230431,0.186117,0.000000,176.000000,150.000000,26.000000,21.000000,0.000000,0.000000,0.000000,0.000000,0.000000;
#CREDIT:;
#OFFSET:-0.005810;
#BPMS:0.000000=185.000000
,316.500000=174.000000
,317.500000=154.000000
,318.000000=155.500000
,319.000000=101.599998
,320.000000=67.209999
,325.000000=63.499996
;
#STOPS:;
#DELAYS:;
#WARPS:;
#TIMESIGNATURES:0.000000=4=4
;
#TICKCOUNTS:0.000000=4
;
#COMBOS:0.000000=1
;
#SPEEDS:0.000000=1.000000=0.000000=0
;
#SCROLLS:0.000000=1.000000
,316.500000=1.063218
,317.500000=1.201298
,318.000000=1.189710
,319.000000=1.820866
,320.000000=2.752566
;
#FAKES:;
#LABELS:0.000000=Song Start
;
#NOTES:
// measure 0
0000
0000
0000
0000
,  // measure 1
0000
0000
0000
0000
,  // measure 2
0000
0000
0000
0000
,  // measure 3
0000
0000
0000
0000
,  // measure 4
0001
0001
0001
0000
,  // measure 5
1000
0000
0001
0000
,  // measure 6
1000
1000
1000
0000
,  // measure 7
0001
0000
1000
0000
,  // measure 8
0100
0100
0100
0000
,  // measure 9
0200
0000
0300
0000
,  // measure 10
0010
0010
0010
0000
,  // measure 11
0020
0000
0030
0000
,  // measure 12
0001
0001
0001
0000
,  // measure 13
2000
0000
3000
0000
,  // measure 14
1000
1000
1000
0000
,  // measure 15
0002
0000
0003
0000
,  // measure 16
0100
0100
0100
0000
,  // measure 17
0100
0100
0100
0000
,  // measure 18
0010
0000
0010
0000
,  // measure 19
1000
0000
0001
0000
,  // measure 20
0010
0010
0010
0000
,  // measure 21
0010
0010
0010
0000
,  // measure 22
0100
0000
0100
0000
,  // measure 23
2002
0000
3003
0000
,  // measure 24
0001
0000
0001
0000
,  // measure 25
0100
0100
0100
0000
,  // measure 26
0001
0000
0001
0000
,  // measure 27
0000
1001
1001
0000
,  // measure 28
1000
0000
1000
0000
,  // measure 29
0100
0100
0100
0000
,  // measure 30
1000
0000
1000
0000
,  // measure 31
0000
1001
1001
0000
,  // measure 32
0001
0000
0002
0003
,  // measure 33
0000
0001
0001
0000
,  // measure 34
0100
0000
0200
0300
,  // measure 35
0000
0100
0100
0000
,  // measure 36
1000
0000
2000
3000
,  // measure 37
0000
1000
1000
0000
,  // measure 38
0010
0000
0020
0030
,  // measure 39
0000
0010
0010
0000
,  // measure 40
0001
0000
1000
0000
,  // measure 41
0001
0001
0001
0000
,  // measure 42
0100
0000
0010
0000
,  // measure 43
0100
0100
0100
0000
,  // measure 44
0001
0000
0010
0000
,  // measure 45
0100
0100
0100
0000
,  // measure 46
1000
0000
0010
0000
,  // measure 47
0100
0100
0100
0000
,  // measure 48
2002
0000
0000
0000
,  // measure 49
3003
0000
0000
0000
,  // measure 50
2000
0000
0000
0000
,  // measure 51
3000
0000
0000
0000
,  // measure 52
0002
0000
0000
0000
,  // measure 53
0003
0000
0000
0000
,  // measure 54
2000
0000
0000
0000
,  // measure 55
3000
0000
0000
0000
,  // measure 56
0001
0000
0002
0000
,  // measure 57
0003
0000
0000
0000
,  // measure 58
1000
0000
2000
0000
,  // measure 59
3000
0000
0000
0000
,  // measure 60
0010
0000
0020
0000
,  // measure 61
0030
0000
0000
0000
,  // measure 62
1001
0000
1001
0000
,  // measure 63
1001
1001
1001
0000
,  // measure 64
0001
0000
0001
0000
,  // measure 65
0010
0010
0010
0000
,  // measure 66
0001
0000
0001
0000
,  // measure 67
0000
0110
0110
0000
,  // measure 68
1000
0000
1000
0000
,  // measure 69
0010
0010
0010
0000
,  // measure 70
1000
0000
1000
0000
,  // measure 71
0000
0010
0010
0000
,  // measure 72
1001
0000
0010
0000
,  // measure 73
1001
1001
1001
0000
,  // measure 74
0110
0000
0001
0000
,  // measure 75
0110
0110
0110
0000
,  // measure 76
1001
0000
0100
0000
,  // measure 77
1001
1001
1001
0000
,  // measure 78
2002
0000
0000
0000
,  // measure 79
0000
0000
3003
0000
,  // measure 80
0200
0000
0000
0000
,  // measure 81
0300
0100
0000
0000
;
