#VERSION:0.83;
#TITLE:Blackest Luxury Car;
#SUBTITLE:;
#ARTIST:Chicala Lpis;
#TITLETRANSLIT:;
#SUBTITLETRANSLIT:;
#ARTISTTRANSLIT:;
#GENRE:Drum & Jazz;
#ORIGIN:;
#CREDIT:;
#BANNER:Blackest Luxury Car.png;
#BACKGROUND:Blackest Luxury Car-bg.png;
#PREVIEWVID:;
#JACKET:Blackest Luxury Car-jacket.png;
#CDIMAGE:;
#DISCIMAGE:;
#LYRICSPATH:;
#CDTITLE:cdtitle.png;
#MUSIC:Blackest Luxury Car.ogg;
#OFFSET:-0.331345;
#SAMPLESTART:86.620483;
#SAMPLELENGTH:10.766514;
#SELECTABLE:YES;
#BPMS:0.000=178.000,
160.000=89.000,
176.000=178.000,
232.000=89.000,
235.000=178.000,
309.000=89.000,
311.000=178.000;
#STOPS:;
#DELAYS:;
#WARPS:;
#TIMESIGNATURES:0.000=4=4;
#TICKCOUNTS:0.000=4;
#COMBOS:0.000=1;
#SPEEDS:0.000=1.000=0.000=0;
#SCROLLS:0.000=1.000;
#FAKES:;
#LABELS:0.000=Song Start;
#BGCHANGES:;
#KEYSOUNDS:;
#ATTACKS:
;

//---------------dance-single - ----------------
#NOTEDATA:;
#CHARTNAME:;
#STEPSTYPE:dance-single;
#DESCRIPTION:;
#CHARTSTYLE:;
#DIFFICULTY:Challenge;
#METER:15;
#RADARVALUES:0.752370,0.942256,0.392443,0.525874,0.439536,671.000000,621.000000,50.000000,67.000000,51.000000,0.000000,0.000000,0.000000,0.000000,0.752370,0.942256,0.392443,0.525874,0.439536,671.000000,621.000000,50.000000,67.000000,51.000000,0.000000,0.000000,0.000000,0.000000;
#CREDIT:;
#NOTES:
0000
0000
0000
0000
,
0000
0000
0000
0000
,
0000
0000
0000
0000
,
0000
0000
0000
0000
,
0100
0000
0100
1000
0001
0100
0000
0100
,
0010
1000
0000
0001
0000
0001
0010
0001
,
0100
0000
0100
0001
1000
0100
0000
0010
,
0001
0000
1000
0000
0000
0000
1001
0000
0000
0000
0001
0100
0010
1000
0100
0010
,
0002
0000
0013
0100
0001
0100
0010
0001
,
1000
0000
0001
0000
0100
0000
0110
0000
M0MM
0000
0100
1000
0001
0000
0100
0000
,
0020
0000
0000
0000
0130
0000
1000
0000
0100
0000
0001
0000
0010
0100
0010
0100
,
1000
0000
0010
0000
0000
0000
1MM2
0000
0000
0000
0013
0001
0010
0000
0100
0000
,
2000
0000
3010
0100
1000
0100
0010
1000
,
0001
0000
1000
0000
0100
0000
0110
0000
M0MM
0000
0100
0001
1000
0000
0100
0000
,
0020
0000
0000
0000
0130
0000
0001
0000
0100
0000
1000
0000
0010
0100
0010
0100
,
0001
0000
0001
0000
1000
0000
1000
0000
0100
0000
1000
0100
0010
0001
0010
0100
,
1000
0000
1002
0000
0103
0020
0000
0230
,
0000
0000
1300
0000
0100
0000
0001
0000
1000
0000
0100
0000
0010
0000
0001
0100
,
0020
0000
1030
0002
0000
1003
0100
0001
,
0100
0000
1000
0000
0000
0000
1002
0000
0000
0000
1003
0001
0100
0010
0100
0001
,
1000
0100
0010
0001
0100
1000
0001
0010
,
1000
0000
0100
0000
0000
0000
0210
0000
0000
0000
0310
0001
1000
0001
0100
0000
,
0010
2000
0000
3001
0010
1000
0000
1020
,
0000
0000
1030
0000
0010
0000
0002
0000
0000
0000
1003
0010
0100
0001
0100
0010
,
1000
0000
0000
0000
1001
0000
0001
1000
0100
0000
0020
0000
0000
0000
0230
0000
,
0000
0000
0301
0000
0100
0000
1000
0000
0001
0000
0100
0000
0010
0000
1000
0100
,
0020
0000
0031
2000
0000
3001
0100
1000
,
0100
0000
0001
0000
0000
0000
2001
0000
0000
0000
3001
1000
0100
0010
0100
1000
,
0001
0100
0010
1000
0100
0001
1000
0010
,
0001
0000
0100
0000
0000
0000
0210
0000
0000
0000
0310
1000
0001
1000
0100
0000
,
0010
0002
0000
1003
0010
0001
0000
0021
,
0000
0000
0031
0000
0010
0000
2000
0000
0000
0000
3001
0010
0100
1000
0010
0100
,
0001
0000
0000
0000
1000
0000
0010
MM0M
0010
0000
0001
0000
0100
0000
M0MM
0000
,
1100
0000
0000
0000
1000
0010
1000
0010
1000
0000
0001
0010
0100
0000
0010
0000
,
0001
0000
1000
0000
0001
0000
0100
0000
0010
1000
0010
1000
0001
0000
0100
0000
,
2000
0000
3002
0000
0000
0000
0023
0000
0000
0000
1030
0010
1000
0000
0100
0000
,
0010
0000
0000
0000
0001
0000
0010
MM0M
0010
0000
1000
0000
0100
0000
M0MM
0000
,
0101
0000
0000
0000
0001
0010
0001
0010
0001
0000
1000
0010
0100
0000
0010
0000
,
1000
0000
0001
0010
1000
0010
0001
1000
,
0100
0000
0110
0000
0000
0000
1001
0000
0000
0000
1000
0010
0100
0001
0010
0100
,
2000
0000
0000
0000
0000
0000
0010
0000
0000
0000
0000
0000
0001
0000
0000
0000
0000
0000
0100
0000
0000
0000
0000
0000
0001
0000
0000
0000
0000
0000
3010
1000
,
0020
0000
0000
0000
0000
0000
0100
0000
0000
0000
0000
0000
0001
0000
0000
0000
0000
0000
0100
0000
0000
0000
0000
0000
1030
0000
0000
0000
0000
0000
0001
1000
,
0002
0000
0000
0000
0000
0000
0010
0000
0000
0000
0000
0000
1000
0000
0000
0000
0000
0000
0100
0000
0000
0000
0000
0000
1000
0000
0000
0000
0000
0000
0013
0100
,
0020
0000
0000
1000
0000
0000
0001
0000
0130
2000
0000
0000
3001
0100
0110
0000
,
1001
0000
0000
0000
1000
0000
0100
0000
0010
0000
0001
0100
0001
0100
0001
0000
,
2000
0000
3020
0000
0000
0000
0032
0000
0000
0000
0013
0100
0001
0000
1000
0000
,
0001
0000
0010
0000
0010
0000
0010
M000
010M
00M0
1000
0000
1000
0000
1000
0000
,
1001
0000
0000
0000
0000
0000
0101
0000
0000
0000
0000
0000
1001
0000
0000
0000
1000
0000
0100
0000
1000
0000
0100
0000
0010
0000
0000
0000
0M00
00M0
0000
0000
,
1001
0000
0000
0000
0001
0000
0100
0000
0010
0000
1000
0001
1000
0001
1000
0000
,
0002
0000
0023
0000
0000
0000
2030
0000
0000
0000
3010
0001
1000
0000
0001
0000
,
0100
0000
0010
0000
0010
0000
0010
0M00
100M
00M0
0100
0000
0100
0000
0100
0000
,
0020
0000
0000
0000
0000
0130
1001
0000
,
1000
0000
0000
0001
0000
0000
1000
0000
0000
0001
0000
0000
1000
0000
0000
0000
0001
0000
0000
0000
1000
0000
0000
0000
0100
0000
0000
0000
0000
0000
0010
0000
0000
0001
0000
0000
0010
0000
0000
0001
0000
0000
0010
0000
0000
0000
0000
0000
,
0002
0000
0203
0000
0000
0000
2300
0000
0000
0000
3100
0010
1000
0000
0001
0000
,
1000
0000
0100
0000
0100
0000
0100
000M
M010
0M00
0001
0000
0001
0000
0001
0000
,
0101
0000
0000
0000
0000
0000
1010
0000
0000
0000
0000
0000
1100
0000
0000
0000
0000
0000
0011
0000
0000
0000
0001
0000
0100
0000
0000
0000
00M0
0M00
0000
0000
,
1001
0000
0000
0000
1000
0000
0010
0000
0100
0000
0001
1000
0001
1000
0001
0000
,
2000
0000
3200
0000
0000
0000
0302
0000
0000
0000
0103
1000
0001
0000
0100
0000
,
0220
0000
0000
0000
0000
0330
1000
0010
,
0100
0001
1001
0000
0001
0020
0000
2030
,
0000
0000
3010
0000
0001
0000
1000
0000
0001
0000
0100
0000
1000
0000
0100
0010
,
0100
0001
1000
0000
1000
0100
1000
0100
,
0001
0000
1000
0000
0010
0000
0001
0000
0100
0000
1000
0000
0MMM
0000
1000
0010
,
1000
0100
0010
0000
0001
0200
0000
2300
,
0000
0000
3100
0000
0001
0000
0010
0000
1000
0000
0010
0000
0100
0000
1000
0001
,
1000
0000
0001
0000
0101
0000
1000
0010
1000
0000
1020
0000
0000
0000
1030
0000
,
1100
0000
0001
0010
0001
0000
0012
0000
0000
0000
1003
0000
1001
0000
0001
0100
,
0010
1000
0100
0010
0001
0000
0000
0000
1000
0000
0020
0000
0000
0000
0032
0000
,
0000
0000
1003
0000
0100
0000
0001
0000
1000
0000
0100
0000
0001
0000
0100
0010
,
0100
1000
0001
0000
0001
0100
0001
0100
,
1000
0000
0001
0000
0010
0000
1000
0000
0100
0000
0001
0000
MMM0
0000
0001
0010
,
0001
0100
0010
0000
1000
0200
0000
0302
,
0000
0000
1003
0000
0010
0000
0001
0000
0100
0000
1000
0000
0100
0000
0001
1000
,
0001
0010
0110
0100
1000
1002
0000
0103
,
0110
0000
0010
0000
1000
0000
1002
0000
0000
0000
1003
0000
1100
0000
0010
0001
,
1000
0000
0001
0000
0101
0000
1000
0010
1000
0000
1010
0000
0001
0100
0001
0000
,
0101
0000
1000
0100
1000
0000
1100
0000
0001
0010
0001
0000
1000
0010
0100
0001
,
1000
0100
0220
0000
0000
0330
2001
0000
,
3001
0100
1000
0100
0010
1000
0001
1000
,
0100
0000
0110
0000
M0MM
0000
0100
0001
1000
0000
0100
0000
0020
0000
0000
0000
,
0130
1000
0010
0001
1000
0100
0001
0010
,
0000
0000
2MM1
0000
0000
0000
3010
1000
0010
0000
0100
0000
0002
0000
0000
0000
,
1003
0100
0001
0100
0010
0001
1000
0001
,
0100
0000
0110
0000
M0MM
0000
0100
1000
0001
0000
0100
0000
0020
0000
0000
0000
,
1030
0010
0001
0010
1000
0100
0010
0001
,
0000
1002
0000
0013
0001
0100
MMMM
0000
;

//---------------dance-single - ----------------
#NOTEDATA:;
#CHARTNAME:;
#STEPSTYPE:dance-single;
#DESCRIPTION:;
#CHARTSTYLE:;
#DIFFICULTY:Hard;
#METER:13;
#RADARVALUES:0.609969,0.605736,0.408141,0.510176,0.051018,544.000000,492.000000,52.000000,65.000000,2.000000,0.000000,2.000000,0.000000,0.000000,0.609969,0.605736,0.408141,0.510176,0.051018,544.000000,492.000000,52.000000,65.000000,2.000000,0.000000,2.000000,0.000000,0.000000;
#CREDIT:;
#NOTES:
0000
0000
0000
0000
,
0000
0000
0000
0000
,
0000
0000
0000
0000
,
0000
0000
0000
0000
,
0001
0100
0101
0001
,
1000
0100
1100
1000
,
0001
0100
0110
0010
,
1000
0001
0000
1000
0100
0010
0001
1000
,
0020
0000
1030
0001
0100
0001
0000
0001
,
1000
0100
0010
0001
0000
0101
0000
2100
,
0000
3001
0100
0010
2000
0000
3010
1000
,
0100
0100
0000
0002
0000
0103
0010
0100
,
2000
0000
3001
1000
0100
1000
0000
1000
,
0001
0100
0010
1000
0000
1100
0000
0102
,
0000
1003
0100
0010
0002
0000
0103
0000
,
0010
0100
0010
0100
0001
1000
0100
0010
,
0001
0000
2000
0000
3010
0200
0000
0302
,
0000
1003
0100
1000
0100
1000
0100
0010
,
0002
0000
0103
0020
0000
0130
1000
0100
,
0010
0200
0000
0302
0000
1003
0100
0010
,
0000
0001
1000
0001
1000
0001
0100
0001
,
1000
0100
0000
0020
0000
0031
0100
0010
,
0000
1020
0000
1030
0001
0010
0000
0021
,
0000
0130
1000
0002
0000
0103
0010
1000
,
0001
0000
1002
0000
0013
0200
0000
2300
,
0000
3001
0100
0001
0100
0001
0100
0010
,
2000
0000
3100
0020
0000
0130
0001
0100
,
0010
0200
0000
2300
0000
3001
0100
0010
,
0000
1000
0001
1000
0001
1000
0100
1000
,
0001
0100
0000
0020
0000
1030
0100
0010
,
0000
0021
0000
0031
1000
0010
0000
1020
,
0000
0130
0001
2000
0000
3001
0010
0100
,
2000
0000
3001
0100
0010
0100
0001
0000
,
0101
0000
0001
0100
1000
0100
0001
1000
,
0200
0000
0001
0000
0310
0100
1000
0000
,
0001
0101
0000
1010
0000
1100
0100
0010
,
0002
0000
1003
0100
0010
0100
1000
0000
,
1100
0000
1000
0100
0001
0100
1000
0001
,
0200
0000
1000
0000
0310
0100
0001
1000
,
0100
0010
0000
1001
0000
0001
0100
0010
,
2000
0000
0000
0010
0000
0000
0001
0000
0000
0010
0000
0000
0001
0000
0000
0000
,
3002
0000
0000
0010
0000
0000
1000
0000
0000
0010
0000
0000
1000
0000
0000
0000
,
2003
0000
0000
0100
0000
0000
0001
0000
0000
0010
0000
0000
0001
0000
0000
0000
,
3002
0000
0000
0100
0000
0000
1000
0000
0000
0023
0000
0000
0000
0130
0010
0000
,
1001
0000
0001
0010
0100
0001
0100
0010
,
0001
0101
0000
1002
0000
0013
0100
1000
,
0001
0100
0010
0100
0001
0010
0100
0010
,
0001
0000
0000
1000
0000
0000
0001
0000
0100
0000
0010
0000
1000
0000
0000
0000
,
1001
0000
1000
0100
0010
1000
0010
0100
,
1000
1001
0000
0201
0000
0310
1000
0001
,
1000
0100
0010
0100
1000
0010
0100
0010
,
2000
0000
0000
0000
0000
3001
1001
0000
,
4000
0004
0000
0000
0000
0000
0000
0000
3003
0000
0000
0000
1000
0000
0100
0000
,
0010
0011
0000
2001
0000
3010
0100
0001
,
1000
0100
0010
0100
1000
0010
0100
0010
,
1000
0000
0000
0001
0000
0000
1000
0000
0000
0001
0000
0000
1001
0000
0000
0000
,
1001
0000
1000
0010
0100
1000
0100
0010
,
1000
1001
0000
0021
0000
0130
1000
0001
,
2002
0000
0000
0000
0000
3003
1000
0010
,
0100
0001
1001
0000
0001
0010
0000
0110
,
0000
0010
0001
1000
0001
0100
0010
1000
,
0001
1000
0100
0000
1000
0100
1000
0100
,
0010
0100
0001
0100
0010
0100
0000
2100
,
0000
0001
3001
0000
0100
0010
0000
1010
,
0000
0010
0100
0001
1000
0100
0010
0001
,
0100
0010
2010
0000
3001
0012
0000
1003
,
2100
0000
3001
0102
0000
0103
0010
1000
,
0100
0010
0001
0000
1000
0010
0000
0110
,
0000
0010
1000
0001
1000
0100
0010
0001
,
1000
0001
0100
0000
0001
0100
0001
0100
,
0010
0100
1000
0100
0010
0100
0000
0001
,
0102
0000
1003
0000
0100
0010
0000
0011
,
0000
0010
0100
1000
0001
0100
0010
1000
,
0100
0010
0001
0100
0001
0200
0000
0310
,
1000
0001
1000
0200
0000
0310
0100
1000
,
0001
0100
0210
0000
0301
1002
0000
0013
,
0210
0000
1300
2001
0000
3010
0100
0001
,
1000
0100
0220
0000
0000
0330
0020
0000
,
0031
1000
0010
1000
0000
1000
0010
0100
,
0001
1000
0000
1100
0000
0102
0000
1003
,
0100
0010
0001
0100
0000
0010
0100
0100
,
0000
2000
0000
3100
0010
0100
0002
0000
,
1003
0001
0010
0001
0000
0001
1000
0010
,
0100
0001
0000
0101
0000
2100
0000
3001
,
0100
0010
1000
0001
1000
0010
1000
0100
,
0000
0020
0000
0130
1000
0001
M00M
0000
;

//---------------dance-single - ----------------
#NOTEDATA:;
#CHARTNAME:;
#STEPSTYPE:dance-single;
#DESCRIPTION:;
#CHARTSTYLE:;
#DIFFICULTY:Medium;
#METER:9;
#RADARVALUES:0.457477,0.471128,0.447385,0.463083,0.023547,408.000000,351.000000,57.000000,59.000000,0.000000,0.000000,0.000000,0.000000,0.000000,0.457477,0.471128,0.447385,0.463083,0.023547,408.000000,351.000000,57.000000,59.000000,0.000000,0.000000,0.000000,0.000000,0.000000;
#CREDIT:;
#NOTES:
0000
0000
0000
0000
,
0000
0000
0000
0000
,
0000
0000
0000
0000
,
0000
0000
0000
0000
,
1000
0000
1000
0000
,
0001
0000
0001
0000
,
1000
0000
1000
0000
,
0100
0010
0000
0002
0000
0103
0010
0000
,
2010
0000
3001
0100
0000
0100
0001
0000
,
1000
0000
0001
0010
0000
0110
0000
2100
,
0000
0001
3001
0000
1000
0001
1000
0000
,
0010
1000
0000
0200
0000
0310
0001
0000
,
0012
0000
1003
0100
0000
0100
1000
0000
,
0001
0000
1000
0010
0000
0110
0000
0102
,
0000
1000
1003
0000
0001
1000
0001
0000
,
2002
0000
3003
0000
1000
0001
1000
0001
,
1000
0000
0200
0000
0310
0002
0000
0203
,
0000
0310
1000
0000
1000
0000
0010
1000
,
0002
0000
0000
2003
0000
0000
3100
0000
,
0002
0000
0000
0203
0000
0310
0001
0000
,
1000
1000
0010
0010
,
0100
0001
0000
2000
0000
3100
0010
0001
,
0000
0002
0000
0103
0010
1000
0000
2000
,
0000
3100
0010
0200
0000
0000
0310
0000
,
0000
0000
2001
0000
3010
2000
0000
3200
,
0000
0310
0001
0000
0001
0000
0010
0001
,
2000
0000
0000
3002
0000
0000
0103
0000
,
2000
0000
0000
3200
0000
0310
1000
0000
,
0001
0001
0010
0010
,
0100
1000
0000
0002
0000
0103
0010
1000
,
0000
2000
0000
3100
0010
0001
0000
0002
,
0000
0103
0010
0200
0000
0000
0301
0000
,
1001
1000
0100
0001
,
0101
0000
0001
0000
0100
0000
1000
0001
,
0100
0100
0010
1000
,
0001
0010
0000
2000
0000
3010
0001
0000
,
1001
0001
0100
1000
,
1100
0000
1000
0000
0100
0000
0001
1000
,
0100
0100
0010
0001
,
2002
0000
3003
0000
0001
0100
0010
1000
,
0002
0000
0000
0000
0100
0000
0000
1000
0000
1000
0000
0000
0100
0000
0000
0000
,
2003
0000
0000
0000
0100
0000
0000
0001
0000
0001
0000
0000
0100
0000
0000
0000
,
3002
0000
0000
0000
0010
0000
0000
1000
0000
1000
0000
0000
0100
0000
0000
0000
,
2003
0000
0000
0000
3010
0000
0000
0000
0220
0000
0000
0000
0000
0300
0030
0000
,
1001
1000
0100
0010
,
0001
0100
0000
0120
0000
0130
0001
0000
,
1000
1010
0001
0011
,
1000
0000
1000
0010
1000
0000
0110
0000
,
1001
0001
0100
0010
,
1000
0100
0000
0120
0000
0130
1000
0000
,
0001
0011
1000
1100
,
0002
0000
0000
1003
,
2002
0000
3003
0001
,
1000
0010
0000
0201
0000
0310
1000
0000
,
0001
0011
1000
1010
,
0002
0000
0003
0110
,
1001
1000
0010
0100
,
0001
0010
0000
2001
0000
3010
1000
0000
,
2002
0000
0000
0000
0000
3003
0001
1000
,
0001
1000
0100
0000
0010
0001
0000
0001
,
0000
0001
0100
0000
0010
0000
1000
0001
,
1000
0100
0010
0010
,
0100
0000
1000
0000
0001
0100
0000
0120
,
0000
1000
1030
0000
0001
0010
0000
0010
,
0000
0010
0100
0000
1000
0000
0001
1000
,
0001
0000
0101
0000
0000
0110
0000
0000
,
1100
0000
0000
0110
0000
0000
0101
0000
,
0001
0000
1001
0000
0010
1000
0000
1000
,
0000
1000
0100
0000
0010
0000
0001
1000
,
0001
0100
0010
0010
,
0100
0000
0001
0000
1000
0100
0000
0100
,
0020
0000
0031
0000
1000
0010
0000
0010
,
0000
0010
0100
0000
0001
0000
1000
0001
,
1000
0000
1100
0000
0000
0110
0000
0000
,
0101
0000
0000
0110
0000
0000
1100
0000
,
1001
0000
1010
0000
0000
0110
0000
0000
,
0011
0000
0000
0110
0000
0000
1010
0000
,
1000
0001
0020
0000
0000
0030
2100
0000
,
3001
0100
0000
0100
0010
0000
0100
0000
,
0001
1000
0000
1100
0000
0120
0000
0001
,
0031
0000
1000
0001
1000
0000
0010
1000
,
0000
0200
0000
0310
0001
0000
0102
0000
,
1003
0100
0000
0100
0010
0000
0001
0000
,
1000
0001
0000
0101
0000
0120
0000
1000
,
1030
0000
0001
1000
0001
0000
2002
0000
,
0000
0000
3003
0110
;

//---------------dance-single - ----------------
#NOTEDATA:;
#CHARTNAME:;
#STEPSTYPE:dance-single;
#DESCRIPTION:;
#CHARTSTYLE:;
#DIFFICULTY:Easy;
#METER:7;
#RADARVALUES:0.307227,0.403824,0.376745,0.415990,0.000000,274.000000,226.000000,48.000000,53.000000,0.000000,0.000000,0.000000,0.000000,0.000000,0.307227,0.403824,0.376745,0.415990,0.000000,274.000000,226.000000,48.000000,53.000000,0.000000,0.000000,0.000000,0.000000,0.000000;
#CREDIT:;
#NOTES:
0000
0000
0000
0000
,
0000
0000
0000
0000
,
0000
0000
0000
0000
,
0000
0000
0000
0000
,
0001
0000
0001
0000
,
1000
0000
1000
0000
,
0001
0000
0001
0000
,
0200
0000
0300
0000
,
1002
0000
0010
0000
,
1003
0000
0000
0010
0000
1000
0000
0200
,
0000
0000
0001
0000
,
0310
0000
0000
0100
0000
0000
1000
0000
,
2001
0000
0010
0000
,
3001
0000
0000
0010
0000
0001
0000
0200
,
0000
0000
1000
0000
,
0310
0010
1000
0001
,
0010
0000
0100
0000
0100
0000
0000
2000
,
0000
3001
0001
1000
,
0020
0000
0000
0230
0000
0000
0310
0000
,
2000
0000
0000
3002
0000
0000
1003
0000
,
0000
1000
1000
0100
,
0001
0000
0000
0200
0000
0000
1300
0000
,
0000
2001
0000
0000
3010
0000
0000
1002
,
0000
0013
0000
0200
0000
0000
0310
0000
,
0000
0000
1001
0000
0100
0000
0000
0002
,
0000
1003
1000
0001
,
0020
0000
0000
0230
0000
0000
0310
0000
,
0002
0000
0000
2003
0000
0000
3001
0000
,
0000
0001
0001
0100
,
1000
0000
0000
0200
0000
0000
0301
0000
,
0000
1002
0000
0000
0013
0000
0000
2001
,
0000
3010
0000
0200
0000
0000
0301
0000
,
0000
1000
0100
0100
,
0001
1000
0010
0010
,
0002
0000
0100
0103
,
1010
0000
0000
1001
0000
0000
0011
0000
,
0000
0001
0100
0100
,
1000
0001
0010
0010
,
2000
0000
0100
3100
,
0220
0000
0000
0330
,
1002
0000
0000
0000
,
0203
0000
0320
0000
,
2030
0000
0000
0000
,
3200
0000
0000
0000
0000
0000
0000
0000
0020
0000
0000
0000
0000
0300
0030
0000
,
1002
0000
0013
0100
,
0011
0000
0000
0110
0000
0000
1100
0000
,
0000
1000
0010
0001
,
0010
0010
1000
0100
,
0210
0000
0301
0100
,
1100
0000
0000
1001
0000
0000
1010
0000
,
0000
0001
0010
0100
,
2000
0000
0000
3010
,
2002
3003
0001
1000
,
1010
0000
0000
0110
0000
0000
0101
0000
,
0000
0001
0010
1000
,
0020
0000
0000
0031
,
1002
0000
1003
0010
,
0101
0000
0000
1001
0000
0000
0011
0000
,
0210
0000
0000
1300
,
0001
1001
0000
0010
,
0000
1000
0100
0001
,
0100
1000
0000
0010
,
0000
1000
0010
0100
,
0001
1000
0000
0100
,
0000
0001
0100
0010
,
0100
0000
2100
0000
0000
3010
0000
0000
,
0102
0000
0000
0013
0000
0000
1001
0000
,
0110
1001
0000
0010
,
0000
0001
0100
1000
,
0100
0001
0000
0010
,
0000
0001
0010
0100
,
1000
0001
0000
0100
,
0000
1000
0100
0010
,
0100
0000
0102
0000
0000
1003
0000
0000
,
2100
0000
0000
3001
0000
0000
0101
0000
,
0110
0000
2010
0000
0000
3100
0000
0000
,
0012
0000
0000
0103
0000
0000
1001
0000
,
0110
1001
0000
1002
,
0000
0100
0000
1003
,
0000
0010
0000
1000
0000
0200
0000
0000
,
0000
0001
0000
1300
,
0000
0001
0000
0000
0100
0000
2001
0000
,
0000
0100
0000
3001
,
0000
0010
0000
0001
0000
0200
0000
0000
,
0000
0010
0310
2002
,
0000
0000
3003
0110
;

//---------------dance-single - ----------------
#NOTEDATA:;
#CHARTNAME:;
#STEPSTYPE:dance-single;
#DESCRIPTION:;
#CHARTSTYLE:;
#DIFFICULTY:Beginner;
#METER:3;
#RADARVALUES:0.178281,0.249986,0.086337,0.329652,0.000000,159.000000,148.000000,11.000000,42.000000,0.000000,0.000000,0.000000,0.000000,0.000000,0.178281,0.249986,0.086337,0.329652,0.000000,159.000000,148.000000,11.000000,42.000000,0.000000,0.000000,0.000000,0.000000,0.000000;
#CREDIT:;
#OFFSET:-0.331345;
#BPMS:0.000000=178.000000
;
#STOPS:;
#DELAYS:;
#WARPS:;
#TIMESIGNATURES:0.000000=4=4
;
#TICKCOUNTS:0.000000=4
;
#COMBOS:0.000000=1
;
#SPEEDS:0.000000=1.000000=0.000000=0
;
#SCROLLS:0.000000=1.000000
;
#FAKES:;
#LABELS:0.000000=Song Start
;
#NOTES:
// measure 0
0000
0000
0000
0000
,  // measure 1
0000
0000
0000
0000
,  // measure 2
0000
0000
0000
0000
,  // measure 3
0000
0000
0000
0000
,  // measure 4
1000
0000
0000
0000
,  // measure 5
0001
0000
0000
0000
,  // measure 6
1000
0000
0000
0000
,  // measure 7
0100
0000
0000
0000
,  // measure 8
2002
0000
3003
0000
,  // measure 9
1000
0000
0010
0000
,  // measure 10
2000
0000
3000
0000
,  // measure 11
0100
0000
0100
0000
,  // measure 12
2002
0000
3003
0000
,  // measure 13
0001
0000
0010
0000
,  // measure 14
0002
0000
0003
0000
,  // measure 15
0100
0100
0100
0000
,  // measure 16
0001
0000
0001
0000
,  // measure 17
0010
0000
0010
0000
,  // measure 18
0100
0000
0100
0000
,  // measure 19
1000
0000
0001
0000
,  // measure 20
0100
0000
0100
0000
,  // measure 21
0001
0000
1000
0000
,  // measure 22
0010
0000
1000
0000
,  // measure 23
0100
0000
0200
0000
,  // measure 24
0300
1000
1000
0000
,  // measure 25
0010
0000
0010
0000
,  // measure 26
0100
0000
0100
0000
,  // measure 27
0001
0000
1000
0000
,  // measure 28
0100
0000
0100
0000
,  // measure 29
1000
0000
0001
0000
,  // measure 30
0010
0000
0001
0000
,  // measure 31
0100
0000
0100
0000
,  // measure 32
0010
0000
0010
0010
,  // measure 33
0010
0000
0010
0000
,  // measure 34
1000
0000
0100
0000
,  // measure 35
2002
0000
3003
0000
,  // measure 36
0010
0000
0010
0010
,  // measure 37
0010
0000
0010
0000
,  // measure 38
0001
0000
0100
0000
,  // measure 39
0220
0000
0330
0000
,  // measure 40
2002
0000
0000
0000
,  // measure 41
3003
0000
0000
0000
,  // measure 42
2000
0000
3000
0000
,  // measure 43
0002
0000
0003
0000
,  // measure 44
2000
0000
0000
0000
,  // measure 45
3000
0000
0000
0000
,  // measure 46
0002
0000
0003
0000
,  // measure 47
2000
0000
3000
0000
,  // measure 48
2002
0000
3003
0000
,  // measure 49
0001
0000
0100
0000
,  // measure 50
0010
0000
0010
0000
,  // measure 51
1000
1000
1000
0000
,  // measure 52
2002
0000
3003
0000
,  // measure 53
1000
0000
0100
0000
,  // measure 54
0010
0000
0010
0000
,  // measure 55
0001
0000
0000
0000
,  // measure 56
0200
0000
0300
0000
,  // measure 57
0010
0000
1000
0000
,  // measure 58
0001
0000
0001
0000
,  // measure 59
0020
0000
0030
0000
,  // measure 60
2002
0000
3003
0000
,  // measure 61
0001
0000
1000
0000
,  // measure 62
0220
0000
0000
0000
,  // measure 63
0000
0000
0330
0000
,  // measure 64
1000
0000
0010
0000
,  // measure 65
1000
1000
1000
0000
,  // measure 66
0100
0000
0010
0000
,  // measure 67
0100
0100
0100
0000
,  // measure 68
1000
0000
0001
0000
,  // measure 69
1000
1000
1000
0000
,  // measure 70
0020
0000
0000
0030
0000
0000
0200
0000
,  // measure 71
0000
0300
0000
0000
0001
0000
0001
0000
,  // measure 72
0001
0000
0010
0000
,  // measure 73
0001
0001
0001
0000
,  // measure 74
0100
0000
0010
0000
,  // measure 75
0100
0100
0100
0000
,  // measure 76
0001
0000
1000
0000
,  // measure 77
0001
0001
0001
0000
,  // measure 78
0020
0000
0000
0030
0000
0000
0200
0000
,  // measure 79
0000
0300
0000
0000
1000
0000
0000
0000
,  // measure 80
0002
0000
0000
0003
0000
0000
2000
0000
,  // measure 81
0000
3000
0000
0000
0010
0000
0010
0000
,  // measure 82
0020
0000
0030
0000
,  // measure 83
2002
0000
3003
0000
,  // measure 84
0001
0000
0010
0000
,  // measure 85
0002
0000
0003
0000
,  // measure 86
0100
0000
0100
0000
,  // measure 87
2002
0000
3003
0000
,  // measure 88
1000
0000
0010
0000
,  // measure 89
2000
0000
3000
0000
,  // measure 90
0200
0000
0000
0000
,  // measure 91
0300
0000
0000
0000
;
