#VERSION:0.83;
#TITLE:Beyond the Seven;
#SUBTITLE:;
#ARTIST:Nhato;
#TITLETRANSLIT:;
#SUBTITLETRANSLIT:;
#ARTISTTRANSLIT:;
#GENRE:Trance;
#ORIGIN:;
#CREDIT:;
#BANNER:Beyond the Seven.png;
#BACKGROUND:Beyond the Seven-bg.png;
#PREVIEWVID:;
#JACKET:Beyond the Seven-jacket.png;
#CDIMAGE:;
#DISCIMAGE:;
#LYRICSPATH:;
#CDTITLE:cdtitle.png;
#MUSIC:Beyond the Seven.ogg;
#OFFSET:-1.263898;
#SAMPLESTART:82.391663;
#SAMPLELENGTH:13.501125;
#SELECTABLE:YES;
#BPMS:0.000=142.000,
128.000=71.000,
144.000=142.000;
#STOPS:;
#DELAYS:;
#WARPS:;
#TIMESIGNATURES:0.000=4=4;
#TICKCOUNTS:0.000=4;
#COMBOS:0.000=1;
#SPEEDS:0.000=1.000=0.000=0,
173.000=1.330=0.000=0,
174.000=1.660=0.000=0,
175.000=2.000=0.000=0;
#SCROLLS:0.000=1.000,
144.000=0.750,
159.000=1.000,
172.000=0.000,
175.000=-0.500,
175.250=-0.250,
175.500=0.000,
175.750=0.750,
176.000=0.500;
#FAKES:;
#LABELS:0.000=Song Start;
#BGCHANGES:;
#KEYSOUNDS:;
#ATTACKS:
;

//---------------dance-single - ----------------
#NOTEDATA:;
#CHARTNAME:;
#STEPSTYPE:dance-single;
#DESCRIPTION:;
#CHARTSTYLE:;
#DIFFICULTY:Challenge;
#METER:13;
#RADARVALUES:0.639371,0.774529,0.169959,0.420852,0.720304,553.000000,532.000000,21.000000,52.000000,0.000000,0.000000,6.000000,0.000000,0.000000,0.639371,0.774529,0.169959,0.420852,0.720304,553.000000,532.000000,21.000000,52.000000,0.000000,0.000000,6.000000,0.000000,0.000000;
#CREDIT:;
#OFFSET:-1.263898;
#BPMS:0.000000=142.000000
,128.000000=71.000000
,144.000000=142.000000
;
#STOPS:;
#DELAYS:;
#WARPS:;
#TIMESIGNATURES:0.000000=4=4
;
#TICKCOUNTS:0.000000=4
;
#COMBOS:0.000000=1
;
#SPEEDS:0.000000=1.000000=0.000000=0
,173.000000=1.330000=0.000000=0
,174.000000=1.660000=0.000000=0
,175.000000=2.000000=0.000000=0
;
#SCROLLS:0.000000=1.000000
,136.000000=1.500000
,144.000000=1.000000
,172.000000=0.000000
,175.000000=-0.500000
,175.250000=-0.250000
,175.500000=0.000000
,175.750000=0.750000
,176.000000=0.500000
;
#FAKES:;
#LABELS:0.000000=Song Start
;
#NOTES:
// measure 0
0000
0000
0000
0000
,  // measure 1
0000
0000
0000
0000
,  // measure 2
0000
0000
0000
0000
,  // measure 3
0000
0000
0000
0000
0000
0000
0000
0000
0101
0000
0000
0110
0000
0000
1010
0000
,  // measure 4
1001
0000
0000
0001
0000
0000
0010
0000
0100
0000
0000
0010
0000
0000
0001
0000
,  // measure 5
0100
0000
0000
0010
0000
0000
1000
0000
0001
0000
0000
1000
0000
0000
0100
0000
,  // measure 6
0110
0100
1000
1000
0001
0001
0100
0100
,  // measure 7
0010
1000
0010
1000
0040
4000
0000
0000
3030
0000
0000
0000
2001
0000
0000
0000
,  // measure 8
3100
0000
0000
1000
0020
0000
0100
0000
0130
0000
0010
0000
2000
0000
0001
0000
,  // measure 9
3001
0000
0000
0001
0020
0000
0100
0000
0130
0000
0010
0000
0002
0000
1000
0000
,  // measure 10
1003
0000
0000
0001
0200
0000
0010
0000
0310
0000
0100
0000
0002
0000
1000
0000
,  // measure 11
1003
0000
0000
1000
0200
0000
0010
0000
0310
0000
0004
0000
0103
0010
0100
0010
,  // measure 12
1000
0100
2000
0001
3001
0100
0002
1000
,  // measure 13
1003
0001
0020
0001
0031
1000
0020
1000
,  // measure 14
1030
0010
1000
0010
1000
0001
1000
0001
0010
0001
0010
0001
0010
0100
0010
0002
,  // measure 15
2000
0000
0000
0000
0000
0000
0000
0000
3003
0000
0000
0001
0100
0010
0100
0010
,  // measure 16
1000
0000
1000
0000
0001
0100
0000
0000
0001
0000
0001
0000
1000
0100
0000
0000
,  // measure 17
1000
0000
1000
0000
0001
0010
0000
0000
0001
0000
1000
0010
0000
1000
0000
0001
,  // measure 18
0010
0000
0010
0000
0100
1000
0000
0000
0010
0000
0010
0000
0100
0001
0000
0000
,  // measure 19
1000
0000
1000
0000
0100
0010
0000
0010
0001
0000
0000
1000
0000
0010
0000
0100
,  // measure 20
0001
0000
0001
0000
1000
0100
0000
0000
1000
0000
1000
0000
0001
0100
0000
0000
,  // measure 21
0001
0000
0001
0000
1000
0010
0000
0000
1000
0000
0001
0010
0000
0001
0000
1000
,  // measure 22
0010
0000
0010
0000
0100
0001
0000
0000
0010
0000
0010
0000
0100
1000
0000
0000
,  // measure 23
1001
0000
0000
0001
0000
1000
0001
1000
0200
0300
0000
2002
3003
0000
0220
0330
,  // measure 24
1001
0000
0001
0000
0100
0010
0000
0000
1000
0000
1000
0000
0100
0010
0000
0000
,  // measure 25
0001
0000
0010
0000
1000
0010
0000
0000
0012
0000
0000
0000
1003
0001
0010
0001
,  // measure 26
1000
0000
1000
0000
0010
0100
0000
0000
0010
0000
0010
0000
1000
0100
0000
0000
,  // measure 27
0001
0000
0001
0000
0100
1000
0000
0000
1002
0000
0000
0003
0101
0000
0010
0000
,  // measure 28
1000
0000
1000
0000
0100
0010
0000
0000
0001
0000
0001
0000
0100
0010
0000
0000
,  // measure 29
1000
0000
0010
0000
0001
0010
0000
0000
2010
0000
0000
0000
3001
1000
0010
1000
,  // measure 30
0001
0001
1000
1000
0100
0100
0010
0010
,  // measure 31
0001
0100
0001
0100
0001
0100
0001
0100
0040
4000
0000
0030
3001
0000
1000
0000
,  // measure 32
0200
0000
0000
0000
0000
0000
0000
0000
0000
0000
0000
0000
0000
0000
0000
0000
0000
0000
0000
0000
0000
0000
0000
0000
0000
0000
0000
0000
0000
0000
0000
0000
0000
0000
0000
0000
0300
0000
0000
0000
0020
0030
0000
0000
0000
0000
0000
0000
0002
0003
0000
0000
0000
0000
0000
0000
2000
0000
0000
0000
3020
0030
0000
0000
,  // measure 33
0200
0000
0000
0000
0000
0000
0000
0000
0000
0000
0000
0000
0000
0000
0000
0000
0000
0000
0000
0000
0000
0000
0000
0000
0304
0000
0000
0000
0000
0000
0000
0000
2003
0000
0000
0000
0000
0000
0000
0000
0000
0000
0000
0000
0000
0000
0000
0000
3200
0300
0000
0000
0000
0000
0020
0030
0000
0000
0000
0000
0002
0003
0000
0000
,  // measure 34
0200
0000
0000
0000
0000
0000
0000
0000
0001
0000
0000
0000
0000
0000
0000
0000
0000
0000
0000
0000
0000
0000
0000
0000
0010
0000
0000
0000
0000
0000
0000
0000
0000
0000
0000
0000
0000
0000
0000
0000
2300
3000
0000
0000
0000
0000
0000
0000
0200
0300
0000
0000
0000
0000
0000
0000
0001
0000
0000
0000
0020
0030
0000
0000
,  // measure 35
0200
0000
0000
0000
0000
0000
0000
0000
0010
0000
0000
0000
0000
0000
0000
0000
0320
0030
0000
0000
0000
0000
0002
0003
0000
0000
0000
0000
2000
3000
0020
0030
2000
0000
0000
0000
0000
0000
0000
0000
3001
0000
0000
0000
2000
3000
0200
0300
2000
0000
0000
0000
0000
0000
3100
0000
0000
0000
0000
0000
0010
0000
0000
0000
,  // measure 36
1001
0000
0000
0001
0000
0000
0100
0000
0100
0000
0000
1000
0000
0000
0010
0000
,  // measure 37
0010
0000
0000
0001
0000
0000
0100
0000
0100
0000
0000
1000
0000
0000
0010
0000
,  // measure 38
0010
0000
0000
0001
0000
0000
0100
0000
0100
0000
0000
1000
0000
0000
0010
0000
,  // measure 39
0010
0000
0000
0001
0000
0000
0100
0000
0100
0000
0000
0000
1001
0000
1000
0000
,  // measure 40
0001
0100
1000
0100
0001
0100
1000
0100
,  // measure 41
0001
0010
1000
0010
0001
0010
1000
0010
,  // measure 42
0001
0100
0001
0100
0001
0100
0001
0100
0010
1000
0010
1000
0010
1000
0010
1000
,  // measure 43
0002
0000
0000
0003
,  // measure 44
0001
0000
1000
0010
0000
1000
0010
1000
0001
0000
1000
0100
0000
0100
0010
0000
,  // measure 45
0100
0000
1000
0001
0000
1000
0010
0000
1000
0000
0001
0010
0000
0010
0100
0000
,  // measure 46
1000
0000
0001
0100
0000
0001
1000
0000
0001
0000
1000
0100
0000
1000
0001
0000
,  // measure 47
0010
0000
0100
1000
0000
1000
0010
0000
0001
0000
0010
1000
0000
1000
0100
0000
,  // measure 48
1000
0000
0001
0010
0000
0001
0010
0001
1000
0000
0001
0100
0000
0100
1000
0000
,  // measure 49
0100
0000
0010
1000
0000
0001
1000
0000
0100
0000
0001
0100
0000
0100
0010
0000
,  // measure 50
0001
0000
1000
0010
0000
1000
0100
0000
1000
0000
0001
0010
0000
0001
0100
0010
,  // measure 51
1000
1100
0011
0101
,  // measure 52
1000
0000
0001
0010
0000
0010
0001
0000
1000
0000
0001
0100
0000
0100
0001
0000
,  // measure 53
0010
0000
0100
1000
0000
1000
0010
0000
0100
0000
0010
1000
0000
1000
0100
0000
,  // measure 54
0010
0000
0100
0001
0000
0001
0100
0000
0010
0000
0100
1000
0000
1000
0001
0000
,  // measure 55
0100
0000
0010
1000
0000
0010
1000
0001
0020
0000
0000
0130
1000
0000
1000
0000
,  // measure 56
0001
0000
1000
0010
0000
0010
1000
0000
0001
0000
1000
0100
0000
0010
0100
0010
,  // measure 57
0001
0000
1000
0010
0000
0100
0010
0100
0001
0000
1000
0100
0000
0100
0010
0000
,  // measure 58
0001
0000
0100
0010
0000
0010
0100
0000
1000
0000
0100
0010
0000
0100
0010
0100
,  // measure 59
0001
0000
0000
0000
0011
0000
0000
0000
1001
0000
0000
0000
1000
0001
1000
0001
,  // measure 60
0100
0000
0010
2000
0000
0000
3001
1000
0100
0000
0010
0002
0000
0000
0103
0010
,  // measure 61
1000
0000
0001
0020
0000
0000
0130
0010
0001
0000
1000
0020
0000
0000
0130
0010
,  // measure 62
1000
0000
0001
0010
0001
0000
1000
0010
1000
0000
0001
0010
0001
0000
1000
0010
,  // measure 63
0100
0001
0100
0001
0100
0001
0100
0001
1000
0100
1000
0100
1000
0100
1000
0100
,  // measure 64
0020
0000
0000
0000
,  // measure 65
0000
0000
0000
0000
,  // measure 66
0030
0000
0000
0000
;

//---------------dance-single - ----------------
#NOTEDATA:;
#CHARTNAME:;
#STEPSTYPE:dance-single;
#DESCRIPTION:;
#CHARTSTYLE:;
#DIFFICULTY:Hard;
#METER:10;
#RADARVALUES:0.425476,0.501683,0.258986,0.307545,0.279219,368.000000,336.000000,32.000000,38.000000,0.000000,0.000000,0.000000,0.000000,0.000000,0.425476,0.501683,0.258986,0.307545,0.279219,368.000000,336.000000,32.000000,38.000000,0.000000,0.000000,0.000000,0.000000,0.000000;
#CREDIT:;
#OFFSET:-1.263898;
#BPMS:0.000000=142.000000
,128.000000=71.000000
,144.000000=142.000000
;
#STOPS:172.000000=1.267609
;
#DELAYS:;
#WARPS:;
#TIMESIGNATURES:0.000000=4=4
;
#TICKCOUNTS:0.000000=4
;
#COMBOS:0.000000=1
;
#SPEEDS:0.000000=1.000000=0.000000=0
;
#SCROLLS:0.000000=1.000000
,136.000000=1.500000
,144.000000=1.000000
;
#FAKES:;
#LABELS:0.000000=Song Start
;
#NOTES:
// measure 0
0000
0000
0000
0000
,  // measure 1
0000
0000
0000
0000
,  // measure 2
0000
0000
0000
0000
,  // measure 3
0000
0000
0000
0000
0000
0000
0000
0000
0100
0000
0000
0010
0000
0000
0100
0000
,  // measure 4
1001
1000
0100
0100
,  // measure 5
0001
0001
0010
1000
,  // measure 6
1001
0001
0100
0100
,  // measure 7
0010
1000
0100
0010
0002
0000
2000
0000
,  // measure 8
3003
2020
3030
0202
,  // measure 9
0303
0022
0033
2200
,  // measure 10
3300
2002
3003
0220
,  // measure 11
0330
0000
2002
0000
3003
0001
1000
0001
,  // measure 12
0010
2100
3010
0102
,  // measure 13
1003
2010
3100
0012
,  // measure 14
1003
0010
0100
0001
0010
0001
0100
0010
,  // measure 15
2000
0000
0000
0000
0000
0000
3010
0100
,  // measure 16
0001
0000
0001
0000
0000
0100
0000
0000
0001
0000
0001
0000
0000
1000
0000
0000
,  // measure 17
0001
0000
0001
0000
0000
0010
0000
0000
0001
0000
0000
0100
0000
0001
0000
0000
,  // measure 18
1000
0000
1000
0000
0000
0100
0000
0000
1000
0000
1000
0000
0000
0001
0000
0000
,  // measure 19
1000
0000
1000
0000
0000
0010
0000
0000
1000
0000
0000
0001
0000
0010
0000
0000
,  // measure 20
0001
0000
0001
0000
0000
0100
0000
0000
0010
0000
0010
0000
0000
1000
0000
0000
,  // measure 21
0001
0000
0001
0000
0000
1000
0000
0000
0100
0000
0000
0010
0000
0001
0000
0000
,  // measure 22
1000
0000
1000
0000
0000
0010
0000
0000
0100
0000
0100
0000
0000
0001
0000
0000
,  // measure 23
2002
0000
0000
0000
3003
0000
0000
0000
1000
0000
0000
0100
0000
0000
0010
0000
,  // measure 24
0001
0000
0001
0000
0000
0100
0000
0000
0010
0000
0010
0000
0000
0100
0000
0000
,  // measure 25
1000
0000
1000
0000
0000
0100
0000
0000
0201
0000
0000
0000
0310
0000
0100
0000
,  // measure 26
0001
0000
0001
0000
0000
1000
0000
0000
0001
0000
0001
0000
0000
0010
0000
0000
,  // measure 27
0001
0000
0001
0000
0000
0100
0000
0000
0120
0000
0000
0000
1030
0000
0001
0000
,  // measure 28
1000
0000
1000
0000
0000
0100
0000
0000
0010
0000
0010
0000
0000
0100
0000
0000
,  // measure 29
0001
0000
0001
0000
0000
0100
0000
0000
1200
0000
0000
0000
0310
0000
0100
0000
,  // measure 30
1000
0001
1000
0001
0100
0010
0100
0010
,  // measure 31
1000
0000
0000
0001
0000
0001
0000
0000
0010
0000
0000
0100
0000
0000
0010
0000
,  // measure 32
1002
0000
0000
0000
0000
0000
0000
0000
0003
0000
1000
0000
0010
0000
0100
0010
,  // measure 33
2000
0000
0000
0000
0000
0000
0000
0000
0000
0000
0000
0000
3200
0000
0000
0000
0320
0000
0000
0000
0000
0000
0000
0000
0031
0000
0000
1000
0000
0000
0001
0000
,  // measure 34
0200
0000
0010
0000
0000
0000
0010
0000
0000
0000
0310
0000
1000
0000
0001
0010
,  // measure 35
0200
0000
0000
0000
0010
0000
0000
0000
1300
0000
0000
0001
0000
0000
1000
0000
0002
0000
0000
0000
0103
0000
0010
0000
0200
0000
0000
0000
0310
0000
0000
0000
,  // measure 36
1000
1010
1000
1100
,  // measure 37
0001
0011
0001
0101
,  // measure 38
1000
1100
1000
1010
,  // measure 39
0001
0000
0101
0000
0001
0000
0010
0001
,  // measure 40
1000
0010
1000
0010
0100
0001
0100
0001
,  // measure 41
0010
0001
0010
0001
1000
0100
1000
0100
,  // measure 42
0010
0001
0100
0010
1000
0100
0010
0001
,  // measure 43
1000
0000
0000
0000
0001
0000
0000
0100
0000
0000
0010
0000
1000
0000
0000
0100
,  // measure 44
0000
0000
0010
0000
0010
0000
0000
0001
0000
0000
1000
0000
1000
0000
0000
0001
,  // measure 45
0000
0000
0100
0000
0010
0000
0000
1000
0000
0000
0001
0000
0010
0000
0000
0001
,  // measure 46
0000
0000
1000
0000
0100
0000
0000
0001
0000
0000
0100
0000
1000
0000
0000
0001
,  // measure 47
0000
0000
1000
0000
0010
0000
0000
0100
0000
0000
0001
0000
1000
0000
0000
0001
,  // measure 48
0000
0000
0010
0000
0010
0000
0000
0001
0000
0000
1000
0000
1000
0000
0000
0001
,  // measure 49
0000
0000
1000
0000
0010
0000
0000
0001
0000
0000
0010
0000
1000
0000
0000
0001
,  // measure 50
0000
0010
0011
0000
1100
0000
0101
0000
,  // measure 51
1010
0000
0000
0000
1000
0000
0000
0100
0000
0000
1000
0000
0001
0000
0000
1000
,  // measure 52
0000
0000
0100
0000
0010
0000
0000
0100
0000
0000
0001
0000
0100
0000
0000
0010
,  // measure 53
0000
0000
0001
0000
1000
0000
0000
0001
0000
0000
0100
0000
0010
0000
0000
1000
,  // measure 54
0000
0000
0010
0000
0100
0000
0000
0001
0000
0000
1000
0000
0200
0000
0000
0000
,  // measure 55
0310
0000
0010
0000
0001
0000
0000
0100
0000
0000
0001
0000
1000
0000
0000
0001
,  // measure 56
0000
0000
0100
0000
0010
0000
0000
0100
0000
0000
1000
0000
0100
0000
0000
0010
,  // measure 57
0000
0000
1000
0000
0001
0000
0000
0010
0000
0000
0100
0000
1000
0000
0000
0010
,  // measure 58
0000
0100
0101
0000
1001
0000
0022
0000
,  // measure 59
0033
0000
0000
0000
0001
0000
0000
0100
0000
0000
0100
0000
0100
0000
0000
1000
,  // measure 60
0000
0000
1000
0000
1000
0000
0000
0010
0000
0000
0010
0000
0010
0000
0000
0001
,  // measure 61
0000
0001
0001
0100
0001
1000
0001
0100
,  // measure 62
0001
1000
0001
0010
0001
0010
0100
1000
,  // measure 63
0010
0100
0002
0000
0000
0000
0000
0000
,  // measure 64
0000
0000
0000
0000
,  // measure 65
0000
0003
0000
0000
;

//---------------dance-single - ----------------
#NOTEDATA:;
#CHARTNAME:;
#STEPSTYPE:dance-single;
#DESCRIPTION:;
#CHARTSTYLE:;
#DIFFICULTY:Medium;
#METER:7;
#RADARVALUES:0.335294,0.369661,0.072840,0.275172,0.012140,290.000000,281.000000,9.000000,34.000000,0.000000,0.000000,0.000000,0.000000,0.000000,0.335294,0.369661,0.072840,0.275172,0.012140,290.000000,281.000000,9.000000,34.000000,0.000000,0.000000,0.000000,0.000000,0.000000;
#CREDIT:;
#OFFSET:-1.263898;
#BPMS:0.000000=142.000000
,128.000000=71.000000
,144.000000=142.000000
;
#STOPS:172.000000=1.267609
;
#DELAYS:;
#WARPS:;
#TIMESIGNATURES:0.000000=4=4
;
#TICKCOUNTS:0.000000=4
;
#COMBOS:0.000000=1
;
#SPEEDS:0.000000=1.000000=0.000000=0
;
#SCROLLS:0.000000=1.000000
;
#FAKES:;
#LABELS:0.000000=Song Start
;
#NOTES:
// measure 0
0000
0000
0000
0000
,  // measure 1
0000
0000
0000
0000
,  // measure 2
0000
0000
0000
0000
,  // measure 3
0000
0000
0000
0000
0000
0000
0000
0000
1000
0000
0000
0001
0000
0000
1000
0000
,  // measure 4
0001
0001
0100
0100
,  // measure 5
0010
0010
1000
1000
,  // measure 6
0100
0100
0010
0010
,  // measure 7
0001
0100
0020
2000
,  // measure 8
3030
0002
0003
2000
,  // measure 9
3000
0002
0003
2000
,  // measure 10
3000
0002
0003
2000
,  // measure 11
3000
0000
0002
0000
0003
0000
1000
0001
,  // measure 12
1000
2000
3100
0200
,  // measure 13
0301
0002
0013
0020
,  // measure 14
1030
0100
0001
0010
,  // measure 15
2000
0000
0000
3000
,  // measure 16
0001
0100
0001
0000
0001
1000
0001
0000
,  // measure 17
0001
0010
0001
0000
0010
0000
0100
0000
,  // measure 18
1000
0010
1000
0000
1000
0001
1000
0000
,  // measure 19
1000
0100
1000
0000
0001
0000
0001
0000
,  // measure 20
1000
0100
1000
0000
1000
0001
1000
0000
,  // measure 21
1000
0010
1000
0000
0100
0000
0010
0000
,  // measure 22
0001
0010
0001
0000
0001
1000
0001
0000
,  // measure 23
0202
0303
1000
1000
,  // measure 24
0001
0100
0001
0000
1000
0001
1000
0000
,  // measure 25
0001
0010
0001
0000
2010
0000
3001
0000
,  // measure 26
1000
0010
1000
0000
0001
1000
0001
0000
,  // measure 27
1000
0100
1000
0000
2100
0000
3001
0000
,  // measure 28
1000
0100
1000
0000
0001
1000
0001
0000
,  // measure 29
1000
0010
1000
0000
0012
0000
1003
0000
,  // measure 30
0001
0010
0001
0000
1000
0001
1000
0000
,  // measure 31
0001
0001
0100
0010
,  // measure 32
2002
0000
0000
0000
3003
1000
0010
0100
,  // measure 33
0002
0000
0000
2003
3200
0000
0310
0001
,  // measure 34
0200
0000
0010
0000
0000
0000
0010
0000
0000
0000
0310
0000
1000
0000
0000
0001
,  // measure 35
0020
0000
0000
0000
0130
0000
0010
0000
0002
0000
0003
0100
0020
0000
0000
0000
,  // measure 36
1030
1000
0100
0100
,  // measure 37
0001
0001
0010
0010
,  // measure 38
1000
1000
0100
0100
,  // measure 39
0001
0001
0010
0010
,  // measure 40
1000
0100
0001
0100
,  // measure 41
1000
0010
0001
0010
,  // measure 42
1000
0100
0001
0010
,  // measure 43
1000
0000
0001
0000
0001
0010
0001
0000
,  // measure 44
0001
0100
0001
0000
0001
1000
0001
0000
,  // measure 45
1000
0001
1000
0000
1000
0010
1000
0000
,  // measure 46
1000
0100
1000
0000
1000
0001
1000
0000
,  // measure 47
0110
0000
1001
0000
1000
0010
1000
0000
,  // measure 48
1000
0001
1000
0000
1000
0100
1000
0000
,  // measure 49
0001
0010
0001
0000
0001
1000
0001
0000
,  // measure 50
0001
0100
0001
0000
0200
0000
0020
0000
,  // measure 51
0330
0000
1000
0000
0010
1000
0010
0000
,  // measure 52
0100
0001
0100
0000
0010
1000
0010
0000
,  // measure 53
1000
0001
1000
0000
0100
1000
0100
0000
,  // measure 54
0010
0001
0010
0000
0100
1000
0100
0000
,  // measure 55
0110
0000
1001
0000
0001
0010
0001
0000
,  // measure 56
1000
0010
1000
0000
0001
0010
0001
0000
,  // measure 57
1000
0010
1000
0000
0001
0100
0001
0000
,  // measure 58
1000
0100
2000
0000
3002
0000
2000
0000
,  // measure 59
3003
0001
0001
0100
,  // measure 60
0100
1000
1000
0010
,  // measure 61
0010
0001
1000
0001
,  // measure 62
1000
0001
0100
1000
,  // measure 63
0010
0002
0000
0000
,  // measure 64
0000
0000
0000
0000
,  // measure 65
0000
0003
0000
0000
;

//---------------dance-single - ----------------
#NOTEDATA:;
#CHARTNAME:;
#STEPSTYPE:dance-single;
#DESCRIPTION:;
#CHARTSTYLE:;
#DIFFICULTY:Easy;
#METER:4;
#RADARVALUES:0.215051,0.254939,0.040466,0.234706,0.000000,186.000000,181.000000,5.000000,29.000000,0.000000,0.000000,0.000000,0.000000,0.000000,0.215051,0.254939,0.040466,0.234706,0.000000,186.000000,181.000000,5.000000,29.000000,0.000000,0.000000,0.000000,0.000000,0.000000;
#CREDIT:;
#OFFSET:-1.263898;
#BPMS:0.000000=142.000000
;
#STOPS:;
#DELAYS:;
#WARPS:;
#TIMESIGNATURES:0.000000=4=4
;
#TICKCOUNTS:0.000000=4
;
#COMBOS:0.000000=1
;
#SPEEDS:0.000000=1.000000=0.000000=0
;
#SCROLLS:0.000000=1.000000
;
#FAKES:;
#LABELS:0.000000=Song Start
;
#NOTES:
// measure 0
0000
0000
0000
0000
,  // measure 1
0000
0000
0000
0000
,  // measure 2
0000
0000
0000
0000
,  // measure 3
0000
0000
0000
0000
,  // measure 4
1000
0000
0010
0000
,  // measure 5
0100
0000
0001
0000
,  // measure 6
0010
0000
0100
0000
,  // measure 7
1000
0000
0010
2002
,  // measure 8
3003
0002
0003
2000
,  // measure 9
3000
0002
0003
2000
,  // measure 10
3000
0002
0003
2000
,  // measure 11
3000
0002
0003
1000
,  // measure 12
0001
0001
0010
0010
,  // measure 13
0100
0100
1000
1000
,  // measure 14
0010
0100
0010
0100
,  // measure 15
0002
0000
0000
0003
,  // measure 16
1000
0000
1000
0000
,  // measure 17
0010
0000
0010
1000
,  // measure 18
0001
0000
0001
0000
,  // measure 19
0010
0000
0010
0001
,  // measure 20
0100
0000
0100
0000
,  // measure 21
0010
0000
0010
1000
,  // measure 22
0100
0000
0100
0000
,  // measure 23
2002
3003
1000
1000
,  // measure 24
0001
0000
0001
0000
,  // measure 25
0010
0000
0012
1000
,  // measure 26
0103
0000
0100
0000
,  // measure 27
0010
0000
2002
3003
,  // measure 28
1000
0000
1000
0000
,  // measure 29
0010
0000
2010
0001
,  // measure 30
3100
0000
0100
0000
,  // measure 31
1000
0100
0010
0001
,  // measure 32
0200
0000
0000
0000
,  // measure 33
0300
0001
0100
0010
,  // measure 34
2000
0000
0000
3002
,  // measure 35
0023
0000
0130
1000
,  // measure 36
0020
0000
0000
0000
,  // measure 37
0030
0100
0020
0030
,  // measure 38
2000
3000
0001
0010
,  // measure 39
0200
0300
2000
3000
,  // measure 40
0001
0000
0001
0000
,  // measure 41
1000
0000
1000
0000
,  // measure 42
0001
0000
0001
0000
,  // measure 43
1000
0000
1000
0000
,  // measure 44
0010
0010
1000
1000
,  // measure 45
0001
0001
0010
0010
,  // measure 46
0100
1000
0010
0100
,  // measure 47
0002
0000
0000
0003
,  // measure 48
1000
0010
1000
0010
,  // measure 49
1000
0001
1000
0001
,  // measure 50
1000
0100
1000
0100
,  // measure 51
0010
0100
1000
0000
,  // measure 52
0001
0010
0001
0010
,  // measure 53
0001
1000
0001
1000
,  // measure 54
0001
0100
0001
0100
,  // measure 55
0010
0010
0020
0030
,  // measure 56
0100
0001
0100
0001
,  // measure 57
1000
0001
1000
0001
,  // measure 58
0010
0001
0010
0001
,  // measure 59
1000
0010
1000
0000
,  // measure 60
0100
1000
0100
1000
,  // measure 61
0001
1000
0001
1000
,  // measure 62
0010
1000
0010
1000
,  // measure 63
0100
0100
0200
0300
,  // measure 64
1000
0000
0001
0000
,  // measure 65
1000
0000
0001
0000
,  // measure 66
1000
0001
1000
0001
,  // measure 67
1000
1000
0001
0001
,  // measure 68
0200
0000
0000
0000
,  // measure 69
0000
0000
0000
0000
,  // measure 70
0300
0000
0000
0000
;

//---------------dance-single - ----------------
#NOTEDATA:;
#CHARTNAME:;
#STEPSTYPE:dance-single;
#DESCRIPTION:;
#CHARTSTYLE:;
#DIFFICULTY:Beginner;
#METER:2;
#RADARVALUES:0.121399,0.169959,0.016187,0.105213,0.000000,105.000000,103.000000,2.000000,13.000000,0.000000,0.000000,0.000000,0.000000,0.000000,0.121399,0.169959,0.016187,0.105213,0.000000,105.000000,103.000000,2.000000,13.000000,0.000000,0.000000,0.000000,0.000000,0.000000;
#CREDIT:;
#OFFSET:-1.263898;
#BPMS:0.000000=142.000000
;
#STOPS:;
#DELAYS:;
#WARPS:;
#TIMESIGNATURES:0.000000=4=4
;
#TICKCOUNTS:0.000000=4
;
#COMBOS:0.000000=1
;
#SPEEDS:0.000000=1.000000=0.000000=0
;
#SCROLLS:0.000000=1.000000
;
#FAKES:;
#LABELS:0.000000=Song Start
;
#NOTES:
// measure 0
0000
0000
0000
0000
,  // measure 1
0000
0000
0000
0000
,  // measure 2
0000
0000
0000
0000
,  // measure 3
0000
0000
0000
0000
,  // measure 4
1000
0000
0000
0000
,  // measure 5
0100
0000
0000
0000
,  // measure 6
0010
0000
0000
0000
,  // measure 7
0001
0000
0000
0000
,  // measure 8
0000
0100
0000
0100
,  // measure 9
0000
0100
0000
0100
,  // measure 10
0000
0100
0000
0100
,  // measure 11
0000
0100
0000
0100
,  // measure 12
0000
0010
0000
0010
,  // measure 13
0000
0010
0000
0010
,  // measure 14
0020
0000
0000
0000
,  // measure 15
0030
0000
0000
0000
,  // measure 16
1000
0000
1000
0000
,  // measure 17
0010
0000
0010
0000
,  // measure 18
0100
0000
0100
0000
,  // measure 19
0001
0000
0001
0000
,  // measure 20
1000
0000
1000
0000
,  // measure 21
0100
0000
0100
0000
,  // measure 22
0010
0000
0010
0000
,  // measure 23
0002
0000
0003
0000
,  // measure 24
1000
0000
1000
0000
,  // measure 25
1000
0000
0010
0000
,  // measure 26
1000
0000
1000
0000
,  // measure 27
1000
0000
0001
0000
,  // measure 28
1000
0000
1000
0000
,  // measure 29
1000
0000
0100
0000
,  // measure 30
1000
0000
1000
0000
,  // measure 31
0001
0000
0001
0000
,  // measure 32
0200
0000
0000
0000
,  // measure 33
0300
0000
0000
0000
,  // measure 34
0020
0000
0000
0000
,  // measure 35
0030
0000
0000
0000
,  // measure 36
2000
0000
0000
0000
,  // measure 37
3000
0000
0000
0000
,  // measure 38
0002
0000
0003
0000
,  // measure 39
2000
0000
3000
0000
,  // measure 40
0100
0000
0000
0000
,  // measure 41
0100
0000
0000
0000
,  // measure 42
0100
0000
0000
0000
,  // measure 43
0100
0000
0000
0000
,  // measure 44
0100
0000
0100
0000
,  // measure 45
0100
0000
0100
0000
,  // measure 46
0100
0000
0100
0000
,  // measure 47
0200
0000
0300
0000
,  // measure 48
1000
0000
1000
0000
,  // measure 49
0010
0000
0010
0000
,  // measure 50
1000
0000
1000
0000
,  // measure 51
0001
0000
0001
0000
,  // measure 52
0100
0000
0100
0000
,  // measure 53
0001
0000
0001
0000
,  // measure 54
0010
0000
0010
0000
,  // measure 55
2002
0000
3003
0000
,  // measure 56
0001
0000
0001
0000
,  // measure 57
0010
0000
0010
0000
,  // measure 58
0001
0000
0001
0000
,  // measure 59
1000
0000
1000
0000
,  // measure 60
0100
0000
0100
0000
,  // measure 61
1000
0000
1000
0000
,  // measure 62
0010
0000
0010
0000
,  // measure 63
2002
0000
3003
0000
,  // measure 64
1000
0000
1000
0000
,  // measure 65
0001
0000
0001
0000
,  // measure 66
1000
0000
0001
0000
,  // measure 67
1000
0000
0001
0000
,  // measure 68
2000
0000
0000
0000
,  // measure 69
0000
0000
0000
0000
,  // measure 70
3000
0000
0000
0000
;
