#TITLE:Berry Go!!;
#SUBTITLE:;
#ARTIST:Freezer feat. 妃苺;
#TITLETRANSLIT:;
#SUBTITLETRANSLIT:;
#ARTISTTRANSLIT:Freezer feat. Kisaki Ichigo;
#GENRE:Hybrid J-Pop;
#CREDIT:;
#BANNER:Berry Go!!.png;
#BACKGROUND:Berry Go!!-bg.png;
#LYRICSPATH:;
#CDTITLE:cdtitle.png;
#MUSIC:Berry Go!!.ogg;
#OFFSET:-0.248360;
#SAMPLESTART:34.194218;
#SAMPLELENGTH:10.971428;
#SELECTABLE:YES;
#BPMS:0.000000=175.000000
;
#STOPS:
;
#BGCHANGES:0.000=Berry Go!!.avi=1.000=1=0=0=StretchNoLoop==CrossFade==,
99999=-nosongbg-=1.000=0=0=0 // don't automatically add -songbackground-
;
#KEYSOUNDS:;
#ATTACKS:;

//---------------dance-single - ----------------
#NOTES:
     dance-single:
     :
     Challenge:
     12:
     0.665804,0.692339,0.827430,0.396829,0.075988,552.000000,454.000000,98.000000,47.000000,4.000000,0.000000,0.665804,0.692339,0.827430,0.396829,0.075988,552.000000,454.000000,98.000000,47.000000,4.000000,0.000000:
0000
0000
0000
0000
,
1001
0000
0100
0000
0100
0001
0000
1000
,
0000
0001
1000
0001
0010
0000
0010
0000
,
0001
0000
1000
0000
0010
0000
0001
0010
,
0000
1000
0100
0010
0001
0000
0100
0000
,
1001
0000
1000
0010
1000
0000
0100
0001
,
0000
0100
1000
0001
0010
0000
0001
0000
,
0100
0000
0010
1000
0000
0001
0000
1000
,
0100
0000
0000
0010
0001
0000
0000
1000
0010
0000
0100
0000
0001
0000
0010
0000
,
0110
0000
1000
0000
1000
0000
0001
0200
,
0000
0301
1000
1000
0100
0000
0011
0000
,
1100
0000
0001
0100
0001
0000
0010
2000
,
0000
3010
0001
0001
0100
0010
1000
0100
,
0110
0000
1000
0000
1000
0000
0010
0002
,
0000
0013
0100
0001
1000
1000
0100
0000
,
0010
0000
0001
0000
0100
0000
0010
0000
4000
0004
0000
0000
0000
0000
3000
0003
,
0020
0000
0000
0000
0000
0000
0031
0010
,
0012
0000
0000
1000
1000
0000
0103
0010
,
1010
1001
0011
1001
,
1020
0000
0130
0001
1000
0100
0010
0000
,
2002
0000
0000
0000
3003
0000
1000
0010
,
2010
0000
3001
0010
0012
0000
1003
0010
,
1010
0101
1100
0011
,
0001
0000
0100
0000
0010
0000
1000
0000
0004
0040
0000
0000
0000
0000
0003
0030
,
0200
0000
0000
0000
0310
0100
1001
0000
,
0101
0000
1100
0000
0101
0000
0001
0010
,
0011
0000
1010
0000
0011
0000
0001
0100
,
0010
0010
0100
0001
0010
0010
0100
1000
,
0010
0100
0001
1000
0100
1000
0100
0010
,
0011
0000
1010
0000
0011
0000
0001
0100
,
0101
0000
1100
0000
0101
0000
1000
0010
,
0001
0010
1000
0100
0001
0100
1000
0010
,
0100
0100
0100
0000
1001
0000
0001
0010
,
0011
0000
0101
0000
0011
0000
1000
0010
,
1010
0000
1100
0000
1010
0000
0010
1000
,
0100
0100
0010
0001
0100
0100
0010
1000
,
0100
0010
0001
0100
0010
1000
0010
1000
,
1100
0000
1010
0000
1100
0000
0001
0100
,
0101
0000
0011
0000
0101
0000
1000
0100
,
0002
2003
3020
0032
,
0103
1000
0001
0010
1000
0100
0010
0001
,
2001
0000
0010
0000
3010
0000
1000
1010
,
0000
0000
0110
0000
0000
0000
0101
0000
0001
0000
1000
0100
1000
0000
0001
0000
,
0100
0010
1000
1001
0000
0011
0000
1100
,
0000
0011
0001
1000
0001
0100
0010
0000
,
1000
0010
1000
0000
0001
0100
0001
0000
1000
0010
1000
0000
0001
0000
1000
0000
,
0100
0001
0100
1000
0000
1000
0010
0100
,
0001
1000
1000
0001
0000
0110
0000
1001
,
0000
0000
0001
0000
0010
0000
0100
0000
1000
0001
1000
0000
0010
0000
0000
0000
,
2010
0000
0000
0001
0001
0000
3100
0010
,
0011
1001
1010
1001
,
0021
0000
0130
1000
0001
0100
0010
1000
,
2002
0000
0000
0000
3003
0000
0001
0010
,
0012
0000
1003
0010
2010
0000
3001
0010
,
0011
1100
0101
1010
,
1000
0000
0100
0000
0010
0000
0001
0000
0400
0040
0000
0000
0000
0000
0300
0030
,
2000
0000
0001
0000
3001
1000
0110
0000
,
0202
0000
0000
0000
0300
0M00
0000
0000
4003
0000
0000
3000
0400
0000
0000
0300
,
0040
0004
0000
0000
0000
0000
0000
0030
2003
0000
3020
0000
0230
0000
0301
0000
,
2200
0000
0000
0000
3000
M000
0000
0000
0340
0000
0000
0030
0004
4000
0000
0003
,
3020
1030
0002
1003
0200
1300
0002
1003
,
2020
0000
0000
0000
0030
00M0
0000
0000
3004
0000
0000
0003
0040
0000
0000
0030
,
0400
4000
0000
0000
0000
0000
0000
0300
3002
0000
0203
0000
0320
0000
1030
0000
,
0022
0000
0000
0000
0030
00M0
0000
0000
4003
0000
0000
3000
0040
0400
0000
0030
,
0302
0000
0000
0000
0000
0000
1003
0100
,
1100
0000
0101
0000
1100
0000
1000
0010
,
1010
0000
0011
0000
1010
0000
1000
0100
,
0010
0010
0100
1000
0010
0010
0100
0001
,
0010
0100
1000
0001
0100
0001
0100
0010
,
1010
0000
0011
0000
1010
0000
1000
0100
,
1100
0000
0101
0000
1100
0000
0001
0010
,
1000
0010
0001
0100
1000
0100
0001
0010
,
0100
0100
0100
0000
1001
0000
1000
0010
,
1010
0000
1100
0000
1010
0000
0001
0010
,
0011
0000
0101
0000
0011
0000
0010
0001
,
0100
0100
0010
1000
0100
0100
0010
0001
,
0100
0010
1000
0100
0010
0001
0010
0001
,
0101
0000
0011
0000
0101
0000
1000
0100
,
1100
0000
1010
0000
1100
0000
0001
0100
,
2000
3002
0023
2030
,
3100
0001
1000
0010
0001
0100
0010
1000
,
0200
0000
0000
0000
,
0300
0000
0000
0000
;

//---------------dance-single - ----------------
#NOTES:
     dance-single:
     :
     Hard:
     9:
     0.530713,0.553872,0.751442,0.515033,0.000000,440.000000,351.000000,89.000000,61.000000,20.000000,0.000000,0.530713,0.553872,0.751442,0.515033,0.000000,440.000000,351.000000,89.000000,61.000000,20.000000,0.000000:
0000
0000
0000
0000
,
1010
0000
0001
0000
0010
0001
0000
0010
,
0000
0001
0010
0001
1000
0000
1000
0000
,
0001
0000
0100
0000
0001
0000
1000
0010
,
0000
1000
0100
1000
0100
0000
1000
0000
,
0011
0000
1000
0010
1000
0000
0010
1000
,
0000
0010
1000
0001
1000
0000
0100
0000
,
0010
0000
0001
1000
0000
0001
0000
1000
,
0020
0000
0000
0030
,
0101
0000
1000
0000
1000
0000
0100
0020
,
0000
0031
1000
0001
1000
0000
0010
0000
,
1000
0000
0100
0000
0100
0000
0010
0002
,
0000
0103
0010
1000
0001
0000
0010
0000
,
1100
0000
0001
0000
0001
0000
1000
0020
,
0000
0130
0001
1000
0001
1000
0100
0000
,
0010
0001
0010
0001
2000
0000
3020
0000
,
0200
0000
0330
0010
,
2001
0000
0000
0100
3100
0000
0010
0001
,
0200
2300
3200
0302
,
0023
0000
0031
1000
0001
1000
0001
0000
,
0220
0000
0330
0010
,
2001
3010
1002
0013
,
1001
0000
0110
0000
1001
0000
1000
0001
,
0010
0100
0010
0100
2000
0000
3002
0000
,
0200
0000
0303
MMMM
,
0101
1010
0101
0001
,
0011
0000
1100
0000
0011
0000
1000
0010
,
1000
0000
0001
0010
0001
0000
0100
0010
,
1000
0011
1010
1000
,
1100
0011
1100
1000
,
1010
0000
0101
0000
1010
0000
0001
0010
,
0200
2300
3002
0203
,
0310
0100
0010
0000
1001
0000
MMMM
0000
,
0011
1010
0011
0001
,
0101
0000
1100
0000
0101
0000
1000
0010
,
1000
0100
0001
0100
,
1000
0110
1001
1000
,
1100
0101
1100
1000
,
1010
0000
0011
0000
1010
0000
1000
0100
,
0020
0032
0203
2300
,
3100
0010
0100
0001
0000
1000
0100
0000
,
1002
0000
0010
0000
0013
0000
0001
0100
,
0000
0100
0000
0100
0010
1000
0001
0000
,
1000
0100
0010
0001
0000
0001
0000
0001
,
0000
1000
0010
0100
0001
1000
0100
0000
,
0010
0000
0010
0000
0010
0000
0100
1000
,
0010
0000
0100
0001
0000
0001
0010
0000
,
0100
1000
0001
0100
0000
0110
0000
1001
,
0000
0010
1000
0001
0020
0000
0130
0000
,
1002
0000
0000
0100
0103
0000
0010
1000
,
0200
0302
0203
2300
,
3020
0000
1030
0001
1000
0001
1000
0000
,
0220
0000
0330
0010
,
1002
0013
2001
3010
,
1001
0000
0110
0000
1001
0000
0001
1000
,
0010
0100
0010
0100
0002
0000
2003
0000
,
0200
0000
3300
MMMM
,
2002
0000
0000
0000
3003
0000
0000
0000
0004
0000
0000
0000
0000
0000
0000
0003
,
4000
0000
0000
0000
0000
0000
0000
3000
0100
0000
0010
0000
0100
0000
0000
0000
,
2002
0000
0000
0000
3003
0000
0000
0000
0040
0000
0000
0000
0000
0000
0000
0030
,
1010
0101
0011
1100
,
2002
0000
0000
0000
3003
0000
0000
0000
4000
0000
0000
0000
0000
0000
0000
3000
,
0004
0000
0000
0000
0000
0000
0000
0003
0100
0000
0010
0000
0100
0000
0000
0000
,
2002
3003
0400
0000
,
0300
0000
0000
MMMM
,
1100
0011
1100
1000
,
1010
0000
0101
0000
1010
0000
0001
0010
,
0001
0000
1000
0010
1000
0000
0001
0000
,
0100
1010
0011
0001
,
0101
1010
0101
0001
,
0011
0000
1100
0000
0011
0000
1000
0010
,
0200
0302
2003
3200
,
0310
0100
0010
0000
1001
0000
MMMM
0000
,
1010
0011
1010
1000
,
1100
0000
0101
0000
1100
0000
0001
0100
,
0001
0000
1000
0100
1000
0100
0010
0001
,
1000
0110
1001
0001
,
0101
1100
0101
0001
,
0011
0000
1010
0000
0011
0000
0001
0100
,
0020
2030
3200
0302
,
0103
0010
0100
1000
0000
0110
0000
2002
,
0000
0000
0000
0000
,
3003
0000
0000
0000
;

//---------------dance-single - ----------------
#NOTES:
     dance-single:
     :
     Medium:
     6:
     0.393210,0.450021,0.565692,0.261738,0.000000,326.000000,259.000000,67.000000,31.000000,0.000000,0.000000,0.393210,0.450021,0.565692,0.261738,0.000000,326.000000,259.000000,67.000000,31.000000,0.000000,0.000000:
0000
0000
0000
0000
,
0011
1000
1000
0000
,
0010
1000
1000
0100
,
0010
0001
0001
0000
,
0010
0001
0100
0100
,
1010
0001
0001
0000
,
0010
0100
0100
1000
,
0001
0000
0001
0100
,
0020
0000
0000
0030
,
0101
1000
1000
0000
,
0010
1000
0100
0010
,
0001
0100
0100
0000
,
1000
0100
0001
0010
,
1100
0001
0001
0000
,
0100
0010
1000
0100
,
0001
0100
1000
0010
,
0200
0000
0000
0310
,
2001
0000
3100
1000
,
0010
0001
0100
1000
,
0010
0100
0001
1000
,
0220
0000
0330
0110
,
1000
1000
0001
0001
,
0010
1000
0010
0001
,
0100
1000
0100
0001
,
0022
0000
0000
0033
,
0101
1001
1100
0000
,
1010
1001
0011
0000
,
1000
0100
0010
0001
,
0100
0010
1000
0000
,
1100
1001
0101
0000
,
0011
1001
1010
0000
,
1000
0010
0001
0010
,
1000
1000
0100
0000
,
0011
0110
1100
0000
,
1010
0110
0101
0000
,
0001
0100
0010
1000
,
0100
0010
0001
0000
,
0101
0110
1010
0000
,
1100
0110
0011
0000
,
1000
0010
0001
0100
,
1000
0010
0100
0001
,
2002
3003
1000
0000
,
0001
1000
0100
1000
,
0001
0000
0100
0000
,
0010
1000
0100
0010
,
0001
0000
1000
0000
,
0001
0100
1000
0000
,
1000
0100
0001
0010
,
0220
0000
0330
0010
,
1002
0000
0103
0001
,
0010
1000
0100
0001
,
0010
0100
1000
0001
,
0220
0000
0330
0110
,
0001
0001
1000
1000
,
0010
0001
0010
1000
,
0100
0001
0100
1000
,
2020
0000
0000
3030
,
2002
3003
0001
0100
,
1000
0100
0001
0001
,
0220
0330
1000
0010
,
0002
0003
0020
0030
2000
3000
0200
0300
,
2002
3003
1000
0100
,
0001
0100
1000
1000
,
0220
0330
0001
0010
,
0200
0000
0000
0300
,
1100
1001
0101
0000
,
0011
1001
1010
0000
,
0001
0100
0010
1000
,
0100
0010
0001
0000
,
0101
1001
1100
0000
,
1010
1001
0011
0000
,
0001
0010
1000
0010
,
0001
0001
0100
0000
,
1010
0110
0101
0000
,
0011
0110
1100
0000
,
1000
0100
0010
0001
,
0100
0010
1000
0000
,
1100
0110
0011
0000
,
0101
0110
1010
0000
,
0001
0010
1000
0100
,
0001
0010
0100
1000
,
2002
0000
0000
0000
,
3003
0000
0000
0000
;

//---------------dance-single - ----------------
#NOTES:
     dance-single:
     :
     Easy:
     4:
     0.272594,0.311553,0.126647,0.168863,0.000000,226.000000,211.000000,15.000000,20.000000,0.000000,0.000000,0.272594,0.311553,0.126647,0.168863,0.000000,226.000000,211.000000,15.000000,20.000000,0.000000,0.000000:
0000
0000
0000
0000
,
1001
0000
0100
0000
,
1000
0100
1000
0000
,
0001
0000
0100
0000
,
0001
0100
0001
0000
,
1001
0000
0010
0000
,
1000
0010
1000
0000
,
0001
0010
0001
0000
,
2000
0000
3000
0000
,
0001
0100
0001
0000
,
0001
0010
0001
0000
,
1000
0100
1000
0000
,
1000
0010
1000
0000
,
0001
0000
1000
0000
,
0001
1000
0001
0000
,
0010
0100
0010
0100
,
0020
0000
0030
0000
,
0012
0000
1003
0000
,
0001
0001
0001
0000
,
0001
0100
0001
0100
,
0020
0000
0030
0000
,
1010
0000
0001
0000
,
0011
0000
1000
0000
,
0001
0100
0010
1000
,
0002
0000
0003
0000
,
1000
1000
1000
0000
,
0001
0001
0001
0000
,
0010
0000
0010
0000
,
0100
0010
0001
0000
,
1000
1000
1000
0000
,
0001
0001
0001
0000
,
1000
0010
0100
0001
,
1000
0000
1001
0000
,
0001
0001
0001
0000
,
1000
1000
1000
0000
,
0100
0000
0100
0000
,
0010
0001
0100
0000
,
0001
0001
0001
0000
,
1000
1000
1000
0000
,
0010
0000
0010
0000
,
1000
0100
0010
0001
,
1000
0000
1000
0000
,
0001
0000
0001
0000
,
0100
0010
1000
0000
,
0100
0010
0001
0000
,
1000
0000
0001
0000
,
1000
0000
0001
0000
,
1000
0010
0100
0001
,
2000
0000
3000
0000
,
2010
0000
3001
0000
,
1000
1000
1000
0000
,
1000
0100
1000
0100
,
0020
0000
0030
0000
,
0011
0000
1000
0000
,
1010
0000
0001
0000
,
1000
0100
0010
0001
,
2000
0000
3000
0000
,
2002
3003
0001
0000
,
0001
0000
0001
0001
,
2002
3003
0010
0000
,
1000
0001
1000
0001
,
2002
3003
1000
0000
,
1000
0000
1000
1000
,
2002
3003
0100
0010
,
0200
0000
0000
0300
,
0001
0001
0001
0000
,
1000
1000
1000
0000
,
0010
0000
0010
0000
,
0100
0010
1000
0000
,
0001
0001
0001
0000
,
1000
1000
1000
0000
,
0001
0010
0100
1000
,
0001
0000
1001
0000
,
1000
1000
1000
0000
,
0001
0001
0001
0000
,
0100
0000
0100
0000
,
0010
1000
0100
0000
,
1000
1000
1000
0000
,
0001
0001
0001
0000
,
0010
0000
0010
0000
,
0001
0100
0010
1000
,
2002
0000
0000
0000
,
3003
0000
0000
0000
;

//---------------dance-single - ----------------
#NOTES:
     dance-single:
     :
     Beginner:
     3:
     0.207461,0.276936,0.075988,0.084432,0.000000,172.000000,163.000000,9.000000,10.000000,0.000000,0.000000,0.207461,0.276936,0.075988,0.084432,0.000000,172.000000,163.000000,9.000000,10.000000,0.000000,0.000000:
0000
0000
0000
0000
,
1001
0000
0000
0000
,
0100
0000
0000
0000
,
1000
0000
0000
0000
,
0010
0000
0000
0000
,
1001
0000
0000
0000
,
0100
0000
0000
0000
,
0001
0000
0000
0000
,
0010
0000
0000
0000
,
0001
0000
0100
0000
,
0001
0000
0001
0000
,
1000
0000
0100
0000
,
1000
0000
1000
0000
,
0001
0000
0010
0000
,
0001
0000
0001
0000
,
1000
0000
0010
0000
,
1000
0000
0000
0000
,
2002
0000
3003
0000
,
0100
0000
0100
0000
,
1000
0000
0001
0000
,
0200
0000
0300
0000
,
0001
0000
0001
0000
,
1000
0000
1000
0000
,
0100
0000
0010
0000
,
0200
0000
0300
0000
,
1000
1000
1000
0000
,
0001
0001
0001
0000
,
1000
0000
1000
0000
,
0010
0000
0010
0000
,
1000
1000
1000
0000
,
0001
0001
0001
0000
,
0010
0000
0100
0000
,
0010
0000
0010
0000
,
0001
0001
0001
0000
,
1000
1000
1000
0000
,
0001
0000
0001
0000
,
0100
0000
0100
0000
,
0001
0001
0001
0000
,
1000
1000
1000
0000
,
0100
0000
0001
0000
,
0010
0000
1000
0000
,
0001
0000
0001
0000
,
1000
0000
1000
0000
,
0100
0000
0100
0000
,
0010
0000
0010
0000
,
0001
0000
0001
0000
,
0100
0000
0100
0000
,
0010
0000
0010
0000
,
1000
0000
0001
0000
,
2002
0000
3003
0000
,
0100
0000
0100
0000
,
0001
0000
1000
0000
,
0200
0000
0300
0000
,
1000
0000
1000
0000
,
0001
0000
0001
0000
,
0100
0000
0010
0000
,
0200
0000
0300
0000
,
1001
0000
0001
0000
,
0001
0000
0001
0000
,
1001
0000
0010
0000
,
0010
0010
0010
0000
,
1001
0000
1000
0000
,
1000
0000
1000
0000
,
1001
0000
0010
0010
,
0010
0000
0000
0000
,
0001
0001
0001
0000
,
1000
1000
1000
0000
,
0001
0000
0001
0000
,
0010
0000
0010
0000
,
0001
0001
0001
0000
,
1000
1000
1000
0000
,
0010
0000
0100
0000
,
0010
0000
0010
0000
,
1000
1000
1000
0000
,
0001
0001
0001
0000
,
1000
0000
1000
0000
,
0100
0000
0100
0000
,
1000
1000
1000
0000
,
0001
0001
0001
0000
,
0100
0000
1000
0000
,
0010
0000
0001
0000
,
2002
0000
0000
0000
,
3003
0000
0000
0000
;

//---------------dance-single - GO GO GO----------------
#NOTES:
     dance-single:
     :
     Edit:
     13:
     0.665804,0.692339,0.827430,0.396829,0.075988,552.000000,454.000000,98.000000,47.000000,196.000000,0.000000,0.665804,0.692339,0.827430,0.396829,0.075988,552.000000,454.000000,98.000000,47.000000,196.000000,0.000000:
0000
0000
0000
0000
,
1001
0000
0100
0000
0100
0001
0000
1000
,
0000
0001
1000
0001
0010
0000
0010
0000
,
0001
0000
1000
0000
0010
0000
0001
0010
,
0000
1000
0100
0010
0001
0000
0100
0000
,
1001
0000
1000
0010
1000
0000
0100
0001
,
0000
0100
1000
0001
0010
0000
0001
0000
,
0100
0000
0010
1000
0000
0001
0000
1000
,
0100
0000
0000
0010
0001
0000
0000
1000
0010
0000
0100
0000
0001
0000
0010
0000
,
0110
0000
1000
0000
1000
0000
0001
0200
,
0000
0301
1000
1000
0100
0000
0011
0000
,
1100
0000
0001
0100
0001
0000
0010
2000
,
0000
3010
0001
0001
0100
0010
1000
0100
,
0110
0000
1000
0000
1000
0000
0010
0002
,
0000
0013
0100
0001
1000
1000
0100
0000
,
0010
0000
0001
0000
0100
0000
0010
0000
4000
0004
0000
0000
0000
0000
3000
0003
,
0020
0000
0000
0000
0000
0000
0031
0010
,
0012
0000
0000
1000
1000
0000
0103
0010
,
1010
1001
0011
1001
,
1020
0000
0130
0001
1000
0100
0010
0000
,
2002
0000
0000
0000
3003
0000
1000
0010
,
2010
0000
3001
0010
0012
0000
1003
0010
,
1010
0101
1100
0011
,
0001
0000
0100
0000
0010
0000
1000
0000
0004
0040
0000
0000
0000
0000
0003
0030
,
0200
0000
0000
0000
0310
0100
1001
0000
,
0101
MMMM
1100
MMMM
0101
MMMM
0001
0010
,
0011
MMMM
1010
MMMM
0011
MMMM
0001
0100
,
0010
0010
0100
0001
0010
0010
0100
1000
,
0010
0100
0001
1000
0100
1000
0100
0010
,
0011
MMMM
1010
MMMM
0011
MMMM
0001
0100
,
0101
MMMM
1100
MMMM
0101
MMMM
1000
0010
,
0001
0010
1000
0100
0001
0100
1000
0010
,
0100
0100
0100
0000
1001
0000
0001
0010
,
0011
MMMM
0101
MMMM
0011
MMMM
1000
0010
,
1010
MMMM
1100
MMMM
1010
MMMM
0010
1000
,
0100
0100
0010
0001
0100
0100
0010
1000
,
0100
0010
0001
0100
0010
1000
0010
1000
,
1100
MMMM
1010
MMMM
1100
MMMM
0001
0100
,
0101
MMMM
0011
MMMM
0101
MMMM
1000
0100
,
0002
2003
3020
0032
,
0103
1000
0001
0010
1000
0100
0010
0001
,
2001
0000
0010
0000
3010
0000
1000
1010
,
0000
0000
0110
0000
0000
0000
0101
0000
0001
0000
1000
0100
1000
0000
0001
0000
,
0100
0010
1000
1001
0000
0011
0000
1100
,
0000
0011
0001
1000
0001
0100
0010
0000
,
1000
0010
1000
0000
0001
0100
0001
0000
1000
0010
1000
0000
0001
0000
1000
0000
,
0100
0001
0100
1000
0000
1000
0010
0100
,
0001
1000
1000
0001
0000
0110
0000
1001
,
0000
0000
0001
0000
0010
0000
0100
0000
1000
0001
1000
0000
0010
0000
0000
0000
,
2010
0000
0000
0001
0001
0000
3100
0010
,
0011
1001
1010
1001
,
0021
0000
0130
1000
0001
0100
0010
1000
,
2002
0000
0000
0000
3003
0000
0001
0010
,
0012
0000
1003
0010
2010
0000
3001
0010
,
0011
1100
0101
1010
,
1000
0000
0100
0000
0010
0000
0001
0000
0400
0040
0000
0000
0000
0000
0300
0030
,
2000
0000
0001
0000
3001
1000
0110
0000
,
0202
0000
0000
0000
0300
0M00
0000
0000
4003
0000
0000
3000
0400
0000
0000
0300
,
0040
0004
0000
0000
0000
0000
0000
0030
2003
0000
3020
0000
0230
0000
0301
0000
,
2200
0000
0000
0000
3000
M000
0000
0000
0340
0000
0000
0030
0004
4000
0000
0003
,
3020
1030
0002
1003
0200
1300
0002
1003
,
2020
0000
0000
0000
0030
00M0
0000
0000
3004
0000
0000
0003
0040
0000
0000
0030
,
0400
4000
0000
0000
0000
0000
0000
0300
3002
0000
0203
0000
0320
0000
1030
0000
,
0022
0000
0000
0000
0030
00M0
0000
0000
4003
0000
0000
3000
0040
0400
0000
0030
,
0302
0000
0000
0000
0000
0000
1003
0100
,
1100
MMMM
0101
MMMM
1100
MMMM
1000
0010
,
1010
MMMM
0011
MMMM
1010
MMMM
1000
0100
,
0010
0010
0100
1000
0010
0010
0100
0001
,
0010
0100
1000
0001
0100
0001
0100
0010
,
1010
MMMM
0011
MMMM
1010
MMMM
1000
0100
,
1100
MMMM
0101
MMMM
1100
MMMM
0001
0010
,
1000
0010
0001
0100
1000
0100
0001
0010
,
0100
0100
0100
0000
1001
0000
1000
0010
,
1010
MMMM
1100
MMMM
1010
MMMM
0001
0010
,
0011
MMMM
0101
MMMM
0011
MMMM
0010
0001
,
0100
0100
0010
1000
0100
0100
0010
0001
,
0100
0010
1000
0100
0010
0001
0010
0001
,
0101
MMMM
0011
MMMM
0101
MMMM
1000
0100
,
1100
MMMM
1010
MMMM
1100
MMMM
0001
0100
,
2000
3002
0023
2030
,
3100
0001
1000
0010
0001
0100
0010
1000
,
0200
0000
0000
0000
,
0300
0000
0000
0000
;
