#TITLE:Bad Cycle;
#SUBTITLE:;
#ARTIST:EBIMAYO;
#TITLETRANSLIT:;
#SUBTITLETRANSLIT:;
#ARTISTTRANSLIT:;
#GENRE:Low-Tech Rave;
#CREDIT:;
#BANNER:Bad Cycle.png;
#BACKGROUND:Bad Cycle-bg.png;
#LYRICSPATH:;
#CDTITLE:cdtitle.png;
#MUSIC:Bad Cycle.ogg;
#OFFSET:-0.080383;
#SAMPLESTART:103.582382;
#SAMPLELENGTH:12.000000;
#SELECTABLE:YES;
#BPMS:0.000000=160.000000
;
#STOPS:
;
#BGCHANGES:;
#KEYSOUNDS:;
#ATTACKS:;

//---------------dance-single - ----------------
#NOTES:
     dance-single:
     :
     Challenge:
     17:
     0.974565,1.113369,0.545449,0.399484,1.363622,888.000000,817.000000,71.000000,52.000000,93.000000,0.000000,0.974565,1.113369,0.545449,0.399484,1.363622,888.000000,817.000000,71.000000,52.000000,93.000000,0.000000:
0000
0000
0000
0000
,
0000
0000
0000
0000
,
0000
0000
0000
0000
,
0000
0000
0000
0000
,
0001
0100
0001
0000
1000
0100
1000
0000
0001
0000
0000
0001
0100
0010
1000
0000
,
0001
0100
0001
0100
0001
1000
0001
1000
0100
1000
0100
1000
0001
1000
0001
1000
,
0001
0100
0010
1000
0100
0010
0001
1000
0010
0100
0001
0010
0100
1000
0010
0100
,
M002
M000
M000
M000
M003
0MM0
M00M
0000
,
0001
0000
1000
0010
M000
0010
0001
0000
0001
0100
000M
0100
1000
0000
0001
0000
,
1000
0100
M000
0100
0001
0000
0020
0000
0031
0100
000M
0100
1000
0000
0010
0000
,
1000
0000
0001
0100
000M
0100
1000
0000
0010
1000
0001
0010
0100
0000
0010
0000
,
0001
0100
0020
0000
0130
0000
2000
0000
3100
0010
0200
0000
0301
0000
0020
0000
,
0031
0000
1000
0100
M000
0100
0001
0000
0001
0010
000M
0010
1000
0000
0001
0000
,
1000
0010
M000
0010
0001
0000
0200
0000
0301
0010
000M
0010
1000
0000
0100
0000
,
1000
0001
1000
0001
0100
0010
0100
0010
1000
0100
0010
0001
1000
0010
0100
0001
,
1000
01M0
0000
01M0
0000
01M0
00M0
01M0
00M0
01M0
00M0
01M0
10M0
0001
0100
0010
,
1000
0000
0001
0010
000M
0010
1000
0000
1000
0100
M000
0100
0001
0000
1000
0000
,
0010
1000
00M0
1000
0100
0000
0002
0000
0013
0001
00M0
0001
0100
0000
1000
0000
,
0001
0000
1000
0100
M000
0100
0001
0000
0010
0001
1000
0010
0100
0000
0010
0000
,
1000
0100
0020
0000
0130
0000
0002
0000
0103
0010
0200
0000
1300
0000
0020
0000
,
1030
0000
0001
0100
000M
0100
1000
0000
1000
0010
M000
0010
0001
0000
1000
0000
,
0100
1000
0M00
1000
0010
0000
0002
0000
0103
0001
0M00
0001
0010
0000
1000
0000
,
0100
0000
1000
0010
M000
0010
0001
0000
0001
0100
000M
0100
1000
0000
0010
0000
,
1000
0010
0100
0001
0010
0001
0010
0001
0100
0010
1000
0100
1000
0010
0100
0001
,
1000
0000
1000
0000
0010
1000
0000
0100
0000
0100
1000
0000
0010
0000
1000
0000
,
0001
0000
0001
0000
0010
0001
0000
0100
0000
0100
0001
0000
0010
0001
0000
0001
,
0400
0040
0000
0000
0000
0000
0000
0000
0000
0000
0000
0000
0000
0000
0300
0030
,
100M
0000
0000
0000
100M
0000
0000
0000
100M
0100
0000
1000
000M
0100
001M
0000
,
0012
0000
0000
0000
0103
0000
0000
0000
0100
0000
0000
0100
0000
0000
0001
0000
,
0010
0000
0010
0000
0010
0000
0001
0000
M100
000M
M000
000M
0M00
00M0
0M00
00M0
,
1002
0000
0000
0000
0013
0000
0000
0000
0001
0000
0000
0001
0000
0000
1000
0000
,
0001
0100
0001
0100
0001
0100
0001
0100
0001
1000
0100
0010
0001
0100
0010
1000
,
2010
0000
0000
0000
3100
0000
0000
0000
0100
0000
0000
0100
0000
0000
1000
0000
,
0010
0000
0010
0000
0010
0000
1000
0000
010M
M000
000M
M000
0M00
00M0
0M00
00M0
,
1001
0000
0001
0100
0010
1000
0100
0010
0001
0100
0001
0100
0001
0010
0100
1000
,
0001
0100
0001
1000
0100
1000
0001
0010
0001
1000
0010
1000
0100
0010
0001
1000
,
2002
0000
3003
0000
0011
0000
1001
0000
0001
0100
000M
0100
1000
0000
0010
0000
,
0100
0001
0010
000M
0010
0000
1000
0100
0010
0000
0001
0100
0010
1000
0100
0010
,
0022
0000
0033
0000
0101
0000
1001
0000
0001
0010
000M
0010
1000
0000
0100
0000
,
1100
0000
0000
0010
0001
0000
0001
0100
0010
1000
0000
1000
0100
0000
0010
0001
,
2002
0000
3003
0000
1010
0000
1001
0000
1000
0100
M000
0100
0001
0000
0010
0000
,
0100
1000
0010
M000
0010
0000
0001
0100
0010
0000
1000
0100
0010
0001
0100
0010
,
2020
0000
3030
0000
1100
0000
1001
0000
1000
0010
M000
0010
0001
0000
0100
0000
,
0101
0000
0000
0011
0000
0000
0101
0000
1100
0000
0000
1010
0000
0000
1100
0000
,
2002
0000
3003
0000
0101
0000
1010
0000
1000
0100
M000
0100
0001
0000
0010
0000
,
0001
0100
0010
0M00
0010
0000
0100
1000
0010
0000
1000
0010
0100
0001
0010
0100
,
2200
0000
3300
0000
1010
0000
0101
0000
0001
0010
000M
0010
1000
0000
0100
0000
,
0011
0000
0000
0010
0001
0000
0001
0100
0010
1000
0000
1000
0100
0000
0010
0001
,
2002
0000
3003
0000
0011
0000
0101
0000
1010
0000
0000
0010
1000
0100
1000
0100
,
0010
0001
0100
000M
0100
0000
0010
0100
1000
0001
0000
0001
0100
0010
1000
0001
,
0202
0303
0001
0100
1000
0100
0001
0010
,
1100
0000
0000
1010
0000
0000
1100
0000
0101
0000
0000
0011
0000
0000
0101
0000
,
2001
0000
0000
0000
3010
1000
0001
0010
0000
0100
0000
0010
0001
1000
0001
1000
,
0001
0100
0010
1000
0000
0100
0000
0100
0000
0100
0010
0000
0001
0000
0100
0000
,
1000
0000
0100
0010
0000
0100
0010
0100
0001
1000
0001
0000
1000
0000
0100
0000
,
0020
0000
0000
0031
0000
0000
0011
0000
0000
1001
0000
0000
0001
0100
0010
0100
,
0002
0000
0000
0000
0013
0001
1000
0010
0000
0100
0000
0010
1000
0001
1000
0001
,
1000
0100
0010
0001
0000
0100
0000
0100
0000
0100
0010
0000
1000
0000
1000
0000
,
0002
0000
1003
0100
0010
0001
0010
0001
1000
0001
1000
0001
0100
0001
0100
0001
,
1000
0010
0100
0001
0010
0001
0100
0010
1000
0001
0010
0100
1000
0010
0100
0001
,
1002
0000
0000
0000
0013
0100
0010
0001
0000
0100
0000
0001
1000
0010
1000
0010
,
1000
0100
0010
0001
0000
0100
0000
0100
0000
0100
0010
0000
1000
0000
0100
0000
,
0001
0000
0100
0010
0000
0100
0010
0100
1000
0001
1000
0000
0001
0000
0100
0000
,
0020
0000
0000
1030
0000
0000
1001
0000
0000
1100
0000
0000
0010
0001
0100
0010
,
1000
0000
1000
0000
0010
0000
0010
0000
1000
0000
1000
0000
0010
1000
0000
1000
,
0001
0000
0001
0000
0010
0000
0010
0000
0001
1000
0000
0001
0000
0001
0000
0100
,
0010
1000
0001
1000
0100
1000
0001
1000
0010
1000
0001
1000
0100
1000
0001
1000
,
0010
0100
0001
0010
0001
0100
0010
1000
0100
1000
0010
0100
0001
0010
0001
0100
,
M001
0000
0000
0000
M001
0000
0000
0000
M001
0100
0000
0001
M000
0100
M010
0000
,
2010
0000
0000
0000
3010
1000
0001
0010
0000
MM11
0000
0010
1000
0100
0010
0001
,
1000
0010
0100
0001
0000
0100
0000
M1M1
0000
0100
1000
0000
0010
0000
1000
0000
,
0100
0000
0010
0001
00M0
0001
0100
0010
0100
0010
0001
0000
1000
0000
0001
0000
,
0101
0000
0000
0110
0000
0000
1100
0000
0000
0110
0000
0000
0001
0100
0010
1000
,
0002
0000
0000
0000
0103
0001
1000
0100
0000
11MM
0000
0100
0001
0010
0100
1000
,
0001
0100
0010
1000
0000
0010
0000
1M1M
0000
0010
0001
0000
0100
0000
0001
0000
,
0021
0000
0000
0130
0000
0000
1100
0000
0010
0002
0000
0000
0103
0000
0010
0000
,
1020
0000
0000
0130
0000
0000
0101
0000
0010
2000
0000
0000
3001
0000
0110
0000
,
1002
0000
0000
0000
0013
0001
1000
0010
0000
1M1M
0000
0010
0001
0100
0010
1000
,
0001
0010
0100
1000
0000
0100
0000
11MM
0000
0100
0001
0000
0010
0000
0001
0000
,
0100
0000
0010
1000
00M0
1000
0100
0010
0100
0010
1000
0000
0001
0000
1000
0000
,
1100
0000
0000
0110
0000
0000
0101
0000
0000
0110
0000
0000
1000
0100
0010
0001
,
2000
0000
0000
0000
3100
1000
0001
0100
0000
M1M1
0000
0100
1000
0010
0100
0001
,
1000
0100
0010
0001
0000
0010
0000
MM11
0000
0010
1000
0000
0100
0000
1000
0000
,
0001
0100
0010
0100
0001
1000
0100
0010
0100
1000
0010
0100
0001
0010
0100
1000
,
0002
0000
0000
0203
0000
0000
2300
0000
0000
3200
0000
0000
0310
0000
0100
0000
,
0202
0303
0000
0000
;

//---------------dance-single - ----------------
#NOTES:
     dance-single:
     :
     Hard:
     14:
     0.685927,0.753161,0.330342,0.384119,0.656843,625.000000,582.000000,43.000000,50.000000,40.000000,0.000000,0.685927,0.753161,0.330342,0.384119,0.656843,625.000000,582.000000,43.000000,50.000000,40.000000,0.000000:
0000
0000
0000
0000
,
0000
0000
0000
0000
,
0000
0000
0000
0000
,
0000
0000
0000
0000
,
1000
1000
0001
0001
,
1000
0100
0010
0001
1000
0010
0100
0001
,
0010
0001
0100
1000
0100
0001
0010
0001
,
0200
0000
0000
0000
0000
0300
MMMM
0000
,
0001
0000
1000
0010
0000
0010
1000
0000
0001
0010
0000
0010
0001
0000
1000
0000
,
0001
0100
0000
0010
0100
0000
0001
0000
1000
0100
0000
0100
0010
0000
0001
0000
,
1000
0000
0010
0100
0000
0100
0010
0000
0100
0001
0000
0001
1000
0000
0001
0000
,
1000
0200
1300
0020
0031
2000
3100
0002
,
0013
0000
0100
1000
0000
1000
0100
0000
1000
0010
0000
0010
1000
0000
0001
0000
,
1000
0100
0000
0010
0100
0000
1000
0000
0010
0100
0000
0100
0001
0000
1000
0000
,
0001
0010
0001
0100
1000
0100
0001
0010
,
0200
0000
0000
0000
,
1300
0000
0001
0010
0000
0010
0001
0000
1000
0010
0000
0010
1000
0000
0001
0000
,
1000
0100
0000
0010
0100
0000
1000
0000
0001
0100
0000
0100
0010
0000
1000
0000
,
0001
0000
0010
0100
0000
0100
0010
0000
0100
1000
0000
1000
0001
0000
1000
0000
,
0001
0200
0301
0020
1030
0002
0103
2000
,
3010
0000
0100
0001
0000
0001
0100
0000
0001
0010
0000
0010
0001
0000
1000
0000
,
0001
0100
0000
0010
0100
0000
0001
0000
0010
0100
0000
0100
1000
0000
0001
0000
,
1000
0000
0001
0100
0000
0100
0010
0000
1000
0010
0000
0010
0100
0000
0001
0000
,
1000
0010
1000
0100
0001
0100
1000
0010
,
1000
1100
0001
0101
,
1000
0000
0000
0000
1010
0000
0000
0000
0001
0000
0000
0000
0010
0001
0000
1000
,
0004
0400
0000
0000
0000
0000
0000
0000
0000
0000
0000
0000
0000
0000
0000
0000
,
03M3
0000
M00M
0000
MM0M
0000
M00M
0MM0
,
2001
0000
0000
0000
3100
0000
0000
0000
0100
0000
0000
0100
0000
0000
1000
0000
,
0010
0000
0010
0000
0010
0000
1000
0000
010M
M000
000M
M000
0M00
00M0
0M00
00M0
,
2001
0000
0000
0000
3010
0000
0000
0000
1000
0000
0000
1000
0000
0000
0100
0000
,
0010
0001
0010
0001
0100
1000
0100
0001
,
1002
0000
0000
0000
0103
0000
0000
0000
0100
0000
0000
0100
0000
0000
0001
0000
,
0010
0000
0010
0000
0010
0000
0001
0000
M100
000M
M000
000M
0M00
00M0
0M00
00M0
,
2002
3003
1000
0100
0001
0100
1000
0010
,
1000
0100
0001
0100
1000
0010
0001
0010
,
2010
0000
0000
0000
0001
0000
3001
0000
1000
0100
0000
1000
0100
0000
0010
0000
,
0001
1000
0001
0000
0100
0000
1000
0000
0100
0000
0000
0100
0001
0000
0010
0000
,
0021
0000
0000
0000
0100
0000
0130
0000
1000
0001
0000
1000
0001
0000
0100
0000
,
0010
0000
0000
0010
1000
0000
0100
0000
0010
0001
0000
1000
0100
0000
0010
0000
,
0012
0000
0000
0000
1000
0000
1003
0000
0001
0100
0000
0001
0100
0000
0010
0000
,
1000
0001
1000
0000
0100
0000
0001
0000
0100
0000
0000
0100
1000
0000
0010
0000
,
1020
0000
0000
0000
0100
0000
0130
0000
0001
1000
0000
0001
1000
0000
0100
0000
,
1100
0000
0000
0110
0000
0000
0011
0000
0101
0000
0000
0110
0000
0000
1010
0000
,
0102
0000
0000
0000
0010
0000
0013
0000
0100
1000
0000
0100
1000
0000
0010
0000
,
0100
0001
0100
0000
1000
0000
0100
0000
0001
0000
0000
0001
0010
0000
0100
0000
,
1200
0000
0000
0000
0010
0000
0310
0000
0001
1000
0000
0001
1000
0000
0010
0000
,
0100
0000
0000
0100
0001
0000
0010
0000
0100
1000
0000
0001
0010
0000
0100
0000
,
2100
0000
0000
0000
0010
0000
3010
0000
0101
0000
0000
0100
0001
0000
0010
0000
,
0100
1000
0100
0000
0001
0000
0100
0000
1000
0000
0000
1000
0010
0000
0100
0000
,
0201
0000
0010
0310
1000
0100
0010
0001
,
0011
0000
0000
0110
0000
0000
1100
0000
1010
0000
0000
0110
0000
0000
0101
0000
,
2001
0000
0000
0000
3010
0000
0000
1000
0000
0001
0000
0000
1000
0000
0100
0000
,
0010
0000
0000
0100
0000
1000
0000
1000
0000
0000
0010
0000
0100
0000
0001
0000
,
0010
0000
0001
0010
0000
0000
0001
0000
0100
0000
1000
0000
0100
0000
0001
0000
,
0020
0000
0000
0032
0000
0000
2003
0000
0000
3020
0000
0000
0130
0000
0100
0000
,
0002
0000
0000
0000
0013
0000
0000
0001
0000
1000
0000
0000
0001
0000
0100
0000
,
0010
0000
0000
0100
0000
0001
0000
0001
0000
0000
0010
0000
0100
0000
1000
0000
,
0020
0000
0000
0130
0000
0000
0001
0000
1000
0200
0000
0000
0310
0000
0001
0000
,
0100
1000
0100
0001
0010
0001
0100
0001
,
2001
0000
0000
0000
3100
0000
0000
0001
0000
0100
0000
0000
1000
0000
0010
0000
,
0001
0000
0000
0010
0000
1000
0000
1000
0000
0000
0001
0000
0010
0000
1000
0000
,
0010
0000
0001
1000
0000
0000
0001
0000
0100
0000
1000
0000
0100
0000
0001
0000
,
0020
0000
0000
0230
0000
0000
2300
0000
0000
3020
0000
0000
0130
0000
0100
0000
,
0001
0000
0000
0000
0001
0000
0000
0000
0001
0000
0000
0000
0001
0100
0000
0010
,
1000
0000
0000
0000
1000
0000
0000
0000
1000
0100
0000
0010
0000
0001
0000
1000
,
0004
0400
0000
0000
0000
0000
0000
0000
0000
0000
0000
0000
0000
0000
0000
0000
,
0000
0000
0000
0000
,
03M3
0000
M00M
0000
MM0M
0000
M00M
0MM0
,
2001
0000
0000
0000
3001
0000
0010
1000
0000
0010
0000
1000
0010
0000
0001
0000
,
0100
1000
0000
0100
0000
0100
0000
0001
0000
1000
0001
0000
0010
0000
0001
0000
,
0100
0000
0010
1000
0000
0010
1000
0000
0100
0010
0100
0000
1000
0000
0010
0000
,
1010
0000
0000
1001
0000
0000
1100
0000
0000
1001
0000
0000
1000
0010
1000
0010
,
2000
0000
0000
0000
3001
0000
0010
1000
0000
0010
0000
0001
0100
0000
1000
0000
,
0001
0010
0000
1000
0000
1000
0000
0001
0000
1000
0100
0000
0010
0000
0001
0000
,
0012
0000
0000
1000
0000
0000
0103
0000
0010
2000
0000
0000
3001
0000
0100
0000
,
2010
0000
0000
0001
0000
0000
3100
0000
0010
0002
0000
0000
0103
0000
0010
0000
,
1002
0000
0000
0000
1003
0000
0010
0001
0000
0010
0000
0001
0010
0000
1000
0000
,
0100
0001
0000
0100
0000
0100
0000
1000
0000
0001
1000
0000
0010
0000
1000
0000
,
0001
0000
0010
0001
0000
0010
0001
0000
0100
0010
0100
0000
0001
0000
0010
0000
,
0011
0000
0000
1001
0000
0000
0101
0000
0000
1001
0000
0000
0001
0010
0001
0010
,
0002
0000
0000
0000
1003
0000
0010
0001
0000
0010
0000
1000
0100
0000
0001
0000
,
1000
0010
0000
0001
0000
0001
0000
1000
0000
0001
0100
0000
0010
0000
1000
0000
,
0001
0010
1000
0010
0001
0100
1000
0100
,
0002
0000
0000
0023
0000
0000
0230
0000
0000
2300
0000
0000
3001
0000
0100
0000
,
0220
0330
0000
0000
;

//---------------dance-single - ----------------
#NOTES:
     dance-single:
     :
     Medium:
     11:
     0.521304,0.556684,0.169012,0.245836,0.345707,475.000000,453.000000,22.000000,32.000000,0.000000,0.000000,0.521304,0.556684,0.169012,0.245836,0.345707,475.000000,453.000000,22.000000,32.000000,0.000000,0.000000:
// measure 0
0000
0000
0000
0000
,  // measure 1
0000
0000
0000
0000
,  // measure 2
0000
0000
0000
0000
,  // measure 3
0000
0000
0000
0000
,  // measure 4
1000
1000
0001
0001
,  // measure 5
1000
0100
0001
0010
,  // measure 6
0001
0100
1000
0010
,  // measure 7
0200
0000
0000
0300
,  // measure 8
0001
0000
0000
0100
0000
0000
0001
0000
0000
1000
0000
0000
0001
0000
0010
0000
,  // measure 9
0000
0001
0000
0000
1000
0000
0010
0000
1000
0000
0000
0001
0000
0000
1000
0000
,  // measure 10
0100
0000
0000
0010
0000
0000
0001
0000
0000
0100
0000
0000
0010
0000
1000
0000
,  // measure 11
0000
0020
0030
0002
0003
0020
0030
2000
,  // measure 12
3001
0000
0000
0010
0000
0000
0001
0000
0000
1000
0000
0000
0001
0000
0100
0000
,  // measure 13
0000
0010
0000
0000
1000
0000
0001
0000
0010
0000
0000
0001
0000
0000
1000
0000
,  // measure 14
0001
0100
1000
0010
,  // measure 15
0002
0000
0000
0003
,  // measure 16
1000
0000
0000
0100
0000
0000
1000
0000
0000
0001
0000
0000
1000
0000
0010
0000
,  // measure 17
0000
1000
0000
0000
0001
0000
0010
0000
0001
0000
0000
1000
0000
0000
0001
0000
,  // measure 18
0100
0000
0000
0010
0000
0000
1000
0000
0000
0100
0000
0000
0010
0000
0001
0000
,  // measure 19
0000
0020
0030
2000
3000
0020
0030
0002
,  // measure 20
1003
0000
0000
0010
0000
0000
1000
0000
0000
0001
0000
0000
1000
0000
0100
0000
,  // measure 21
0000
0010
0000
0000
0001
0000
1000
0000
0010
0000
0000
1000
0000
0000
0001
0000
,  // measure 22
1000
0000
0000
0100
0000
0000
0010
0000
0000
0001
0000
0000
0100
0000
0010
0000
,  // measure 23
2000
3200
0302
0023
,  // measure 24
1030
0100
0010
0000
0001
0100
0010
0000
,  // measure 25
0100
0001
0010
0000
0100
1000
0010
0000
,  // measure 26
4000
0004
0000
0000
0000
0000
0000
0000
0000
0000
0000
0000
3003
0000
0000
0000
,  // measure 27
0100
0000
0000
0000
0100
0000
0000
0000
0100
0000
0000
0100
0000
0000
0100
0000
,  // measure 28
2001
0000
0000
0000
3100
0000
0000
0000
0100
0000
0000
0100
0000
0000
1000
0000
,  // measure 29
0010
1000
0010
1000
0400
0000
0300
0000
,  // measure 30
2001
0000
0000
0000
3010
0000
0000
0000
1000
0000
0000
0100
0000
0000
1000
0000
,  // measure 31
0001
0000
0000
0100
0000
0000
0001
0000
0000
0100
0000
0000
0010
0000
1000
0000
,  // measure 32
1002
0000
0000
0000
0103
0000
0000
0000
0100
0000
0000
0100
0000
0000
0001
0000
,  // measure 33
0010
0001
0010
0001
0400
0000
0300
0000
,  // measure 34
1002
0000
0000
0000
0013
0000
0000
0000
0001
0000
0000
0100
0000
0000
0001
0000
,  // measure 35
1000
0000
0000
0100
0000
0000
1000
0000
0000
0100
0000
0000
0010
0000
0001
0000
,  // measure 36
2001
0000
0000
0000
3010
0000
1000
0000
0100
0000
0000
0100
0000
0000
1000
0000
,  // measure 37
0010
0100
0001
1000
0100
0000
0011
0000
,  // measure 38
2001
0000
0000
0000
3010
0000
1000
0000
0100
0000
0000
0100
0000
0000
0010
0000
,  // measure 39
0001
0000
0000
0100
0000
0000
1000
0000
0000
0100
0000
0000
0001
0000
1000
0000
,  // measure 40
1002
0000
0000
0000
0013
0000
0001
0000
0100
0000
0000
0100
0000
0000
0001
0000
,  // measure 41
0010
0100
1000
0001
0100
0000
1010
0000
,  // measure 42
1002
0000
0000
0000
0013
0000
0001
0000
0100
0000
0000
0100
0000
0000
0010
0000
,  // measure 43
1000
0000
0000
1100
0000
0000
1000
0000
0001
0000
0000
0101
0000
0000
0001
0000
,  // measure 44
1002
0000
0000
0000
0103
0000
0001
0000
0010
0000
0000
0010
0000
0000
0001
0000
,  // measure 45
0100
0010
1000
0001
0010
0000
1100
0000
,  // measure 46
1002
0000
0000
0000
0103
0000
0001
0000
0010
0000
0000
0010
0000
0000
0100
0000
,  // measure 47
1000
0000
0000
0010
0000
0000
0001
0000
0000
0010
0000
0000
1000
0000
0001
0000
,  // measure 48
2001
0000
0000
0000
3100
0000
1000
0000
0010
0000
0000
0010
0000
0000
1000
0000
,  // measure 49
0100
0010
0001
1000
0010
0000
0101
0000
,  // measure 50
2001
0000
0000
0000
3100
0000
1000
0000
0010
0000
0000
0010
0000
0000
0100
0000
,  // measure 51
0001
0000
0000
0101
0000
0000
0001
0000
1000
0000
0000
1100
0000
0000
1000
0000
,  // measure 52
0001
0000
0010
0001
1000
0000
1000
0001
,  // measure 53
0100
0000
0100
0001
1000
0000
0010
1000
,  // measure 54
0100
0010
0001
0000
0001
0100
0010
0000
,  // measure 55
1000
0000
0000
0001
0000
0000
1000
0000
0000
0001
0000
0000
0010
0000
0100
0000
,  // measure 56
1000
0000
0010
1000
0001
0000
0001
1000
,  // measure 57
0100
0000
0100
1000
0001
0000
0010
0001
,  // measure 58
0100
0000
0000
0010
0000
0000
1000
0000
0000
0100
0000
0000
0010
0000
0001
0000
,  // measure 59
0100
0000
0000
0010
0000
0000
1000
0000
0000
0100
0000
0000
1000
0000
0001
0000
,  // measure 60
0100
0000
0001
0100
0010
0000
0010
0100
,  // measure 61
1000
0000
1000
0100
0001
0000
0100
0001
,  // measure 62
1000
0100
0010
0000
0010
0001
1000
0000
,  // measure 63
0001
0000
0000
0100
0000
0000
0010
0000
0000
1000
0000
0000
0100
0000
0010
0000
,  // measure 64
0001
0100
0001
0100
0010
1000
0010
1000
,  // measure 65
0001
0010
0001
0010
0100
1000
0100
1000
,  // measure 66
0004
4000
0000
0000
0000
0000
0000
0000
0000
0000
0000
0000
0000
0000
0000
0000
,  // measure 67
0000
0000
0000
3003
,  // measure 68
0100
0000
0000
0000
0100
0000
0000
0000
0100
0000
0000
0100
0000
0000
0100
0000
,  // measure 69
1001
0000
0000
0000
0001
0000
0000
0010
0000
0100
0000
0000
0010
0000
0001
0000
,  // measure 70
1000
0000
0000
1000
0000
0001
0000
0100
0000
0000
0100
0000
0001
0000
1000
0000
,  // measure 71
0100
0000
0000
0100
0000
0000
0010
0000
0001
0000
1000
0000
0001
0000
0100
0000
,  // measure 72
0001
0000
0000
0010
0000
0000
1000
0000
0000
0010
0000
0000
0001
0000
0100
0000
,  // measure 73
0001
0000
0000
0000
1000
0000
0000
0010
0000
0100
0000
0000
0010
0000
1000
0000
,  // measure 74
0001
0000
0000
0001
0000
1000
0000
0100
0000
0000
0100
0000
1000
0000
0001
0000
,  // measure 75
0100
0000
0000
1000
0000
0000
0100
0000
0000
0001
0000
0000
0010
0000
0001
0000
,  // measure 76
0100
0000
0000
1000
0000
0000
0100
0000
0000
0001
0000
0000
0010
0000
0100
0000
,  // measure 77
1000
0000
0000
0000
0010
0000
0000
1000
0000
0001
0000
0000
1000
0000
0100
0000
,  // measure 78
0010
0000
0000
0010
0000
0100
0000
1000
0000
0000
1000
0000
0001
0000
0100
0000
,  // measure 79
0010
0000
0000
0010
0000
0000
1000
0000
0010
0000
0100
0000
0001
0000
1000
0000
,  // measure 80
0001
0000
0000
0100
0000
0000
1000
0000
0000
0100
0000
0000
0001
0000
1000
0000
,  // measure 81
0001
0000
0000
0000
0010
0000
0000
0001
0000
1000
0000
0000
0001
0000
0100
0000
,  // measure 82
0010
0000
0000
0010
0000
0100
0000
0001
0000
0000
0001
0000
1000
0000
0100
0000
,  // measure 83
0010
0001
1000
0010
0100
0001
0010
0100
,  // measure 84
2000
0000
0000
3020
0000
0000
0230
0000
0000
0302
0000
0000
0013
0000
0100
0000
,  // measure 85
2200
3300
0000
0000
;

//---------------dance-single - ----------------
#NOTES:
     dance-single:
     :
     Easy:
     8:
     0.397289,0.458446,0.169012,0.299613,0.000000,362.000000,340.000000,22.000000,39.000000,0.000000,0.000000,0.397289,0.458446,0.169012,0.299613,0.000000,362.000000,340.000000,22.000000,39.000000,0.000000,0.000000:
0000
0000
0000
0000
,
0000
0000
0000
0000
,
0000
0000
0000
0000
,
0000
0000
0000
0000
,
0001
0001
1000
1000
,
0001
0100
0010
1000
,
0001
0010
0100
1000
,
0020
0000
0000
0030
,
1000
1000
0100
0100
,
0010
0001
1000
0000
0001
0000
0001
0000
,
0100
0000
0010
0000
1000
0001
1000
0000
,
0001
0020
0030
0200
0300
0020
0030
0002
,
1003
1000
0010
0010
,
0100
0010
1000
0000
0001
0000
0001
0000
,
1000
0100
0001
0010
,
2000
0000
0000
3000
,
0001
0001
0100
0100
,
0010
1000
0001
0000
1000
0000
1000
0000
,
0100
0000
0010
0000
0001
1000
0001
0000
,
1000
0020
0030
0200
0300
0020
0030
2000
,
3001
0001
0010
0010
,
0100
0010
0001
0000
1000
0000
1000
0000
,
0001
0100
1000
0010
,
0002
0203
0320
2030
,
3001
0101
0000
0011
,
0000
1100
0000
1010
,
2002
0000
0000
3003
,
1000
0001
1000
0001
,
2001
0000
3100
0000
,
0010
0001
0400
0300
,
2001
0000
3010
0000
,
1000
0100
0010
0001
,
1002
0000
0103
0000
,
0010
1000
0400
0300
,
1002
0013
0100
1000
,
0001
0100
0010
1000
,
2001
0000
3010
1000
0100
0000
0100
0000
,
0010
0001
0010
0001
0100
0000
0010
0000
,
2001
0000
3010
1000
0100
0000
0100
0000
,
0001
0100
1000
0010
,
1002
0000
0013
0001
0100
0000
0100
0000
,
0010
1000
0010
1000
0100
0000
0010
0000
,
1002
0000
0013
0001
0100
0000
0100
0000
,
2020
0000
0000
0030
0000
0000
3000
0000
0022
0000
0000
0030
0000
0000
0003
0000
,
1002
0000
0103
0001
0010
0000
0010
0000
,
0100
1000
0100
1000
0010
0000
0100
0000
,
1002
0000
0103
0001
0010
0000
0010
0000
,
1000
0010
0001
0100
,
2001
0000
3100
1000
0010
0000
0010
0000
,
0100
0001
0100
0001
0010
0000
0100
0000
,
2001
0000
3100
1000
0010
0000
0010
0000
,
0202
0000
0000
0300
0000
0000
0003
0000
2200
0000
0000
0300
0000
0000
3000
0000
,
0001
0001
0100
0100
,
1000
1000
0100
0100
,
0001
0001
1000
0100
,
0010
0000
0010
0000
0010
0000
0100
0010
,
0001
0001
0100
0100
,
1000
1000
0100
0100
,
0001
0010
1000
0100
,
0001
0000
0001
0000
0001
1000
0001
0000
,
1000
0000
1000
0000
0100
0010
0100
0000
,
0001
0000
0001
0000
0100
0010
0100
0000
,
1000
0000
1000
0000
0001
0100
0010
0000
,
1000
0000
1000
0000
1000
0000
0100
0010
,
0001
0100
1000
0100
,
0001
0100
1000
0100
,
0220
0000
0000
0000
,
0000
0000
0000
0330
,
1000
0001
1000
0001
,
0010
0000
0010
0000
0001
0100
0010
0000
,
1000
0100
0010
0000
0100
0000
0100
0000
,
1000
0001
0100
0000
0100
0001
1000
0000
,
0100
0010
0001
0100
,
0010
0000
0010
0000
1000
0100
0010
0000
,
0001
0100
0010
0000
0100
0000
0001
0000
,
1000
0000
0100
0000
0010
0000
0100
1000
,
0001
0000
0100
0000
0010
0000
0100
0001
,
1000
0000
1000
0000
0010
1000
0100
0000
,
0010
0001
0100
0000
1000
0000
1000
0000
,
0100
0001
1000
0000
1000
0001
0010
0000
,
0100
1000
0010
0100
,
0001
0000
0001
0000
0010
0001
0100
0000
,
0010
1000
0100
0000
0001
0000
0100
0000
,
1000
0000
0010
0000
0001
0000
0010
0100
,
0010
0000
1000
0000
0100
0000
0010
0001
,
2000
3000
0000
0000
;

//---------------dance-single - ----------------
#NOTES:
     dance-single:
     :
     Beginner:
     5:
     0.243641,0.294715,0.092189,0.115236,0.000000,222.000000,210.000000,12.000000,15.000000,0.000000,0.000000,0.243641,0.294715,0.092189,0.115236,0.000000,222.000000,210.000000,12.000000,15.000000,0.000000,0.000000:
0000
0000
0000
0000
,
0000
0000
0000
0000
,
0000
0000
0000
0000
,
0000
0000
0000
0000
,
1000
0000
0001
0000
,
1000
0000
0001
0000
,
0010
0100
0010
0100
,
0020
0000
0000
0030
,
0001
0100
0001
0000
,
1000
0010
1000
0000
,
0100
1000
0100
0000
,
0010
0010
0001
0001
,
1000
0100
1000
0000
,
0001
0010
0001
0000
,
0100
0001
0100
0000
,
0020
0000
0000
0030
,
1000
0010
0001
0000
,
0010
0001
0100
0000
,
0001
0100
1000
0000
,
0010
0010
1000
1000
,
0001
0010
1000
0000
,
0010
1000
0100
0000
,
1000
0100
0001
0000
,
0020
0000
0000
0030
,
0000
0001
0000
0001
,
0000
1000
0000
1000
,
0220
0000
0000
0000
,
0330
0000
0000
0000
,
2001
0000
3100
0000
,
0010
0100
0200
0300
,
2001
0000
3010
0000
,
1000
1000
0001
0001
,
1002
0000
0103
0000
,
0010
0100
0200
0300
,
1002
0000
0013
0000
,
0001
0001
1000
1000
,
0001
0000
0100
0000
,
1000
0100
0001
0000
,
1000
0000
0100
0000
,
0010
0010
0001
0001
,
1000
0000
0010
0000
,
0001
0010
1000
0000
,
0001
0000
0010
0000
,
1001
0000
0110
0000
,
1001
0000
1000
0000
,
0010
0001
0100
0000
,
1000
0000
0001
0000
,
0100
0100
0010
0010
,
1000
0000
0001
0000
,
0010
1000
0100
0000
,
0001
0000
1000
0000
,
1001
0000
0110
0000
,
1001
0000
1000
0000
,
0100
0000
0100
0000
,
0010
0000
0010
0000
,
0001
1000
0001
0000
,
0001
0000
0001
0000
,
0100
0000
0100
0000
,
0010
0000
1000
0000
,
0001
0000
0100
0000
,
0010
1000
0010
0000
,
1000
0001
1000
0000
,
0100
0010
0100
0000
,
1000
1000
1000
0000
,
0001
0100
0001
0100
,
0010
1000
0010
2000
,
0002
0000
0000
0000
,
0000
0000
0000
0000
,
3003
0000
0000
0000
,
1000
0100
0001
0000
,
0001
0100
1000
0000
,
0010
1000
0100
0000
,
0010
0010
0010
0000
,
0001
0100
1000
0000
,
1000
0100
0001
0000
,
0010
0100
1000
0000
,
0010
0100
0001
0000
,
1000
0010
0001
0000
,
0001
0100
1000
0000
,
0010
1000
0100
0000
,
0010
0010
0010
0000
,
0001
0010
1000
0000
,
1000
0100
0001
0000
,
0010
0100
1000
0000
,
0010
0100
0001
1000
,
2002
3003
0000
0000
;
