#TITLE:刃図羅;
#SUBTITLE:;
#ARTIST:猫叉Master vs HuΣeR;
#TITLETRANSLIT:BUZRA;
#SUBTITLETRANSLIT:;
#ARTISTTRANSLIT:Nekomata Master vs HuΣeR;
#GENRE:World Electronica;
#CREDIT:;
#BANNER:BUZRA.png;
#BACKGROUND:BUZRA-bg.png;
#LYRICSPATH:;
#CDTITLE:cdtitle.png;
#MUSIC:BUZRA.ogg;
#OFFSET:-1.268830;
#SAMPLESTART:40.541557;
#SAMPLELENGTH:11.636364;
#SELECTABLE:YES;
#BPMS:0.000000=165.000000
;
#STOPS:
;
#BGCHANGES:;
#KEYSOUNDS:;
#ATTACKS:;

//---------------dance-single - ----------------
#NOTES:
     dance-single:
     :
     Challenge:
     17:
     0.845664,1.091579,0.267684,0.382406,0.956016,774.000000,739.000000,35.000000,50.000000,0.000000,0.000000,0.845664,1.091579,0.267684,0.382406,0.956016,774.000000,739.000000,35.000000,50.000000,0.000000,0.000000:
0000
0000
0000
0000
,
0000
0000
0000
0000
,
0000
0000
0000
0000
,
0000
0000
0000
0000
,
2001
0000
0200
3000
,
0020
0000
0300
0000
0031
0010
0100
1000
,
0002
0000
0000
0100
0200
0000
0003
0000
,
0020
0000
0000
0000
0300
0000
0000
0000
1030
0010
0100
0010
0100
0001
1000
0100
,
0020
0000
0001
0001
0230
0000
1000
1000
,
0320
0000
0001
0001
0130
1000
0010
1000
,
0200
0000
0301
0100
2000
0000
3001
0100
,
2000
0000
3100
0001
1000
0100
0010
0001
,
0200
0000
0001
0001
0320
0000
1000
1000
,
0230
0000
0001
0001
0310
1000
0100
0001
,
2000
0000
3010
0001
2000
0000
3100
0010
,
0002
0000
0000
0000
0103
0000
0010
0000
0110
0000
0000
0010
1000
0000
0100
0000
,
0220
0000
0000
0330
,
0001
0010
0001
0000
0100
0000
0010
0000
1000
0010
1000
0000
0100
0000
0010
0000
,
0001
0010
0001
0000
0100
0000
0010
0000
1000
0010
1000
0000
0010
0100
0001
1000
,
0100
0000
0010
0001
1000
0000
1000
0001
0100
0000
0100
0001
1000
0000
1000
0001
,
0010
0000
0010
0100
1000
0000
1000
0010
0100
0000
0100
0001
0010
0000
0001
0100
,
0010
0000
0010
1000
0001
0000
0001
1000
0100
0000
0100
1000
0001
0000
0001
1000
,
0010
0000
0010
0100
0001
1000
0100
0000
0010
0001
0000
0100
0010
0100
0010
1000
,
0001
0000
1000
0100
0010
0000
0010
0100
0001
0000
0001
0100
0010
0000
0010
0100
,
1000
0000
1000
0010
0100
0000
0100
0010
0001
0000
0001
0010
0100
0000
0100
0010
,
1000
0000
0010
1000
0100
0010
0100
0010
0001
0000
0010
0001
0100
0010
0100
0010
,
1000
0000
0000
1010
0000
0000
0110
0000
0000
1001
0000
0001
0010
0100
0010
0100
,
1000
0000
0000
1000
0010
0000
0000
0010
0100
0000
0010
1000
0100
0000
0010
0000
,
1000
0000
0000
0000
0000
0000
0010
0000
0000
0000
0000
0000
0100
0000
0000
0000
0000
0000
1000
0000
0001
0000
1000
0000
0001
0000
0000
0000
0000
0000
0100
0000
0000
0010
0000
0000
1000
0000
0000
0000
0000
0000
0001
0000
0000
0000
0000
0000
,
0001
0000
0000
0001
0010
0000
0000
0010
0100
0000
0010
0001
0100
0000
0010
0000
,
0001
0000
0000
0010
0000
0000
1000
0010
1000
0010
0000
0000
0100
0000
0000
0001
0000
0000
1001
0000
0000
0000
0000
0000
,
1000
0000
0000
1000
0100
0000
0000
0100
0010
0000
0100
1000
0010
0000
0100
0000
,
1000
0000
0000
0000
0000
0000
0100
0000
0000
0000
0000
0000
0010
0000
0000
0000
0000
0000
0100
0000
0001
0000
0100
0000
0001
0000
0000
0000
0000
0000
0100
0000
0000
0010
0000
0000
1000
0000
0000
0000
0000
0000
0001
0000
0000
0000
0000
0000
,
0001
0000
0000
0001
0010
0000
0001
0000
1000
0000
0000
1000
0010
0000
1000
0000
,
0001
0000
0010
0001
0100
0000
0010
1000
0100
0000
0010
0000
0110
0000
0000
0000
,
1000
0000
0000
1000
0010
0000
0000
0010
0001
0000
0010
1000
0001
0000
1000
0000
,
0100
0000
0000
0000
0000
0000
0001
0000
0000
0000
0000
0000
0100
0000
0000
0000
0000
0000
0010
0000
0100
0000
1000
0000
0001
0000
0000
0000
0000
0000
0100
0000
0000
0010
0000
0000
1000
0000
0000
0000
0000
0000
0001
0000
0000
0000
0000
0000
,
0001
0000
0000
0001
0010
0000
0000
0010
1000
0000
0010
0001
1000
0000
0001
0000
,
0100
0000
0000
1000
0000
0000
0100
0010
0100
0001
0000
0000
0010
0000
0000
0001
0000
0000
1001
0000
0000
0000
0000
0000
,
1000
0000
0000
1000
0100
0000
0000
0100
0001
0000
0100
1000
0001
0000
1000
0000
,
0010
0000
0000
0000
0000
0000
0001
0000
0000
0000
0000
0000
0010
0000
0000
0000
0000
0000
0100
0000
0010
0000
1000
0000
0001
0000
0000
0000
0000
0000
1000
0000
0000
0100
0000
0000
0010
0000
0000
0000
0000
0000
0001
0000
0000
0000
0000
0000
,
0001
0000
0000
0001
0100
0000
0010
0000
1000
0000
0000
1000
0100
0000
0010
0000
,
0011
0000
0000
0000
1010
0000
0100
0001
0100
0000
0000
0000
0001
1000
0010
0100
,
0002
0000
0000
1003
0010
1000
0200
0000
0310
0001
0000
0000
,
0101
0000
0000
1100
0000
0000
1010
0000
0000
0011
0000
0001
,
2000
0000
0000
3001
0010
0001
0200
0000
0310
1000
0000
0000
,
1100
0011
0101
1010
,
2001
0000
0000
0000
0000
0000
3100
0010
0100
0000
0010
0000
0001
0000
0000
0000
0001
0000
0100
0010
0100
0000
0010
0000
,
1000
0000
0000
0000
1000
0000
0100
0010
0100
0000
0010
0000
1001
0000
0000
0000
0000
0000
0110
0000
0000
0000
0000
0000
,
2002
0000
3000
0000
,
0200
0000
0003
0000
,
2000
0000
0300
0000
,
0020
0000
3000
0000
,
0031
0000
0010
0001
1000
0000
0010
0100
0001
0000
0010
0100
1000
0000
0001
0000
,
0100
0000
0010
1000
0001
0000
0100
0001
0010
0000
0100
1000
0010
0000
0100
0000
,
0001
1000
0001
0000
0010
0001
0000
0010
0001
0000
1000
0010
0000
1000
0010
1000
,
0001
0010
0100
0000
0010
0100
0000
1000
0001
0000
0100
0010
0000
0100
0010
0100
,
0001
1000
0100
0000
0010
0001
0000
0001
0100
0000
0010
1000
0000
1000
0100
0010
,
0001
0100
0010
0000
1000
0100
0000
0010
0001
0100
0010
1000
0100
0000
0010
0000
,
0120
0000
0000
0000
0000
0000
0032
0000
0000
0000
0000
0000
0003
0000
0000
0010
0000
0000
0001
1000
0001
1000
0000
0000
,
0002
0000
0000
0000
0000
0000
0000
0000
0000
0000
0000
0000
0003
0000
0000
0000
0000
0000
0100
0000
0000
0000
0000
0000
0010
0000
0000
0000
0000
0000
0100
0000
0000
0001
0000
0000
0100
0000
0000
0000
0000
0000
0001
0000
1000
0000
0001
0000
,
0020
0000
0000
0000
0000
0000
0030
0000
0000
0100
0000
0000
0010
0000
0000
0001
1000
0001
0100
0000
0000
0010
0000
0000
,
0200
0000
0000
0010
0310
0100
0110
0000
,
1010
0000
0000
0000
0000
0000
2002
0000
0000
0000
0000
0000
3003
0000
0000
0001
0000
0000
1000
0100
1000
0100
0000
0000
,
0020
0000
0000
0000
0130
0000
1000
0000
0010
0000
0100
0001
0100
0000
0001
0000
,
2001
0000
0000
0000
3000
0000
0100
1000
0002
0000
0000
0000
0003
0000
0100
0001
,
2000
0000
0001
0000
3001
0000
0001
0000
1000
0001
1000
0001
1000
0100
0010
0001
,
0100
0000
0000
0000
0000
0000
0000
0000
0000
0100
0000
0000
1000
0000
0000
0000
0000
0000
0000
0000
0000
1000
0000
0000
0001
0000
0000
0000
0000
0000
0010
0000
0000
0000
0000
0000
1000
0000
0010
0000
1000
0000
0100
0000
0000
0000
0000
0000
,
0010
0000
0000
0010
0100
0000
0001
0000
0100
0000
0001
0100
1000
0000
0001
0000
,
2000
0000
0000
0000
0000
0000
0000
0000
0000
3001
0000
0000
0100
0000
0000
0000
0000
0000
0001
0000
0000
0000
0000
0000
0010
0000
0000
0000
0000
0000
0100
0000
0010
0000
0001
0000
1000
0000
0000
0000
0000
0000
0001
0000
0000
0000
0000
0000
,
0200
0000
0000
0310
1000
0000
0100
0010
0001
0000
0100
0010
1000
0000
0001
1000
,
0100
0000
0000
0000
0000
0000
0000
0000
0000
0100
0000
0000
0001
0000
0000
0000
0000
0000
0000
0000
0000
0001
0000
0000
1000
0000
0000
0000
0000
0000
0010
0000
0000
0000
0000
0000
0001
0000
0010
0000
0001
0000
0100
0000
0000
0000
0000
0000
,
0010
0000
0000
0000
0000
0000
0000
0000
0000
0010
0000
0000
0100
0000
0000
0000
0000
0000
1000
0000
0000
0000
0000
0000
0100
0000
0000
0000
0000
0000
0001
0000
1000
0000
0001
0000
1000
0000
0000
0000
0000
0000
0100
0000
0000
0000
0000
0000
,
0020
0000
0000
0130
0010
0000
0100
1000
0020
0000
0000
0130
0010
0000
0100
0001
,
0020
0000
0000
0130
0010
0000
0110
0000
0000
1100
0000
0000
1001
0000
0001
0100
,
0020
0000
0000
0000
0030
0000
1000
0100
0020
0000
0000
0000
0030
0000
0001
1000
,
0001
0000
0000
0110
0000
0000
1001
0000
0000
0110
0000
0000
0001
0100
0010
1000
,
0001
0010
0001
0010
0100
0010
0100
0010
0001
0010
0001
0010
0001
1000
0001
1000
,
0001
0010
0100
1000
0001
1000
0100
0010
0001
1000
0001
1000
0100
0010
0001
1000
,
0001
0100
0001
0100
0010
0100
0010
0100
0010
1000
0010
1000
0010
0100
0010
0100
,
0001
1000
0010
0100
0010
1000
0001
1000
0010
0100
0010
0100
0001
1000
0001
0000
,
1000
0100
1000
0100
0010
0001
0010
0001
0100
0001
0100
0001
1000
0010
1000
0010
,
1000
0001
0010
0001
1000
0010
1000
0001
0010
0100
0010
0100
1000
0001
0100
0010
,
1000
0100
1000
0100
1000
0010
1000
0010
0100
0001
0100
0001
0010
0001
0010
0001
,
1000
0010
0100
0001
0100
0010
1000
0001
1000
0100
0010
0001
0100
0010
1000
0100
,
0010
0220
0000
0000
,
0000
0000
0330
0000
;

//---------------dance-single - ----------------
#NOTES:
     dance-single:
     :
     Hard:
     13:
     0.603109,0.661563,0.260036,0.581257,0.302101,552.000000,518.000000,34.000000,76.000000,0.000000,0.000000,0.603109,0.661563,0.260036,0.581257,0.302101,552.000000,518.000000,34.000000,76.000000,0.000000,0.000000:
// measure 0
0000
0000
0000
0000
,  // measure 1
0000
0000
0000
0000
,  // measure 2
0000
0000
0000
0000
,  // measure 3
0000
0000
0000
0000
,  // measure 4
2001
0000
0200
3000
,  // measure 5
0020
0000
0300
0000
0031
0010
0001
0010
,  // measure 6
0002
0000
0000
0100
0200
0000
0003
0000
,  // measure 7
0020
0000
0300
0000
1030
0010
0100
0001
,  // measure 8
2000
0100
3002
0010
,  // measure 9
2003
0000
0100
0000
3001
0010
0100
1000
,  // measure 10
0020
0000
0130
0001
0020
0000
0130
1000
,  // measure 11
0020
0000
0130
0000
0001
1000
0100
1000
,  // measure 12
0002
0010
2003
0100
,  // measure 13
3002
0000
0010
0000
1003
0010
0100
0001
,  // measure 14
0020
0000
1030
0010
0002
0000
1003
0010
,  // measure 15
0002
0000
0000
0000
0013
0000
1000
0000
0100
0000
0000
0100
0010
0000
0100
0000
,  // measure 16
2002
0000
0000
3003
,  // measure 17
0001
0100
0001
0000
0100
1000
0100
0000
,  // measure 18
1000
0010
1000
0000
0010
0001
0100
0010
,  // measure 19
1000
0000
0000
1000
0100
0000
0000
0100
0010
0000
0000
0010
0100
0000
0000
0100
,  // measure 20
1000
0000
0000
1000
0010
0000
0000
0010
0100
0000
0000
0100
0001
0000
0000
0001
,  // measure 21
0010
0000
0000
0010
0001
0000
0000
0001
0100
0000
0000
0100
0010
0000
0000
0010
,  // measure 22
1000
0000
0000
1000
0100
0000
0010
0000
0001
1000
0000
1000
0001
0000
0100
0000
,  // measure 23
0010
0000
0000
0010
1000
0000
0000
1000
0100
0000
0000
0100
0001
0000
0000
0001
,  // measure 24
0100
0000
0000
0100
1000
0000
0000
1000
0010
0000
0000
0010
0001
0000
0000
0001
,  // measure 25
0010
0000
0000
0010
1000
0000
0100
0000
0010
0000
0000
0010
0001
0000
0100
0000
,  // measure 26
0001
0000
0000
0100
0000
0000
1000
0000
0000
0100
0000
0000
0001
0000
0001
0000
,  // measure 27
2000
0000
3200
0000
0310
0100
0100
0010
,  // measure 28
0001
0000
0100
0000
0010
0000
1000
0100
1000
0000
0001
0100
0001
0000
0010
0000
,  // measure 29
0002
0000
0203
0000
0310
0100
0100
0010
,  // measure 30
1000
0000
0100
0000
0010
0001
0010
0000
0100
0000
1000
0000
1001
0000
0000
0000
,  // measure 31
2000
0000
3020
0000
0130
0010
0010
0100
,  // measure 32
0001
0000
1000
0000
0100
0000
0010
0100
0020
0000
0000
0000
0130
0000
1000
0000
,  // measure 33
0002
0000
0103
1000
0002
0000
0023
0000
,  // measure 34
2030
0000
0000
0000
3100
0000
1000
0100
1000
0000
0100
0000
0011
0000
0000
0000
,  // measure 35
0002
0000
0203
0000
1300
0100
0100
0001
,  // measure 36
0010
0000
0100
0000
0010
0000
0001
0100
0001
0000
1000
0100
1000
0000
0010
0000
,  // measure 37
2000
0000
3200
0000
0301
0100
0100
1000
,  // measure 38
0001
0000
0100
0000
0010
1000
0010
0000
0100
0000
0001
0000
1001
0000
0000
0000
,  // measure 39
0002
0000
0023
0000
1030
0010
0010
0001
,  // measure 40
1000
0000
0001
0000
0100
0000
0010
0100
0020
0000
0000
0000
0130
0000
0001
0000
,  // measure 41
1000
0000
1100
0010
0001
0000
0101
0010
,  // measure 42
2000
0000
0000
0000
0000
0000
3001
1000
0001
0000
0000
0000
0110
0000
0000
0000
,  // measure 43
2001
0000
0000
0000
3100
0010
0002
0000
0000
0013
0000
0000
,  // measure 44
0011
0101
1100
1010
,  // measure 45
1002
0000
0000
0000
0103
0010
2000
0000
0000
3010
0000
0000
,  // measure 46
1010
0101
0011
1100
,  // measure 47
1002
0000
0000
0103
0010
1000
0100
0000
0000
0100
0010
0001
,  // measure 48
0100
0000
0000
0100
0010
1000
0100
0000
0000
0110
0000
0000
,  // measure 49
2002
0000
3000
0000
,  // measure 50
0200
0000
0003
0000
,  // measure 51
0020
0000
0300
0000
,  // measure 52
2000
0000
0030
0000
,  // measure 53
3001
0100
0010
1000
0100
0010
0001
0000
,  // measure 54
1000
0100
0001
1000
0010
0001
1000
0000
,  // measure 55
0001
0000
0100
0000
0010
0000
0000
0000
0100
0000
0000
0100
0000
0000
0001
0000
,  // measure 56
1000
0000
0100
0000
0010
0000
0000
0000
0100
0000
0000
0100
0000
0000
1000
0000
,  // measure 57
0001
0000
0100
0000
0001
1000
0000
0001
1000
0000
0100
0010
0000
0100
0010
0000
,  // measure 58
0001
0000
0100
0000
0010
1000
0000
0100
0010
0000
0001
0000
0100
0000
0010
0000
,  // measure 59
2000
0000
0000
0000
3200
0000
0000
0000
0300
0000
0010
0000
0100
0010
0100
0000
,  // measure 60
2000
0000
0000
0000
3000
0000
0100
0000
0010
0000
0001
1000
0001
0000
0100
0010
,  // measure 61
0200
0000
0000
0000
0300
0000
0010
0000
0100
0000
0001
1000
0001
0000
1000
0000
,  // measure 62
0200
0000
0000
0010
0310
0100
0110
0000
,  // measure 63
1002
0000
0000
0000
0203
0000
0000
0000
0310
0000
0100
0000
0001
1000
0001
0000
,  // measure 64
0020
0000
0000
0000
0130
0000
1000
0000
0010
0000
0100
0001
0100
0000
0001
0000
,  // measure 65
2001
0000
0000
0000
3000
0000
0001
0010
0002
0000
0000
0000
0003
0000
1000
0010
,  // measure 66
2000
0001
3001
1000
1002
0000
1003
0100
,  // measure 67
0002
0000
0000
0000
2003
0000
0000
0000
3001
0000
0100
0000
1000
0001
1000
0000
,  // measure 68
0020
0000
0000
0000
0031
0000
0010
0000
1000
0000
0010
1000
0001
0000
1000
0000
,  // measure 69
0200
0000
0000
0000
0310
0000
0001
0000
0010
0000
0100
1000
0001
0000
0100
0000
,  // measure 70
0110
0000
1000
0100
0110
0000
0001
0100
,  // measure 71
2000
0000
0000
0000
3002
0000
0000
0000
1003
0000
0100
0000
0001
1000
0001
0000
,  // measure 72
0020
0000
0000
0000
1030
0000
0010
0000
0001
0000
0010
0001
1000
0000
0001
0000
,  // measure 73
0200
0000
0000
0000
0301
0000
0001
1000
0200
0000
0000
0000
1300
0000
1000
0001
,  // measure 74
0200
0000
0000
0301
0000
0000
0110
0000
0000
1001
0000
0000
0001
0000
0010
0100
,  // measure 75
0020
0000
0000
0100
0200
0000
0330
0000
,  // measure 76
1100
0000
0000
0011
0000
0000
0101
0000
0000
1010
0000
0000
1000
0001
1000
0000
,  // measure 77
0001
0100
0010
1000
0100
1000
0100
0010
,  // measure 78
0001
0100
1000
0100
0001
0100
0010
1000
,  // measure 79
0001
0010
0100
1000
0010
0100
0010
0100
,  // measure 80
0001
0010
1000
0010
0001
0100
0010
0000
,  // measure 81
1000
0010
0001
0010
0100
0001
0010
0001
,  // measure 82
0100
1000
0100
0010
1000
0100
0010
0001
,  // measure 83
1000
0100
0001
0100
0010
0001
1000
0010
,  // measure 84
0001
0000
0010
0000
1000
0000
0100
0000
0002
0000
0000
0000
0103
0010
0100
0010
,  // measure 85
0100
2200
0000
0000
,  // measure 86
0000
0000
3300
0000
;

//---------------dance-single - ----------------
#NOTES:
     dance-single:
     :
     Medium:
     10:
     0.440313,0.496172,0.252388,0.734220,0.000000,403.000000,370.000000,33.000000,96.000000,0.000000,0.000000,0.440313,0.496172,0.252388,0.734220,0.000000,403.000000,370.000000,33.000000,96.000000,0.000000,0.000000:
// measure 0
0000
0000
0000
0000
,  // measure 1
0000
0000
0000
0000
,  // measure 2
0000
0000
0000
0000
,  // measure 3
0000
0000
0000
0000
,  // measure 4
2001
0000
0200
3000
,  // measure 5
0020
0300
0031
0010
,  // measure 6
0002
0000
0200
0003
,  // measure 7
0020
0300
1030
0001
,  // measure 8
2000
0100
3200
0010
,  // measure 9
0320
0001
0031
0100
,  // measure 10
0020
1030
0002
1003
,  // measure 11
0200
1300
0100
0010
,  // measure 12
0002
0100
0203
0010
,  // measure 13
0320
1000
1030
0100
,  // measure 14
0020
0031
0200
0310
,  // measure 15
2000
3100
0011
1100
,  // measure 16
2002
0000
0000
3003
,  // measure 17
0002
0100
2003
0100
,  // measure 18
3002
0100
1003
1001
,  // measure 19
1000
0000
0001
0010
0001
0010
0001
0000
,  // measure 20
1000
0000
0001
0100
0010
0100
0001
0000
,  // measure 21
1000
0000
0001
0010
0001
0010
0001
0000
,  // measure 22
0010
0100
1000
0000
1000
0010
0100
0000
,  // measure 23
0001
0000
1000
0010
1000
0010
1000
0000
,  // measure 24
0001
0000
1000
0100
0010
0100
1000
0000
,  // measure 25
0001
0100
0001
0000
1000
0100
1000
0000
,  // measure 26
2002
0000
0000
0000
3003
0000
1000
0001
,  // measure 27
2000
0000
3020
0000
2030
0000
3010
0100
,  // measure 28
0001
0000
0001
1000
0100
0000
0010
0000
,  // measure 29
0002
0000
0023
0000
0032
0000
0013
0100
,  // measure 30
1000
0000
1000
0001
0100
0000
0110
0000
,  // measure 31
2000
0000
3002
0000
2003
0000
3001
0010
,  // measure 32
0100
0000
1000
0010
0100
0000
0001
1000
,  // measure 33
0002
0000
0023
0230
,  // measure 34
2300
0000
0000
0010
3010
0000
1001
0000
,  // measure 35
0002
0000
0203
0000
2300
0000
3100
0010
,  // measure 36
0100
0000
0100
0001
0010
0000
0100
0000
,  // measure 37
2000
0000
3200
0000
0302
0000
0103
0010
,  // measure 38
0100
0000
0100
1000
0010
0000
1001
0000
,  // measure 39
0002
0000
2003
0000
3002
0000
1003
0100
,  // measure 40
0010
0000
0001
0100
0010
0000
1000
0001
,  // measure 41
1000
0110
0001
0110
,  // measure 42
1001
0000
0000
1000
0001
0000
0110
0000
,  // measure 43
2001
0000
3200
0320
,  // measure 44
0032
0203
0302
0023
,  // measure 45
0032
0000
0203
0320
,  // measure 46
2030
3200
2300
3020
,  // measure 47
2030
3100
0011
0100
,  // measure 48
1010
0100
0011
1001
,  // measure 49
0202
0000
0303
0000
,  // measure 50
0220
0000
0330
0000
,  // measure 51
2020
0000
3030
0000
,  // measure 52
2002
0000
3003
0000
,  // measure 53
1000
0100
0010
0001
,  // measure 54
1000
0100
0001
0010
,  // measure 55
1000
0100
1000
0000
0010
0000
0100
0000
,  // measure 56
0001
0100
0001
0000
0010
0000
0100
0000
,  // measure 57
1000
0100
1000
0000
0001
0100
0001
0000
,  // measure 58
1000
0100
0010
0001
0100
0000
0010
1000
,  // measure 59
0020
0000
2030
0000
3000
0100
0010
0000
,  // measure 60
0002
0000
0003
0010
0001
0000
0100
0010
,  // measure 61
0200
0000
0300
0001
1000
0000
0100
0010
,  // measure 62
0200
0000
0000
0010
0310
0000
0110
0000
,  // measure 63
1002
0000
0023
0000
0030
0100
1000
0000
,  // measure 64
1001
0000
0010
1000
0100
0000
0010
0001
,  // measure 65
0200
0000
0000
0301
0200
0000
0000
0310
,  // measure 66
1001
0000
1000
0010
0100
0001
0010
0000
,  // measure 67
0002
0000
0023
0000
0031
0010
1000
0010
,  // measure 68
0002
0000
0013
0001
0100
0001
0100
0000
,  // measure 69
0120
0000
1030
0010
0100
0001
0010
0000
,  // measure 70
0210
1300
0120
0031
,  // measure 71
2000
0000
3020
0000
1030
0010
0001
0010
,  // measure 72
2000
0000
3010
1000
0100
1000
0100
0000
,  // measure 73
0020
0000
0130
1000
0020
0000
0130
0001
,  // measure 74
0020
0000
0130
0000
0110
0000
0010
0100
,  // measure 75
2001
0000
0000
0001
3002
0000
0000
1000
,  // measure 76
2000
0000
3003
1001
,  // measure 77
0001
0100
0001
0000
0100
0010
0100
0000
,  // measure 78
0010
1000
0010
0000
0100
0010
0100
0000
,  // measure 79
0001
0010
0001
0000
0010
0100
0010
0000
,  // measure 80
0100
1000
0100
0000
0010
0001
1000
0000
,  // measure 81
0001
0100
0010
0000
1000
0100
0010
0000
,  // measure 82
0100
1000
0010
0000
0100
0001
0010
0000
,  // measure 83
0001
1000
0001
0000
0100
0010
0100
0000
,  // measure 84
0010
1000
0100
0010
0001
0000
0100
0010
,  // measure 85
1000
2020
0000
0000
,  // measure 86
0000
0000
3030
0000
;

//---------------dance-single - ----------------
#NOTES:
     dance-single:
     :
     Easy:
     6:
     0.296092,0.330781,0.122370,0.435943,0.000000,271.000000,255.000000,16.000000,57.000000,0.000000,0.000000,0.296092,0.330781,0.122370,0.435943,0.000000,271.000000,255.000000,16.000000,57.000000,0.000000,0.000000:
// measure 0
0000
0000
0000
0000
,  // measure 1
0000
0000
0000
0000
,  // measure 2
0000
0000
0000
0000
,  // measure 3
0000
0000
0000
0000
,  // measure 4
1000
0000
0100
0000
,  // measure 5
0010
0000
0000
0001
,  // measure 6
0001
0000
0100
0000
,  // measure 7
0010
0000
1000
0010
,  // measure 8
2000
0000
3200
0000
,  // measure 9
0320
0000
0130
0100
,  // measure 10
2000
0000
3020
0000
,  // measure 11
0230
0000
0301
1000
,  // measure 12
0002
0000
0203
0000
,  // measure 13
0320
0000
0130
0100
,  // measure 14
0002
0000
0023
0000
,  // measure 15
0230
0000
1300
0001
,  // measure 16
2002
0000
0000
3003
,  // measure 17
0002
0000
2003
0000
,  // measure 18
3002
2003
3001
1001
,  // measure 19
1000
1000
0100
1000
,  // measure 20
0100
0100
0010
0100
,  // measure 21
0010
0010
0001
0010
,  // measure 22
0001
0100
0010
1000
,  // measure 23
0001
0001
0100
0001
,  // measure 24
0100
0100
0010
0100
,  // measure 25
0010
0010
1000
0010
,  // measure 26
2002
0000
0000
3003
,  // measure 27
1000
0010
0010
0000
,  // measure 28
0010
1000
0010
0100
,  // measure 29
0001
0010
0010
0000
,  // measure 30
0010
0001
0010
1001
,  // measure 31
0001
1000
1000
0000
,  // measure 32
1000
0001
0100
0010
,  // measure 33
2000
0000
3200
0320
,  // measure 34
0032
0000
1003
1001
,  // measure 35
0001
0100
0100
0000
,  // measure 36
0100
0001
0010
0001
,  // measure 37
1000
0100
0100
0000
,  // measure 38
0100
1000
0010
1001
,  // measure 39
1000
0001
0001
0000
,  // measure 40
0001
1000
0100
0010
,  // measure 41
0002
0203
0320
2030
,  // measure 42
3002
0000
0103
0100
,  // measure 43
2001
0000
3200
0000
,  // measure 44
0310
0001
1000
0001
,  // measure 45
0020
0000
0032
0000
,  // measure 46
0103
0001
1000
0001
,  // measure 47
0200
0000
0310
0010
,  // measure 48
1000
1000
0100
0100
,  // measure 49
0022
0000
0033
0000
,  // measure 50
2002
0000
3003
0000
,  // measure 51
0202
0000
0303
0000
,  // measure 52
0220
0000
0330
0000
,  // measure 53
1000
1000
0010
0010
,  // measure 54
0100
0100
0001
0001
,  // measure 55
1000
1000
0100
0000
,  // measure 56
0001
0001
0100
0000
,  // measure 57
1000
1000
0100
0100
,  // measure 58
0001
0001
0100
1000
,  // measure 59
0001
0100
0000
0100
,  // measure 60
0001
0000
0010
0001
,  // measure 61
0100
0000
0010
1000
,  // measure 62
0100
0000
0100
0010
,  // measure 63
0110
0000
0001
0010
,  // measure 64
0001
0000
1000
0010
,  // measure 65
2000
3000
0002
0003
,  // measure 66
2000
3001
0002
1003
,  // measure 67
0001
0001
0010
0001
,  // measure 68
0001
0100
0010
1000
,  // measure 69
0200
0300
0010
0001
,  // measure 70
0200
0300
0100
0001
,  // measure 71
1000
1000
0010
1000
,  // measure 72
1000
0100
0010
0001
,  // measure 73
0200
0310
0200
0310
,  // measure 74
2002
3003
0100
0010
,  // measure 75
2001
0000
3002
0000
,  // measure 76
2000
0000
3003
1001
,  // measure 77
0001
0010
0001
0010
,  // measure 78
0100
1000
0100
1000
,  // measure 79
0001
0100
0001
0100
,  // measure 80
0010
1000
0010
1000
,  // measure 81
0001
0010
0100
1000
,  // measure 82
0001
0100
0010
1000
,  // measure 83
0100
0010
0001
0100
,  // measure 84
0010
1000
0001
0010
,  // measure 85
0000
0220
0000
0000
,  // measure 86
0000
0000
0330
0000
;

//---------------dance-single - ----------------
#NOTES:
     dance-single:
     :
     Beginner:
     2:
     0.166074,0.264625,0.076481,0.114722,0.000000,152.000000,142.000000,10.000000,15.000000,0.000000,0.000000,0.166074,0.264625,0.076481,0.114722,0.000000,152.000000,142.000000,10.000000,15.000000,0.000000,0.000000:
// measure 0
0000
0000
0000
0000
,  // measure 1
0000
0000
0000
0000
,  // measure 2
0000
0000
0000
0000
,  // measure 3
0000
0000
0000
0000
,  // measure 4
1000
0000
0000
0000
,  // measure 5
0001
0000
0000
0000
,  // measure 6
0001
0000
0000
0000
,  // measure 7
1000
0000
0000
0000
,  // measure 8
0001
0000
0001
0000
,  // measure 9
0001
0000
0000
0000
,  // measure 10
0100
0000
0100
0000
,  // measure 11
0100
0000
0000
0000
,  // measure 12
0010
0000
0010
0000
,  // measure 13
0010
0000
0000
0000
,  // measure 14
1000
0000
1000
0000
,  // measure 15
1000
0000
0000
0000
,  // measure 16
1001
0000
0000
0000
,  // measure 17
0200
0000
0000
0000
,  // measure 18
0000
0000
0300
0000
,  // measure 19
1000
0000
1000
0000
,  // measure 20
0001
0000
0001
0000
,  // measure 21
1000
0000
1000
0000
,  // measure 22
0001
0000
1000
0000
,  // measure 23
0100
0000
0100
0000
,  // measure 24
0010
0000
0010
0000
,  // measure 25
0100
0000
0100
0000
,  // measure 26
1001
0000
0000
0000
,  // measure 27
1000
1000
1000
0000
,  // measure 28
0010
0000
0010
0000
,  // measure 29
1000
1000
1000
0000
,  // measure 30
0100
0000
0100
0000
,  // measure 31
1000
1000
1000
0000
,  // measure 32
0010
0000
0100
0000
,  // measure 33
0001
0000
0001
0000
,  // measure 34
0002
0000
0003
0000
,  // measure 35
0001
0001
0001
0000
,  // measure 36
0010
0000
0010
0000
,  // measure 37
0001
0001
0001
0000
,  // measure 38
0100
0000
0100
0000
,  // measure 39
0001
0001
0001
0000
,  // measure 40
0010
0000
0010
0000
,  // measure 41
0001
0000
1000
0000
,  // measure 42
0002
0000
0003
0000
,  // measure 43
2002
0000
3003
0000
,  // measure 44
1000
0000
0100
0000
,  // measure 45
2002
0000
3003
0000
,  // measure 46
0001
0000
0100
0000
,  // measure 47
0220
0000
0330
0000
,  // measure 48
0100
0000
0010
0000
,  // measure 49
2000
0000
3000
0000
,  // measure 50
0200
0000
0300
0000
,  // measure 51
0020
0000
0030
0000
,  // measure 52
0002
0000
0003
0000
,  // measure 53
0100
0100
0100
0000
,  // measure 54
0010
0010
0010
0000
,  // measure 55
1000
0000
1000
0000
,  // measure 56
0001
0000
0001
0000
,  // measure 57
1000
0000
0001
0000
,  // measure 58
1000
0000
0001
0000
,  // measure 59
0010
0000
0000
0000
,  // measure 60
0001
0000
0000
0000
,  // measure 61
1000
0000
0000
0000
,  // measure 62
0010
0000
0000
0000
,  // measure 63
1001
0000
0000
0000
,  // measure 64
0110
0000
0000
0000
,  // measure 65
1001
0000
1001
0000
,  // measure 66
1001
0000
0000
0000
,  // measure 67
0001
0000
0010
0000
,  // measure 68
0100
0000
0010
0000
,  // measure 69
0001
0000
0100
0100
,  // measure 70
0100
0000
0010
0000
,  // measure 71
1000
0000
0010
0000
,  // measure 72
0100
0000
0010
0000
,  // measure 73
1000
0000
0001
0000
,  // measure 74
1000
0000
0100
0100
,  // measure 75
0100
0000
0000
0000
,  // measure 76
0200
0000
0300
0000
,  // measure 77
1000
0000
0010
0000
,  // measure 78
0100
0000
0001
0000
,  // measure 79
1000
0000
0010
0000
,  // measure 80
0100
0000
0001
0000
,  // measure 81
0010
0000
0100
0000
,  // measure 82
1000
0000
0001
0000
,  // measure 83
0010
0000
0100
0000
,  // measure 84
1000
0000
0001
0000
,  // measure 85
0000
0200
0000
0000
,  // measure 86
0000
0000
0300
0000
;
